osu file format v14

[General]
AudioFilename: audio.mp3
AudioLeadIn: 0
PreviewTime: -1
Countdown: 1
SampleSet: Normal
StackLeniency: 0.7
Mode: 3
LetterboxInBreaks: 0
SpecialStyle: 0
WidescreenStoryboard: 0

[Editor]
DistanceSpacing: NaN
BeatDivisor: 2
GridSize: 27
TimelineZoom: 1

[Metadata]
Title:FairyTale
TitleUnicode:FairyTale
Artist:Shaunt
ArtistUnicode:Shaunt
Creator:Stats-Kun
Version:Four-Key Resonance
Source:
Tags:
BeatmapID:2036212
BeatmapSetID:972546

[Difficulty]
HPDrainRate:6
CircleSize:4
OverallDifficulty:6
ApproachRate:5
SliderMultiplier:1.4
SliderTickRate:1

[Events]
//Background and Video events
0,0,"bg1.jpg",0,0
//Break Periods
//Storyboard Layer 0 (Background)
//Storyboard Layer 1 (Fail)
//Storyboard Layer 2 (Pass)
//Storyboard Layer 3 (Foreground)
//Storyboard Sound Samples

[TimingPoints]
0,500,4,1,0,100,1,0

[HitObjects]
192,192,0,5,0,0:0:0:0:
64,192,0,1,0,0:0:0:0:
448,192,0,128,0,1500:0:0:0:0:
192,192,500,1,0,0:0:0:0:
320,192,500,1,0,0:0:0:0:
64,192,1000,1,0,0:0:0:0:
192,192,1000,1,0,0:0:0:0:
320,192,1500,128,0,2500:0:0:0:0:
192,192,1500,1,0,0:0:0:0:
64,192,2000,1,0,0:0:0:0:
192,192,2500,1,0,0:0:0:0:
448,192,2500,128,0,3000:0:0:0:0:
320,192,3000,1,0,0:0:0:0:
64,192,3000,128,0,4000:0:0:0:0:
192,192,3000,128,0,4000:0:0:0:0:
448,192,4000,1,0,0:0:0:0:
320,192,4000,128,0,5500:0:0:0:0:
192,192,4500,1,0,0:0:0:0:
64,192,5000,1,0,0:0:0:0:
448,192,5500,128,0,6000:0:0:0:0:
192,192,5500,1,0,0:0:0:0:
320,192,6000,128,0,6500:0:0:0:0:
64,192,6000,1,0,0:0:0:0:
192,192,6500,1,0,0:0:0:0:
448,192,6500,128,0,7500:0:0:0:0:
64,192,7000,1,0,0:0:0:0:
64,192,7500,1,0,0:0:0:0:
320,192,7500,128,0,8000:0:0:0:0:
448,192,8000,128,0,8500:0:0:0:0:
192,192,8000,1,0,0:0:0:0:
64,192,8500,128,0,9500:0:0:0:0:
320,192,8500,1,0,0:0:0:0:
192,192,9000,1,0,0:0:0:0:
192,192,9500,128,0,10500:0:0:0:0:
320,192,9500,1,0,0:0:0:0:
448,192,10000,1,0,0:0:0:0:
320,192,10500,1,0,0:0:0:0:
64,192,10500,128,0,11000:0:0:0:0:
448,192,11000,128,0,11500:0:0:0:0:
320,192,11000,1,0,0:0:0:0:
320,192,11500,128,0,12000:0:0:0:0:
192,192,11500,1,0,0:0:0:0:
192,192,12000,1,0,0:0:0:0:
64,192,12000,1,0,0:0:0:0:
448,192,12000,128,0,13000:0:0:0:0:
320,192,12500,1,0,0:0:0:0:
192,192,13000,1,0,0:0:0:0:
64,192,13000,1,0,0:0:0:0:
320,192,13000,128,0,13500:0:0:0:0:
448,192,13500,1,0,0:0:0:0:
64,192,13500,128,0,14000:0:0:0:0:
448,192,14000,128,0,15000:0:0:0:0:
192,192,14000,1,0,0:0:0:0:
320,192,14500,1,0,0:0:0:0:
192,192,15000,1,0,0:0:0:0:
320,192,15000,128,0,16000:0:0:0:0:
64,192,15500,1,0,0:0:0:0:
64,192,16000,128,0,17000:0:0:0:0:
192,192,16000,1,0,0:0:0:0:
320,192,16500,1,0,0:0:0:0:
192,192,17000,1,0,0:0:0:0:
320,192,17000,128,0,18000:0:0:0:0:
448,192,17000,128,0,18000:0:0:0:0:
192,192,18000,128,0,18500:0:0:0:0:
64,192,18000,128,0,18500:0:0:0:0:
320,192,18500,128,0,19000:0:0:0:0:
448,192,19000,128,0,20000:0:0:0:0:
192,192,19000,1,0,0:0:0:0:
64,192,19500,1,0,0:0:0:0:
64,192,20000,128,0,22000:0:0:0:0:
192,192,20000,1,0,0:0:0:0:
320,192,20500,1,0,0:0:0:0:
448,192,21000,1,0,0:0:0:0:
320,192,21500,1,0,0:0:0:0:
192,192,22000,128,0,23000:0:0:0:0:
448,192,22000,1,0,0:0:0:0:
320,192,22500,1,0,0:0:0:0:
320,192,23000,128,0,23500:0:0:0:0:
64,192,23000,1,0,0:0:0:0:
448,192,23500,128,0,24000:0:0:0:0:
192,192,23500,1,0,0:0:0:0:
320,192,24000,1,0,0:0:0:0:
192,192,24000,128,0,25000:0:0:0:0:
64,192,24000,128,0,25000:0:0:0:0:
320,192,24500,1,0,0:0:0:0:
320,192,25000,128,0,26000:0:0:0:0:
192,192,25500,1,0,0:0:0:0:
448,192,26000,1,0,0:0:0:0:
64,192,26000,128,0,27000:0:0:0:0:
192,192,26500,1,0,0:0:0:0:
320,192,27000,1,0,0:0:0:0:
448,192,27000,1,0,0:0:0:0:
320,192,27500,1,0,0:0:0:0:
64,192,28000,128,0,29000:0:0:0:0:
192,192,28000,128,0,29000:0:0:0:0:
320,192,28000,1,0,0:0:0:0:
448,192,28500,1,0,0:0:0:0:
320,192,29000,1,0,0:0:0:0:
448,192,29000,128,0,30000:0:0:0:0:
192,192,29500,1,0,0:0:0:0:
64,192,30000,1,0,0:0:0:0:
192,192,30000,128,0,31000:0:0:0:0:
320,192,30500,1,0,0:0:0:0:
448,192,31000,1,0,0:0:0:0:
64,192,31000,128,0,32000:0:0:0:0:
192,192,32000,128,0,32500:0:0:0:0:
320,192,32000,1,0,0:0:0:0:
320,192,32500,128,0,33000:0:0:0:0:
64,192,32500,1,0,0:0:0:0:
448,192,33000,128,0,34000:0:0:0:0:
64,192,33000,1,0,0:0:0:0:
320,192,34000,128,0,34500:0:0:0:0:
192,192,34000,1,0,0:0:0:0:
192,192,34500,128,0,35000:0:0:0:0:
64,192,35000,128,0,35500:0:0:0:0:
192,192,35500,128,0,36000:0:0:0:0:
320,192,36000,128,0,37500:0:0:0:0:
448,192,36000,128,0,37500:0:0:0:0:
64,192,36000,1,0,0:0:0:0:
64,192,36500,1,0,0:0:0:0:
192,192,37000,1,0,0:0:0:0:
192,192,37500,128,0,38000:0:0:0:0:
64,192,38000,128,0,39000:0:0:0:0:
192,192,38500,1,0,0:0:0:0:
192,192,39000,128,0,40000:0:0:0:0:
320,192,39000,128,0,40000:0:0:0:0:
448,192,40000,128,0,41000:0:0:0:0:
64,192,40000,1,0,0:0:0:0:
192,192,40500,1,0,0:0:0:0:
192,192,41000,128,0,42000:0:0:0:0:
320,192,41000,128,0,42000:0:0:0:0:
64,192,42000,128,0,43000:0:0:0:0:
448,192,42000,1,0,0:0:0:0:
320,192,42500,1,0,0:0:0:0:
320,192,43000,128,0,43500:0:0:0:0:
448,192,43000,128,0,43500:0:0:0:0:
192,192,43000,1,0,0:0:0:0:
64,192,43500,128,0,44000:0:0:0:0:
192,192,43500,128,0,44000:0:0:0:0:
320,192,44000,5,0,0:0:0:0:
448,192,44500,1,0,0:0:0:0:
64,192,45000,5,0,0:0:0:0:
192,192,45500,1,0,0:0:0:0:
448,192,46000,128,0,50000:0:0:0:0:
320,192,46000,128,0,50000:0:0:0:0:
