osu file format v14

[General]
AudioFilename: audio.mp3
AudioLeadIn: 0
PreviewTime: 5966
Countdown: 1
SampleSet: None
StackLeniency: 0.7
Mode: 0
LetterboxInBreaks: 0
WidescreenStoryboard: 1

[Editor]
DistanceSpacing: 2.3
BeatDivisor: 4
GridSize: 16
TimelineZoom: 2.5

[Metadata]
Title:@Guruguru Warudo@
TitleUnicode:@ぐ~るぐるわーるど@
Artist:Sharo (CV. Uchida Maaya)
ArtistUnicode:シャロ (CV. 内田真礼)
Creator:Haxel
Version:Is the order a difficulty ?
Source:ご注文はうさぎですか??
Tags:Gochiusa Gochuumon Wa Usagi Desu Ka Kirima Syaro Anime Full Japanese
BeatmapID:1837519
BeatmapSetID:599086

[Difficulty]
HPDrainRate:6
CircleSize:4
OverallDifficulty:7
ApproachRate:9
SliderMultiplier:1.4
SliderTickRate:1

[Events]
//Background and Video events
0,0,"Sharo.jpg",0,0
//Break Periods
2,24400,30145
//Storyboard Layer 0 (Background)
//Storyboard Layer 1 (Fail)
//Storyboard Layer 2 (Pass)
//Storyboard Layer 3 (Foreground)
//Storyboard Sound Samples

[TimingPoints]
1291,363.636363636364,4,1,0,100,1,0
33200,30,4,1,0,100,1,0
33654,363.636363636364,4,1,0,100,1,0

[HitObjects]
248,35,7109,6,0,B|329:43|368:121,1,140
382,184,7745,1,0,0:0:0:0:
382,184,7836,2,0,B|386:217|355:254,1,70
314,307,8200,6,0,P|285:321|235:317,1,70
63,281,8563,1,0,0:0:0:0:
231,194,8745,1,0,0:0:0:0:
81,78,8927,1,0,0:0:0:0:
231,194,9109,1,0,0:0:0:0:
315,24,9291,1,0,0:0:0:0:
231,194,9472,1,0,0:0:0:0:
418,170,9654,1,0,0:0:0:0:
369,256,10018,5,0,0:0:0:0:
254,129,10381,1,0,0:0:0:0:
128,112,10563,1,0,0:0:0:0:
128,112,10745,2,0,L|48:112,1,70,0|0,0:0|0:0,0:0:0:0:
128,192,11109,1,0,0:0:0:0:
192,112,11291,1,0,0:0:0:0:
320,272,11472,5,0,0:0:0:0:
96,112,11836,1,0,0:0:0:0:
352,64,12200,1,0,0:0:0:0:
144,301,12563,1,0,0:0:0:0:
221,229,12745,1,0,0:0:0:0:
101,203,12927,2,0,P|120:137|177:98,1,140,0|0,0:0|0:0,0:0:0:0:
230,71,13472,5,0,0:0:0:0:
360,48,13654,1,0,0:0:0:0:
463,130,13836,2,0,P|456:165|407:203,1,70,0|0,0:0|0:0,0:0:0:0:
343,287,14200,1,0,0:0:0:0:
180,245,14381,1,0,0:0:0:0:
58,74,14745,1,0,0:0:0:0:
259,176,15109,1,0,0:0:0:0:
433,59,15472,1,0,0:0:0:0:
329,207,15836,6,0,P|276:251|185:273,1,140,0|0,0:0|0:0,0:0:0:0:
65,143,16381,1,0,0:0:0:0:
65,143,16472,1,0,0:0:0:0:
65,143,16563,1,0,0:0:0:0:
191,84,17109,5,0,0:0:0:0:
191,84,17200,1,0,0:0:0:0:
191,84,17291,2,0,P|228:83|274:107,1,70,0|0,0:0|0:0,0:0:0:0:
237,193,17654,2,0,P|200:194|154:170,1,70,0|0,0:0|0:0,0:0:0:0:
72,103,18018,1,0,0:0:0:0:
348,149,18381,1,0,0:0:0:0:
247,300,18745,2,0,P|216:313|151:318,1,70,0|0,0:0|0:0,0:0:0:0:
103,301,19109,6,0,P|52:250|29:182,1,140,0|0,0:0|0:0,0:0:0:0:
60,85,19654,1,0,0:0:0:0:
416,103,20018,1,0,0:0:0:0:
216,128,20381,5,0,0:0:0:0:
216,128,20472,1,0,0:0:0:0:
216,128,20563,2,0,P|252:119|289:130,1,70,0|0,0:0|0:0,0:0:0:0:
336,181,20927,2,0,P|350:218|341:256,1,70,0|0,0:0|0:0,0:0:0:0:
274,260,21291,2,0,P|247:289|210:299,1,70,0|0,0:0|0:0,0:0:0:0:
136,305,21654,5,0,0:0:0:0:
78,235,22018,2,0,P|85:179|129:108,1,140,0|0,0:0|0:0,0:0:0:0:
143,103,22927,5,0,0:0:0:0:
347,70,23291,1,0,0:0:0:0:
347,70,23381,1,0,0:0:0:0:
347,70,23472,1,0,0:0:0:0:
393,197,23654,2,0,P|375:231|337:260,1,70
201,271,24018,1,0,0:0:0:0:
248,101,24200,1,0,0:0:0:0:
130,68,30745,6,0,P|167:73|212:101,1,70,0|0,0:0|0:0,0:0:0:0:
182,198,31109,2,0,P|145:192|100:164,1,70,0|0,0:0|0:0,0:0:0:0:
273,87,31654,1,0,0:0:0:0:
350,171,32018,1,0,0:0:0:0:
313,246,32200,1,0,0:0:0:0:
229,251,32381,1,0,0:0:0:0:
159,204,32563,2,0,P|189:127|262:90,1,140,0|0,0:0|0:0,0:0:0:0:
306,114,33290,5,0,0:0:0:0:
306,114,33297,1,0,0:0:0:0:
306,114,33305,1,0,0:0:0:0:
306,114,33312,1,0,0:0:0:0:
306,114,33320,1,0,0:0:0:0:
449,201,33654,2,0,P|407:221|356:230,1,70,0|0,0:0|0:0,0:0:0:0:
296,203,34200,1,0,0:0:0:0:
229,164,34563,1,0,0:0:0:0:
201,272,34927,5,0,0:0:0:0:
201,71,35109,1,0,0:0:0:0:
373,172,35291,1,0,0:0:0:0:
158,254,35472,1,0,0:0:0:0:
244,73,35654,1,0,0:0:0:0:
354,239,35836,1,0,0:0:0:0:
217,162,36200,1,0,0:0:0:0:
86,76,36563,6,0,P|123:74|181:86,1,70,0|0,0:0|0:0,0:0:0:0:
233,153,36927,2,0,P|195:154|138:143,1,70,0|0,0:0|0:0,0:0:0:0:
72,240,37472,1,0,0:0:0:0:
177,315,37836,2,0,P|216:302|243:273,1,70,0|0,0:0|0:0,0:0:0:0:
288,230,38200,1,0,0:0:0:0:
292,139,38381,1,0,0:0:0:0:
120,199,38745,1,0,0:0:0:0:
357,84,39109,6,0,P|406:131|432:197,1,140,0|0,0:0|0:0,0:0:0:0:
415,265,39654,1,0,0:0:0:0:
342,286,39836,2,0,P|274:283|210:252,1,140,0|0,0:0|0:0,0:0:0:0:
180,161,40381,1,0,0:0:0:0:
327,284,40745,5,0,0:0:0:0:
209,77,40927,1,0,0:0:0:0:
209,284,41109,1,0,0:0:0:0:
328,77,41291,1,0,0:0:0:0:
149,180,41472,1,0,0:0:0:0:
387,180,41654,2,0,L|458:180,1,70,0|0,0:0|0:0,0:0:0:0:
163,62,42200,6,0,P|108:123|81:188,1,140,0|0,0:0|0:0,0:0:0:0:
66,256,42745,1,0,0:0:0:0:
124,325,42927,1,0,0:0:0:0:
211,296,43109,2,0,P|248:279|281:244,1,70,0|0,0:0|0:0,0:0:0:0:
446,57,43654,5,0,0:0:0:0:
446,57,43745,1,0,0:0:0:0:
446,57,43836,2,0,P|405:52|363:62,1,70,0|0,0:0|0:0,0:0:0:0:
291,132,44200,2,0,P|332:127|374:137,1,70
458,208,44563,2,0,P|417:203|375:213,1,70,0|0,0:0|0:0,0:0:0:0:
41,74,45109,6,0,P|76:84|139:88,1,70
175,155,45381,2,0,P|140:165|77:169,1,70
41,236,45654,2,0,P|76:246|139:250,2,70
196,281,46200,6,0,P|227:294|265:293,1,70
358,290,46563,2,0,P|395:277|428:250,1,70
350,162,46927,1,0,0:0:0:0:
350,162,47018,1,0,0:0:0:0:
350,162,47109,2,0,P|314:149|266:152,1,70
150,236,47472,1,0,0:0:0:0:
415,127,47654,1,0,0:0:0:0:
322,80,47836,6,0,P|253:75|185:92,1,140
90,137,48381,1,0,0:0:0:0:
143,220,48563,1,0,0:0:0:0:
200,283,48745,2,0,P|231:299|278:298,1,70,0|0,0:0|0:0,0:0:0:0:
343,281,49109,2,0,P|377:273|412:242,1,70,0|0,0:0|0:0,0:0:0:0:
387,113,49654,1,0,0:0:0:0:
253,69,50018,1,0,0:0:0:0:
117,104,50381,1,0,0:0:0:0:
324,317,50745,5,0,0:0:0:0:
246,90,51291,1,0,0:0:0:0:
246,90,51381,1,0,0:0:0:0:
246,90,51472,2,0,P|186:74|152:85,1,70,0|0,0:0|0:0,0:0:0:0:
66,262,52018,1,0,0:0:0:0:
66,262,52109,1,0,0:0:0:0:
66,262,52200,2,0,P|100:262|132:277,1,70,0|0,0:0|0:0,0:0:0:0:
359,302,52745,5,0,0:0:0:0:
438,222,52927,1,0,0:0:0:0:
409,114,53109,1,0,0:0:0:0:
152,304,53291,1,0,0:0:0:0:
123,195,53472,1,0,0:0:0:0:
197,97,53654,2,0,L|140:58,1,70,0|0,0:0|0:0,0:0:0:0:
147,153,54018,5,0,0:0:0:0:
262,179,54381,1,0,0:0:0:0:
410,258,54563,1,0,0:0:0:0:
296,292,54745,1,0,0:0:0:0:
375,144,54927,1,0,0:0:0:0:
375,144,55291,1,0,0:0:0:0:
296,292,55472,1,0,0:0:0:0:
411,263,55654,6,0,L|337:221,1,70,0|0,0:0|0:0,0:0:0:0:
236,235,56018,1,0,0:0:0:0:
316,123,56200,1,0,0:0:0:0:
201,87,56381,1,0,0:0:0:0:
108,65,56563,6,0,P|79:92|75:129,1,70,0|0,0:0|0:0,0:0:0:0:
140,140,56927,2,0,P|131:178|101:200,1,70,0|0,0:0|0:0,0:0:0:0:
26,263,57200,1,0,0:0:0:0:
26,263,57291,2,0,P|52:286|88:300,1,70
232,309,57654,6,0,P|268:317|315:310,1,70
467,223,58018,1,0,0:0:0:0:
282,187,58200,1,0,0:0:0:0:
434,74,58381,1,0,0:0:0:0:
282,187,58563,1,0,0:0:0:0:
141,60,58745,1,0,0:0:0:0:
282,187,58927,1,0,0:0:0:0:
108,259,59109,1,0,0:0:0:0:
255,193,59472,5,0,0:0:0:0:
396,100,59836,1,0,0:0:0:0:
212,63,60109,1,0,0:0:0:0:
212,63,60200,2,0,P|178:65|146:84,1,70,0|0,0:0|0:0,0:0:0:0:
92,150,60563,2,0,P|78:184|80:240,1,70,0|0,0:0|0:0,0:0:0:0:
100,313,60927,5,0,0:0:0:0:
391,114,61291,1,0,0:0:0:0:
110,103,61654,1,0,0:0:0:0:
231,273,62018,1,0,0:0:0:0:
323,99,62200,1,0,0:0:0:0:
378,297,62381,2,0,P|442:313|508:281,1,140,0|0,0:0|0:0,0:0:0:0:
469,199,62927,5,0,0:0:0:0:
469,199,63018,1,0,0:0:0:0:
469,199,63109,2,0,P|459:168|431:118,1,70,0|0,0:0|0:0,0:0:0:0:
378,94,63472,1,0,0:0:0:0:
287,58,63654,2,0,P|251:52|189:69,1,70,0|0,0:0|0:0,0:0:0:0:
280,167,64200,1,0,0:0:0:0:
125,239,64563,1,0,0:0:0:0:
287,287,64927,1,0,0:0:0:0:
114,85,65291,6,0,P|180:66|249:75,1,140
360,122,65836,1,0,0:0:0:0:
403,231,66018,1,0,0:0:0:0:
162,158,66381,1,0,0:0:0:0:
352,332,66745,1,0,0:0:0:0:
348,166,67018,1,0,0:0:0:0:
131,61,67291,6,0,P|102:79|63:132,1,70
96,211,67654,1,0,0:0:0:0:
268,132,67836,1,0,0:0:0:0:
206,310,68018,1,0,0:0:0:0:
369,119,68200,6,0,P|373:83|399:48,1,70
474,110,68563,2,0,P|470:146|444:181,1,70
420,235,68836,1,0,0:0:0:0:
420,235,68927,2,0,P|391:258|331:273,1,70
296,306,69291,6,0,P|263:317|204:315,1,70
44,273,69654,1,0,0:0:0:0:
211,184,69836,1,0,0:0:0:0:
67,60,70018,1,0,0:0:0:0:
211,184,70200,1,0,0:0:0:0:
334,42,70381,1,0,0:0:0:0:
211,184,70563,1,0,0:0:0:0:
398,211,70745,1,0,0:0:0:0:
70,151,71109,6,0,P|99:123|146:100,1,70
217,92,71472,2,0,P|251:91|286:99,2,70
132,209,72018,1,0,0:0:0:0:
298,299,72200,1,0,0:0:0:0:
267,113,72381,1,0,0:0:0:0:
429,209,72563,2,0,P|412:246|378:285,1,70
333,315,72927,2,0,P|297:334|247:346,1,70
176,330,73291,2,0,P|146:306|128:267,1,70
133,84,73654,5,0,0:0:0:0:
211,256,73836,1,0,0:0:0:0:
312,56,74018,2,0,P|356:83|374:132,1,105
73,93,74563,5,0,0:0:0:0:
208,55,74745,1,0,0:0:0:0:
342,94,74927,2,0,P|377:110|409:145,1,70
470,253,75291,1,0,0:0:0:0:
350,327,75472,2,0,P|312:338|257:323,1,70
179,309,75836,2,0,P|142:293|110:246,1,70,0|0,0:3|0:0,0:0:0:0:
167,204,76200,2,0,P|191:228|223:241,1,70,0|0,0:3|0:0,0:0:0:0:
300,253,76563,2,0,P|334:256|368:246,1,70
112,64,76927,6,0,L|272:96,1,140
368,160,77472,1,0,0:0:0:0:
368,160,77563,1,0,0:0:0:0:
368,160,77654,2,0,P|363:195|339:234,1,70,0|0,0:3|0:3,0:3:0:0:
61,90,78200,5,0,0:0:0:0:
61,90,78290,1,0,0:0:0:0:
61,90,78381,1,0,0:0:0:0:
73,176,78563,2,0,P|103:207|141:219,1,70
154,290,78927,2,0,P|195:300|234:290,1,70
301,328,79472,1,0,0:0:0:0:
401,175,79836,1,0,0:0:0:0:
145,247,80018,1,0,0:0:0:0:
304,320,80200,5,0,0:0:0:0:
77,326,80745,1,0,0:0:0:0:
406,169,81109,1,0,0:0:0:0:
128,112,81472,5,0,0:0:0:0:
142,104,81563,1,0,0:0:0:0:
156,97,81654,1,0,0:0:0:0:
171,90,81745,1,0,0:0:0:0:
185,83,81836,1,0,0:0:0:0:
305,85,82018,2,0,P|331:108|346:143,1,70
244,265,82381,2,0,P|220:292|159:317,1,70
89,130,82745,5,0,0:0:0:0:
235,318,83109,1,0,0:0:0:0:
301,65,83473,2,0,P|335:69|369:81,1,70
78,248,84018,6,0,P|99:275|163:296,1,70
209,293,84381,1,0,0:0:0:0:
209,293,84472,1,0,0:0:0:0:
209,293,84563,1,0,0:0:0:0:
372,243,84745,1,0,0:0:0:0:
168,189,84927,1,0,0:0:0:0:
374,148,85109,1,0,0:0:0:0:
171,91,85291,1,0,0:0:0:0:
457,62,85654,5,0,0:0:0:0:
387,206,85836,1,0,0:0:0:0:
387,206,85927,1,0,0:0:0:0:
387,206,86018,1,0,0:0:0:0:
291,77,86200,1,0,0:0:0:0:
221,307,86381,5,0,0:0:0:0:
125,178,86563,1,0,0:0:0:0:
125,178,86654,1,0,0:0:0:0:
125,178,86745,1,0,0:0:0:0:
55,322,86927,1,0,0:0:0:0:
158,115,87109,5,0,0:0:0:0:
259,322,87291,1,0,0:0:0:0:
31,289,87472,1,0,0:0:0:0:
263,68,87654,1,0,0:0:0:0:
352,274,87836,2,0,P|282:257|221:201,1,140
175,125,88381,5,0,0:0:0:0:
175,125,88472,1,0,0:0:0:0:
175,125,88563,1,0,0:0:0:0:
326,226,88745,1,0,0:0:0:0:
326,226,88836,1,0,0:0:0:0:
326,226,88927,1,0,0:0:0:0:
160,302,89109,1,0,0:0:0:0:
160,302,89200,1,0,0:0:0:0:
160,302,89291,1,0,0:0:0:0:
249,87,89472,5,0,0:0:0:0:
394,197,89654,1,0,0:0:0:0:
224,263,89836,1,0,0:0:0:0:
346,66,90018,2,0,L|381:80,1,35
463,258,90291,1,0,0:0:0:0:
289,272,90472,2,0,L|250:221,1,35
403,132,90745,1,0,0:0:0:0:
