osu file format v14

[General]
AudioFilename: audio.mp3
AudioLeadIn: 0
PreviewTime: 71893
Countdown: 0
SampleSet: Soft
StackLeniency: 0.4
Mode: 0
LetterboxInBreaks: 0
EpilepsyWarning: 1
WidescreenStoryboard: 1

[Editor]
DistanceSpacing: 2.2
BeatDivisor: 4
GridSize: 8
TimelineZoom: 1.6

[Metadata]
Title:Yuan Feng
TitleUnicode:远枫
Artist:Sharlo
ArtistUnicode:夏萝
Creator:Present
Version:Vista
Source:Zyon載音
Tags:遠楓 zion Chinese Pop Yonder Voice AngelSnow Maple Wind himmel Ujimatcha kuse KuBsNia_ZhoYL_
BeatmapID:3323564
BeatmapSetID:1584479

[Difficulty]
HPDrainRate:5.2
CircleSize:3.8
OverallDifficulty:8.2
ApproachRate:8.5
SliderMultiplier:2.2
SliderTickRate:2

[Events]
//Background and Video events
0,0,"asdf.jpg",0,0
//Break Periods
2,71480,72284
//Storyboard Layer 0 (Background)
//Storyboard Layer 1 (Fail)
//Storyboard Layer 2 (Pass)
//Storyboard Layer 3 (Foreground)
Sprite,Foreground,Centre,"sb\circle.png",150,143 F,1,1893,2693,0.55,0 S,1,1893,2693,0.03,0.3
Sprite,Foreground,Centre,"sb\circle.png",251,205 F,1,2559,3359,0.55,0 S,1,2559,3359,0.03,0.3
Sprite,Foreground,Centre,"sb\circle.png",490,143 F,1,3670,4470,0.55,0 S,1,3670,4470,0.03,0.3
Sprite,Foreground,Centre,"sb\circle.png",389,205 F,1,4337,5137,0.55,0 S,1,4337,5137,0.03,0.3
Sprite,Foreground,Centre,"sb\circle.png",444,328 F,1,5448,6248,0.55,0 S,1,5448,6248,0.03,0.3
Sprite,Foreground,Centre,"sb\circle.png",345,355 F,1,6115,6915,0.55,0 S,1,6115,6915,0.03,0.3
Sprite,Foreground,Centre,"sb\circle.png",240,294 F,1,7226,8026,0.55,0 S,1,7226,8026,0.03,0.3
Sprite,Foreground,Centre,"sb\circle.png",331,245 F,1,7893,8693,0.55,0 S,1,7893,8693,0.03,0.3
Sprite,Foreground,Centre,"sb\lyrics\credit\0042.png",-35.7314,223.4686 S,0,8893,,0.4 F,0,8893,9283,0,1 F,0,15526,15916,1,0
Sprite,Foreground,Centre,"sb\lyrics\credit\0065.png",-22.05939,226.2686 S,0,8893,,0.4 F,0,8893,9283,0,1 F,0,15526,15916,1,0
Sprite,Foreground,Centre,"sb\lyrics\credit\0061.png",-7.987395,226.2686 S,0,8893,,0.4 F,0,8893,9283,0,1 F,0,15526,15916,1,0
Sprite,Foreground,Centre,"sb\lyrics\credit\0074.png",5.284604,224.4686 S,0,8893,,0.4 F,0,8893,9283,0,1 F,0,15526,15916,1,0
Sprite,Foreground,Centre,"sb\lyrics\credit\006d.png",19.7566,226.2686 S,0,8893,,0.4 F,0,8893,9283,0,1 F,0,15526,15916,1,0
Sprite,Foreground,Centre,"sb\lyrics\credit\0061.png",33.6286,226.2686 S,0,8893,,0.4 F,0,8893,9283,0,1 F,0,15526,15916,1,0
Sprite,Foreground,Centre,"sb\lyrics\credit\0070.png",47.5006,228.2686 S,0,8893,,0.4 F,0,8893,9283,0,1 F,0,15526,15916,1,0
Sprite,Foreground,Centre,"sb\lyrics\credit\0062.png",75.24461,223.4686 S,0,8893,,0.4 F,0,8893,9283,0,1 F,0,15526,15916,1,0
Sprite,Foreground,Centre,"sb\lyrics\credit\0079.png",88.9166,228.2686 S,0,8893,,0.4 F,0,8893,9283,0,1 F,0,15526,15916,1,0
Sprite,Foreground,Centre,"sb\lyrics\credit\0050.png",117.0606,223.4686 S,0,8893,,0.4 F,0,8893,9283,0,1 F,0,15526,15916,1,0
Sprite,Foreground,Centre,"sb\lyrics\credit\0072.png",130.5326,226.2686 S,0,8893,,0.4 F,0,8893,9283,0,1 F,0,15526,15916,1,0
Sprite,Foreground,Centre,"sb\lyrics\credit\0065.png",144.4046,226.2686 S,0,8893,,0.4 F,0,8893,9283,0,1 F,0,15526,15916,1,0
Sprite,Foreground,Centre,"sb\lyrics\credit\0073.png",158.4766,226.2686 S,0,8893,,0.4 F,0,8893,9283,0,1 F,0,15526,15916,1,0
Sprite,Foreground,Centre,"sb\lyrics\credit\0065.png",172.1486,226.2686 S,0,8893,,0.4 F,0,8893,9283,0,1 F,0,15526,15916,1,0
Sprite,Foreground,Centre,"sb\lyrics\credit\006e.png",186.0206,226.2686 S,0,8893,,0.4 F,0,8893,9283,0,1 F,0,15526,15916,1,0
Sprite,Foreground,Centre,"sb\lyrics\credit\0074.png",199.4926,224.4686 S,0,8893,,0.4 F,0,8893,9283,0,1 F,0,15526,15916,1,0
//Storyboard Layer 4 (Overlay)
//Storyboard Sound Samples

[TimingPoints]
-5164,444.444444444444,4,2,8,40,1,0
1724,-166.666666666667,4,2,8,40,0,0
8835,-166.666666666667,4,2,8,50,0,0
9058,-125,4,2,8,50,0,0
16169,-166.666666666667,4,2,8,20,0,0
24502,-166.666666666667,4,2,8,5,0,0
24613,-166.666666666667,4,2,8,20,0,0
30391,-142.857142857143,4,2,8,50,0,0
37502,-125,4,2,8,30,0,0
44613,-166.666666666667,4,2,8,50,0,0
46724,-166.666666666667,4,2,8,5,0,0
46835,-166.666666666667,4,2,8,50,0,0
51724,-166.666666666667,4,2,8,30,0,0
51947,-166.666666666667,4,2,8,50,0,0
57947,-166.666666666667,4,2,8,30,0,0
58391,-166.666666666667,4,2,8,50,0,0
58835,-125,4,2,8,40,0,0
65947,-125,4,2,8,50,0,0
66058,-125,4,2,8,50,0,0
66169,-125,4,2,8,50,0,0
71280,-125,4,2,9,50,0,0
73058,-100,4,2,8,60,0,1
73280,-100,4,2,8,60,0,1
73391,-100,4,2,8,60,0,1
75057,-100,4,2,8,60,0,1
75168,-100,4,2,8,60,0,1
76835,-100,4,2,8,60,0,1
76946,-100,4,2,8,60,0,1
80391,-100,4,2,8,60,0,1
80502,-100,4,2,8,60,0,1
82168,-100,4,2,8,60,0,1
82280,-100,4,2,8,60,0,1
87280,-125,4,2,8,50,0,0
94391,-166.666666666667,4,2,8,40,0,0
98613,-333.333333333333,4,2,8,40,0,0

[Colours]
Combo1 : 253,255,162
Combo2 : 255,147,66
Combo3 : 131,141,199
Combo4 : 213,197,176

[HitObjects]
86,87,1724,5,2,0:0:0:0:
86,87,1835,1,2,0:0:0:0:
86,87,1947,2,0,P|128:87|157:74,1,65.9999979858399,4|2,0:3|0:0,0:0:0:0:
224,24,2391,1,2,0:0:0:0:
187,149,2613,2,0,P|124:169|59:161,1,131.99999597168,4|2,0:3|0:0,0:0:0:0:
426,87,3724,6,0,P|384:87|355:74,1,65.9999979858399,4|2,0:3|0:0,0:0:0:0:
288,24,4168,1,2,0:0:0:0:
325,149,4391,2,0,P|387:169|452:161,1,131.99999597168,2|2,0:0|0:0,0:0:0:0:
380,272,5280,5,2,0:0:0:0:
380,272,5391,1,2,0:0:0:0:
380,272,5502,1,4,0:3:0:0:
449,341,5724,1,2,0:0:0:0:
353,367,5947,1,2,0:0:0:0:
281,299,6169,2,0,B|208:280|218:337|134:309,1,131.99999597168,4|2,0:3|0:0,0:0:0:0:
98,123,7058,2,0,P|96:143|92:161,1,32.99999899292
176,238,7280,6,0,P|168:212|170:165,1,65.9999979858399,4|0,0:3|0:0,0:0:0:0:
231,97,7724,1,2,0:0:0:0:
267,189,7947,1,4,0:3:0:0:
267,189,8391,5,4,0:0:0:0:
285,183,8613,5,0,0:0:0:0:
311,185,8835,5,2,0:0:0:0:
311,185,8947,1,2,0:0:0:0:
311,185,9058,1,2,0:3:0:0:
463,143,9280,1,2,0:0:0:0:
353,29,9502,1,10,0:0:0:0:
403,228,9724,2,0,B|322:223|350:320|259:310,1,176,2|2,0:0|0:0,0:0:0:0:
157,366,10391,2,0,P|144:324|147:280,1,88,8|2,0:0|0:0,0:0:0:0:
252,149,10835,6,0,P|267:190|265:235,2,88,2|2|10,0:3|0:0|0:0,0:0:0:0:
141,69,11502,2,0,B|91:114|31:95|31:95|63:83|68:44,1,176,2|2,0:0|0:0,0:0:0:0:
202,0,12169,1,10,0:0:0:0:
172,159,12391,1,10,0:0:0:0:
66,53,12613,5,2,0:3:0:0:
272,96,12835,1,0,0:0:0:0:
159,278,13058,2,0,P|151:258|147:231,1,44,14|0,0:0|0:0,0:0:0:0:
141,69,13280,1,2,0:0:0:0:
328,187,13502,5,2,0:3:0:0:
243,318,13724,1,0,0:0:0:0:
272,96,13947,2,0,P|295:99|313:106,1,44,12|0,0:0|0:0,0:0:0:0:
474,205,14169,1,0,0:0:0:0:
369,365,14391,5,2,0:3:0:0:
159,278,14613,1,0,0:0:0:0:
365,246,14835,1,10,0:0:0:0:
217,187,15057,1,2,0:0:0:0:
217,187,15502,5,0,0:0:0:0:
251,370,15724,1,8,0:0:0:0:
361,142,15947,1,8,0:0:0:0:
361,142,16058,1,8,0:0:0:0:
361,142,16169,6,0,B|258:170|271:72|171:103,1,197.99999395752,2|0,0:3|0:0,0:0:0:0:
64,270,17058,2,0,P|82:239|87:195,1,65.9999979858399
90,53,17502,6,0,L|40:62,3,32.99999899292
176,101,17947,1,0,0:0:0:0:
176,101,18835,5,0,0:0:0:0:
188,98,19280,5,0,0:0:0:0:
200,95,19724,6,0,B|233:132|233:132|198:237,1,131.99999597168
236,314,20391,1,0,0:0:0:0:
300,197,20613,2,0,P|331:187|367:191,1,65.9999979858399
483,233,21058,1,0,0:0:0:0:
343,283,21280,1,0,0:0:0:0:
324,106,21502,2,0,B|334:38|296:6|296:6|329:40|387:21,1,197.99999395752
473,9,22391,5,0,0:0:0:0:
472,22,22835,5,0,0:0:0:0:
469,35,23280,6,0,P|486:77|478:162,1,131.99999597168,2|0,0:3|0:0,0:0:0:0:
434,278,23947,1,0,0:0:0:0:
398,143,24169,2,0,P|345:143|305:166,1,98.9999969787599
244,242,24613,2,0,L|203:239,3,32.99999899292
323,284,25058,1,4,0:3:0:0:
323,284,25502,1,0,0:0:0:0:
224,345,25724,1,0,0:0:0:0:
137,267,25947,6,0,P|132:235|153:185,1,65.9999979858399
227,94,26391,2,0,L|232:170,1,65.9999979858399
63,296,26835,6,0,P|52:241|84:152,1,131.99999597168,4|0,0:3|0:0,0:0:0:0:
211,239,27502,2,0,B|263:230|298:274|298:274|313:220|376:207,1,197.99999395752,4|0,0:3|0:0,0:0:0:0:
433,36,28613,6,0,P|474:66|415:69,1,131.99999597168,4|0,0:3|0:0,0:0:0:0:
240,22,29280,2,0,B|239:57|202:86|202:86|267:46|323:48,1,197.99999395752,4|0,0:3|0:0,0:0:0:0:
409,152,30391,6,0,B|402:192|430:249|430:249|399:267|386:306,1,153.999995300293,2|0,0:0|0:0,0:0:0:0:
490,346,31058,1,0,0:0:0:0:
344,363,31280,2,0,P|301:369|257:351,1,76.9999976501466
193,217,31724,1,0,0:0:0:0:
313,287,31947,1,0,0:0:0:0:
313,287,32058,1,0,0:0:0:0:
313,287,32169,2,0,L|326:196,1,76.9999976501466
182,140,32613,2,0,L|195:231,1,76.9999976501466
239,65,33058,5,2,0:0:0:0:
114,82,33280,1,0,0:0:0:0:
282,141,33502,1,2,0:0:0:0:
91,164,33724,1,0,0:0:0:0:
66,18,33947,6,0,B|48:-7|-39:11|38:117,1,153.999995300293,2|0,0:0|0:0,0:0:0:0:
182,140,34613,1,0,0:0:0:0:
80,217,34835,2,0,P|35:215|-1:230,1,76.9999976501466
157,297,35280,1,0,0:0:0:0:
264,196,35502,1,0,0:0:0:0:
264,196,35613,1,0,0:0:0:0:
264,196,35724,2,0,P|275:156|263:104,2,76.9999976501466
157,297,36391,1,0,0:0:0:0:
290,286,36613,5,2,0:0:0:0:
171,204,36835,1,0,0:0:0:0:
229,355,37058,1,0,0:0:0:0:
229,355,37502,6,0,P|271:380|317:373,1,88,2|0,0:3|0:0,0:0:0:0:
457,284,37947,2,0,P|415:259|369:266,1,88,2|0,0:3|0:0,0:0:0:0:
239,221,38391,1,2,0:3:0:0:
377,262,38613,1,0,0:0:0:0:
344,123,38835,1,2,0:3:0:0:
239,221,39057,1,0,0:0:0:0:
328,35,39280,6,0,B|425:25|389:110|503:83,1,176,6|2,0:3|0:3,0:0:0:0:
467,10,39947,1,0,0:0:0:0:
344,123,40169,2,0,L|247:134,1,88,6|0,0:3|0:0,0:0:0:0:
151,211,40613,2,0,L|248:222,1,88,6|0,0:3|0:0,0:0:0:0:
377,262,41058,5,6,0:3:0:0:
344,123,41280,1,4,0:3:0:0:
238,220,41502,1,6,0:3:0:0:
426,179,41724,1,4,0:3:0:0:
274,49,41947,5,2,0:3:0:0:
238,220,42169,1,0,0:0:0:0:
465,81,42391,2,0,P|422:56|384:51,1,88,2|0,0:3|0:0,0:0:0:0:
174,72,42835,5,2,0:3:0:0:
238,220,43058,1,0,0:0:0:0:
169,60,43280,5,4,0:0:0:0:
146,256,43502,1,0,0:0:0:0:
166,51,43724,5,2,0:3:0:0:
277,286,43947,1,0,0:0:0:0:
163,45,44169,5,6,0:0:0:0:
409,306,44391,1,2,0:0:0:0:
120,341,44613,6,0,B|67:375|-41:346|27:237|90:289,1,197.99999395752,4|2,0:1|0:0,0:0:0:0:
170,152,45502,2,0,P|172:185|150:226,1,65.9999979858399,2|2,0:0|0:0,0:0:0:0:
73,279,45947,1,2,0:0:0:0:
93,102,46169,1,2,0:0:0:0:
248,207,46391,6,0,P|295:197|359:197,1,98.9999969787599,0|0,0:3|0:0,0:0:0:0:
422,236,46835,1,2,0:0:0:0:
258,320,47058,1,2,0:0:0:0:
252,121,47280,2,0,P|251:90|244:52,1,65.9999979858399,0|2,0:0|0:0,0:0:0:0:
352,130,47724,2,0,P|346:162|344:195,1,65.9999979858399
158,158,48169,6,0,B|88:150|104:206|32:190,1,131.99999597168,2|0,0:0|0:0,0:0:0:0:
148,241,48835,1,2,0:0:0:0:
49,113,49058,6,0,P|50:80|56:47,1,65.9999979858399,0|2,0:0|0:0,0:0:0:0:
148,9,49502,1,0,0:0:0:0:
217,79,49724,1,0,0:0:0:0:
309,41,49947,2,0,P|338:31|374:31,3,65.9999979858399,0|2|2|2,0:0|0:0|0:0|0:0,0:0:0:0:
319,169,50835,6,0,P|295:148|278:117,1,65.9999979858399,2|0,0:0|0:0,0:0:0:0:
431,100,51280,2,0,P|425:130|406:161,1,65.9999979858399
324,255,51724,6,0,B|313:297|313:297|422:268,1,131.99999597168,2|0,0:3|0:0,0:0:0:0:
501,250,52391,1,0,0:0:0:0:
434,384,52613,2,0,P|404:367|369:362,1,65.9999979858399
262,276,53058,2,0,P|294:270|323:254,1,65.9999979858399
185,115,53502,6,0,L|170:224,1,98.9999969787599
186,291,53947,1,0,0:0:0:0:
259,189,54169,1,0,0:0:0:0:
97,160,54391,2,0,P|59:161|18:183,1,65.9999979858399,2|0,0:0|0:0,0:0:0:0:
46,274,54835,2,0,P|84:273|125:251,1,65.9999979858399
14,355,55280,5,2,0:0:0:0:
27,357,55502,1,0,0:0:0:0:
39,360,55724,1,0,0:0:0:0:
51,362,55947,2,0,P|81:350|114:350,1,65.9999979858399
221,384,56391,2,0,B|211:368|200:354|200:354|216:241,1,131.99999597168,2|0,0:0|0:0,0:0:0:0:
281,94,57058,6,0,P|291:132|285:176,1,65.9999979858399
213,259,57502,1,0,0:0:0:0:
393,173,57724,2,0,P|378:209|348:241,1,65.9999979858399,0|2,0:0|0:3,0:0:0:0:
198,179,58169,2,0,B|158:166|158:166|47:198,1,131.99999597168
55,99,58835,6,0,B|85:65|80:16|80:16|94:63|135:82,1,176,2|2,0:3|0:3,0:0:0:0:
253,106,59502,1,0,0:0:0:0:
174,248,59724,2,0,P|154:209|154:165,1,88,2|0,0:3|0:0,0:0:0:0:
207,40,60169,1,2,0:3:0:0:
301,170,60391,1,0,0:0:0:0:
232,314,60613,2,0,P|193:333|149:333,1,88,2|0,0:3|0:0,0:0:0:0:
74,226,61058,1,2,0:3:0:0:
267,243,61280,6,0,P|310:243|349:262,1,88,0|2,0:0|0:3,0:0:0:0:
409,367,61724,1,0,0:0:0:0:
441,230,61947,2,0,L|429:127,1,88,2|0,0:3|0:0,0:0:0:0:
415,43,62391,6,0,B|322:53|366:132|266:133,1,176,2|2,0:3|0:3,0:0:0:0:
116,10,63058,2,0,B|151:28|192:20|192:20|135:20|145:123,1,176
254,216,63724,2,0,P|273:184|273:126,1,88,2|0,0:3|0:0,0:0:0:0:
80,242,64169,6,0,L|167:259,1,88,2|0,0:3|0:0,0:0:0:0:
207,342,64613,1,2,0:3:0:0:
40,311,64835,2,0,P|1:242|52:168,1,176,2|0,0:0|0:0,0:0:0:0:
246,128,65502,2,0,L|253:215,1,88,2|2,0:3|0:3,0:0:0:0:
405,350,65947,5,4,0:0:0:0:
425,177,66169,1,0,0:0:0:0:
425,177,66280,1,0,0:0:0:0:
425,177,66391,1,8,0:0:0:0:
309,276,66613,6,0,P|268:292|214:286,1,88
143,191,67058,1,0,0:0:0:0:
327,79,67280,2,0,L|319:166,1,88,8|0,0:0|0:0,0:0:0:0:
158,370,67724,5,2,0:3:0:0:
232,183,67947,1,0,0:0:0:0:
309,276,68169,1,8,0:0:0:0:
71,245,68391,2,0,P|56:204|64:156,1,88,0|2,0:0|0:3,0:0:0:0:
168,49,68835,1,0,0:0:0:0:
275,173,69058,6,0,P|300:167|322:166,1,44,8|0,0:0|0:0,0:0:0:0:
342,346,69280,2,0,P|316:352|295:353,1,44,8|0,0:0|0:0,0:0:0:0:
221,110,69502,5,2,0:3:0:0:
194,318,69724,1,0,0:0:0:0:
317,79,69947,5,8,0:0:0:0:
342,346,70169,1,0,0:0:0:0:
139,91,70391,5,2,0:3:0:0:
395,159,70613,1,0,0:0:0:0:
86,288,70835,5,8,0:0:0:0:
441,248,71058,1,0,0:0:0:0:
139,91,71280,1,4,0:3:0:0:
139,91,73058,6,0,P|198:89|258:70,1,110,6|0,0:3|0:0,0:0:0:0:
351,39,73391,1,0,0:0:0:0:
351,39,73502,2,0,P|323:91|309:152,1,110,8|0,0:0|0:0,0:0:0:0:
374,276,73947,1,2,0:3:0:0:
433,98,74169,1,2,0:0:0:0:
222,182,74391,2,0,P|206:202|289:216,1,165,10|0,0:0|0:0,0:0:0:0:
311,140,74835,6,0,P|312:113|307:81,1,55,2|0,0:3|0:0,0:0:0:0:
232,0,75058,1,0,0:0:0:0:
203,224,75280,1,10,0:0:0:0:
61,92,75502,2,0,P|44:144|44:199,1,110,2|2,0:0|0:3,0:0:0:0:
187,332,75947,2,0,P|203:279|203:224,1,110,2|8,0:0|0:0,0:0:0:0:
44,199,76391,1,8,0:0:0:0:
276,348,76613,6,0,B|331:338|325:382|390:370,1,110,2|0,0:3|0:0,0:0:0:0:
376,291,76947,2,0,B|429:304|421:254|490:269,1,110
468,340,77280,1,2,0:0:0:0:
385,208,77502,6,0,B|375:159|427:161|407:94,1,110,2|0,0:3|0:0,0:0:0:0:
328,115,77836,2,0,B|338:66|286:68|306:1,1,110,2|0,0:0|0:0,0:0:0:0:
382,23,78169,1,2,0:0:0:0:
249,121,78391,5,2,0:3:0:0:
71,57,78613,1,2,0:0:0:0:
251,134,78835,5,10,0:0:0:0:
161,4,79058,1,2,0:0:0:0:
254,145,79280,5,2,0:3:0:0:
35,167,79502,1,0,0:0:0:0:
161,4,79724,6,0,P|170:32|175:64,1,55,8|0,0:0|0:0,0:0:0:0:
123,272,79947,2,0,P|114:244|109:212,1,55,8|0,0:0|0:0,0:0:0:0:
305,75,80169,6,0,B|349:62|349:62|411:88,1,110,4|0,0:0|0:0,0:0:0:0:
476,40,80502,1,0,0:0:0:0:
476,40,80613,2,0,P|490:94|462:152,1,110,8|2,0:0|0:0,0:0:0:0:
357,211,81058,1,2,0:3:0:0:
438,335,81280,1,2,0:0:0:0:
470,142,81502,2,0,B|410:149|410:149|372:127|372:127|308:137,1,165,10|0,0:0|0:0,0:0:0:0:
135,260,81946,6,0,P|161:262|189:255,1,55,2|0,0:3|0:0,0:0:0:0:
357,211,82169,1,0,0:0:0:0:
158,136,82391,1,8,0:0:0:0:
112,336,82613,2,0,P|164:340|220:326,1,110,0|2,0:0|0:3,0:0:0:0:
357,211,83058,2,0,P|303:197|249:201,1,110,0|8,0:0|0:0,0:0:0:0:
60,233,83502,1,8,0:0:0:0:
127,52,83724,5,2,0:3:0:0:
127,52,83835,1,0,0:0:0:0:
127,52,83947,1,0,0:0:0:0:
357,211,84169,2,0,B|359:162|346:128|346:128|373:96|375:54,1,165,8|0,0:0|0:0,0:0:0:0:
467,44,84613,5,2,0:3:0:0:
288,61,84835,1,0,0:0:0:0:
505,146,85058,6,0,P|477:139|447:140,1,55,8|0,0:0|0:0,0:0:0:0:
262,181,85280,1,0,0:0:0:0:
374,313,85502,1,6,0:3:0:0:
374,313,85947,5,8,0:0:0:0:
371,323,86169,5,0,0:0:0:0:
369,333,86391,5,2,0:3:0:0:
295,357,86613,1,2,0:0:0:0:
223,329,86835,1,10,0:0:0:0:
195,256,87058,1,10,0:0:0:0:
233,186,87280,5,6,0:3:0:0:
468,148,87724,1,8,0:0:0:0:
225,73,88169,5,2,0:3:0:0:
468,148,88613,1,10,0:0:0:0:
375,249,88835,5,0,0:0:0:0:
375,249,88947,1,0,0:0:0:0:
375,249,89058,1,2,0:3:0:0:
349,21,89502,1,8,0:0:0:0:
186,288,89947,5,2,0:3:0:0:
225,74,90391,1,8,0:0:0:0:
227,65,90613,1,8,0:0:0:0:
306,159,90835,5,2,0:3:0:0:
70,185,91280,1,8,0:0:0:0:
322,291,91724,5,2,0:3:0:0:
47,261,92169,1,8,0:0:0:0:
306,159,92613,5,2,0:3:0:0:
47,261,93058,1,8,0:0:0:0:
105,34,93502,5,2,0:3:0:0:
169,279,93947,1,8,0:0:0:0:
47,261,94169,1,8,0:0:0:0:
47,261,94280,1,2,0:3:0:0:
47,261,94391,6,0,P|38:300|37:331,1,65.9999979858399,4|0,0:0|0:0,0:0:0:0:
118,373,94835,1,0,0:0:0:0:
118,373,96169,5,0,0:0:0:0:
130,369,96391,1,0,0:0:0:0:
142,365,96613,1,0,0:0:0:0:
154,369,96835,1,0,0:0:0:0:
166,374,97058,2,0,B|277:391|230:299|358:321,1,197.99999395752,2|0,0:0|0:0,0:0:0:0:
451,340,97947,5,2,0:0:0:0:
449,326,98169,1,0,0:0:0:0:
449,312,98391,1,0,0:0:0:0:
454,299,98613,6,0,B|465:265|533:258|533:202|484:157|445:188|445:188|399:155|351:200|354:269|424:247|419:317,1,379.49998841858
