osu file format v14

[General]
AudioFilename: audio.mp3
AudioLeadIn: 0
PreviewTime: 71893
Countdown: 0
SampleSet: Soft
StackLeniency: 0.4
Mode: 0
LetterboxInBreaks: 0
EpilepsyWarning: 1
WidescreenStoryboard: 1

[Editor]
DistanceSpacing: 2.2
BeatDivisor: 4
GridSize: 4
TimelineZoom: 1.3

[Metadata]
Title:Yuan Feng
TitleUnicode:远枫
Artist:Sharlo
ArtistUnicode:夏萝
Creator:Present
Version:Sharlo's Lunatic
Source:Zyon載音
Tags:遠楓 zion Chinese Pop Yonder Voice AngelSnow Maple Wind himmel Ujimatcha kuse KuBsNia_ZhoYL_
BeatmapID:3332455
BeatmapSetID:1584479

[Difficulty]
HPDrainRate:5
CircleSize:4.5
OverallDifficulty:7.8
ApproachRate:8.2
SliderMultiplier:1.6
SliderTickRate:1

[Events]
//Background and Video events
0,0,"asdf.jpg",0,0
//Break Periods
2,16369,22560
//Storyboard Layer 0 (Background)
//Storyboard Layer 1 (Fail)
//Storyboard Layer 2 (Pass)
//Storyboard Layer 3 (Foreground)
Sprite,Foreground,Centre,"sb\circle.png",448,324 F,1,1893,2693,0.55,0 S,1,1893,2693,0.03,0.3
Sprite,Foreground,Centre,"sb\circle.png",251,280 F,1,2559,3359,0.55,0 S,1,2559,3359,0.03,0.3
Sprite,Foreground,Centre,"sb\circle.png",386,130 F,1,3670,4470,0.55,0 S,1,3670,4470,0.03,0.3
Sprite,Foreground,Centre,"sb\circle.png",455,376 F,1,4337,5137,0.55,0 S,1,4337,5137,0.03,0.3
Sprite,Foreground,Centre,"sb\circle.png",251,280 F,1,5448,6248,0.55,0 S,1,5448,6248,0.03,0.3
Sprite,Foreground,Centre,"sb\circle.png",276,196 F,1,6115,6915,0.55,0 S,1,6115,6915,0.03,0.3
Sprite,Foreground,Centre,"sb\circle.png",402,212 F,1,7226,8026,0.55,0 S,1,7226,8026,0.03,0.3
Sprite,Foreground,Centre,"sb\circle.png",164,77 F,1,7893,8693,0.55,0 S,1,7893,8693,0.03,0.3
Sprite,Foreground,Centre,"sb\lyrics\credit\0042.png",-28.93139,223.4686 S,0,8893,,0.4 F,0,8893,9283,0,1 F,0,15526,15916,1,0
Sprite,Foreground,Centre,"sb\lyrics\credit\0065.png",-15.25939,226.2686 S,0,8893,,0.4 F,0,8893,9283,0,1 F,0,15526,15916,1,0
Sprite,Foreground,Centre,"sb\lyrics\credit\0061.png",-1.187392,226.2686 S,0,8893,,0.4 F,0,8893,9283,0,1 F,0,15526,15916,1,0
Sprite,Foreground,Centre,"sb\lyrics\credit\0074.png",12.08461,224.4686 S,0,8893,,0.4 F,0,8893,9283,0,1 F,0,15526,15916,1,0
Sprite,Foreground,Centre,"sb\lyrics\credit\006d.png",26.55661,226.2686 S,0,8893,,0.4 F,0,8893,9283,0,1 F,0,15526,15916,1,0
Sprite,Foreground,Centre,"sb\lyrics\credit\0061.png",40.42861,226.2686 S,0,8893,,0.4 F,0,8893,9283,0,1 F,0,15526,15916,1,0
Sprite,Foreground,Centre,"sb\lyrics\credit\0070.png",54.30061,228.2686 S,0,8893,,0.4 F,0,8893,9283,0,1 F,0,15526,15916,1,0
Sprite,Foreground,Centre,"sb\lyrics\credit\0062.png",82.04462,223.4686 S,0,8893,,0.4 F,0,8893,9283,0,1 F,0,15526,15916,1,0
Sprite,Foreground,Centre,"sb\lyrics\credit\0079.png",95.71661,228.2686 S,0,8893,,0.4 F,0,8893,9283,0,1 F,0,15526,15916,1,0
Sprite,Foreground,Centre,"sb\lyrics\credit\0053.png",123.4606,223.2686 S,0,8893,,0.4 F,0,8893,9283,0,1 F,0,15526,15916,1,0
Sprite,Foreground,Centre,"sb\lyrics\credit\0068.png",137.3326,223.4686 S,0,8893,,0.4 F,0,8893,9283,0,1 F,0,15526,15916,1,0
Sprite,Foreground,Centre,"sb\lyrics\credit\0061.png",151.4046,226.2686 S,0,8893,,0.4 F,0,8893,9283,0,1 F,0,15526,15916,1,0
Sprite,Foreground,Centre,"sb\lyrics\credit\0072.png",165.0766,226.2686 S,0,8893,,0.4 F,0,8893,9283,0,1 F,0,15526,15916,1,0
Sprite,Foreground,Centre,"sb\lyrics\credit\006c.png",178.9486,223.4686 S,0,8893,,0.4 F,0,8893,9283,0,1 F,0,15526,15916,1,0
Sprite,Foreground,Centre,"sb\lyrics\credit\006f.png",193.0206,226.2686 S,0,8893,,0.4 F,0,8893,9283,0,1 F,0,15526,15916,1,0
//Storyboard Layer 4 (Overlay)
//Storyboard Sound Samples

[TimingPoints]
-5164,444.444444444444,4,2,8,40,1,0
1724,-125,4,2,8,40,0,0
8391,-125,4,2,8,40,0,0
8835,-100,4,2,8,50,0,0
16169,-166.666666666667,4,2,8,20,0,0
30391,-166.666666666667,4,2,8,50,0,0
37502,-125,4,2,8,30,0,0
44613,-166.666666666667,4,2,8,50,0,0
51724,-166.666666666667,4,2,8,30,0,0
51947,-166.666666666667,4,2,8,50,0,0
57947,-166.666666666667,4,2,8,30,0,0
58391,-166.666666666667,4,2,8,50,0,0
58835,-125,4,2,8,40,0,0
65947,-125,4,2,8,50,0,0
71280,-125,4,2,9,50,0,0
73058,-100,4,2,8,60,0,1
87280,-100,4,2,8,50,0,1
94391,-166.666666666667,4,2,8,40,0,0

[Colours]
Combo1 : 253,255,162
Combo2 : 255,147,66
Combo3 : 131,141,199
Combo4 : 213,197,176

[HitObjects]
384,268,1724,5,2,0:0:0:0:
384,268,1835,1,2,0:0:0:0:
384,268,1947,6,0,L|391:204,1,64,4|2,0:3|0:0,0:0:0:0:
330,138,2391,1,2,0:0:0:0:
187,224,2613,2,0,P|245:247|304:225,1,128,4|2,0:3|0:0,0:0:0:0:
322,74,3724,6,0,L|329:137,1,64,4|2,0:3|0:0,0:0:0:0:
303,225,4169,1,2,0:0:0:0:
391,320,4391,2,0,P|413:262|391:204,1,128,2|2,0:0|0:0,0:0:0:0:
187,224,5280,5,2,0:0:0:0:
187,224,5391,1,2,0:0:0:0:
187,224,5502,6,0,L|123:216,1,64,4|2,0:3|0:0,0:0:0:0:
145,303,5947,1,2,0:0:0:0:
212,140,6169,2,0,P|263:185|268:255,1,128,4|2,0:3|0:0,0:0:0:0:
400,92,6835,1,0,0:0:0:0:
338,156,7058,1,0,0:0:0:0:
338,156,7169,1,0,0:0:0:0:
338,156,7280,6,0,L|199:138,1,128,4|2,0:3|0:0,0:0:0:0:
100,21,7947,2,0,B|111:-1|111:-1|132:100,1,128,4|4,0:3|0:0,0:0:0:0:
187,224,8613,1,0,0:0:0:0:
187,224,8835,2,0,L|179:268,1,40,2|2,0:0|0:0,0:0:0:0:
150,75,9058,5,2,0:3:0:0:
211,139,9280,1,2,0:0:0:0:
399,34,9502,2,0,P|359:27|320:31,1,80,10|2,0:0|0:0,0:0:0:0:
211,139,9947,1,2,0:3:0:0:
359,181,10169,1,2,0:0:0:0:
296,117,10391,1,8,0:0:0:0:
445,158,10613,2,0,L|500:152,1,40,2|0,0:0|0:0,0:0:0:0:
335,266,10835,5,2,0:3:0:0:
211,139,11058,1,2,0:0:0:0:
282,40,11280,2,0,P|297:76|295:116,1,80,10|2,0:0|0:0,0:0:0:0:
187,224,11724,2,0,L|104:216,1,80,2|2,0:3|0:0,0:0:0:0:
251,288,12169,1,10,0:0:0:0:
250,287,12391,2,0,L|262:326,1,40,10|0,0:0|0:0,0:0:0:0:
296,117,12613,5,2,0:3:0:0:
187,224,12835,1,0,0:0:0:0:
232,52,13058,1,14,0:0:0:0:
429,210,13280,2,0,L|385:202,1,40,2|0,0:0|0:0,0:0:0:0:
296,117,13502,5,2,0:3:0:0:
356,52,13724,1,0,0:0:0:0:
389,202,13947,1,12,0:0:0:0:
436,84,14169,1,0,0:0:0:0:
442,86,14280,1,0,0:0:0:0:
448,88,14391,5,2,0:3:0:0:
472,192,14613,1,0,0:0:0:0:
436,84,14835,1,10,0:0:0:0:
266,327,15058,2,0,B|386:311|386:311|354:275,1,160,2|0,0:0|0:0,0:0:0:0:
302,215,15724,1,8,0:0:0:0:
346,371,15947,1,8,0:0:0:0:
346,379,16058,1,8,0:0:0:0:
345,384,16169,5,2,0:3:0:0:
345,384,23280,6,0,B|239:368|239:368|275:344,1,143.999995605469,2|0,0:3|0:0,0:0:0:0:
216,280,24169,2,0,P|164:268|112:280,1,95.9999970703126
300,268,24835,1,0,0:0:0:0:
379,303,25058,6,0,P|384:256|368:212,1,95.9999970703126,4|0,0:3|0:0,0:0:0:0:
140,92,25947,6,0,P|184:108|232:104,1,95.9999970703126
393,36,26835,6,0,B|352:48|352:48|308:36|308:36|332:60|334:83,1,143.999995605469,4|4,0:3|0:3,0:0:0:0:
334,83,28613,6,0,L|337:179,1,95.9999970703126,4|0,0:3|0:0,0:0:0:0:
275,245,29280,1,4,0:3:0:0:
392,353,29502,2,0,B|408:257|408:257|384:265|362:264,1,143.999995605469
248,160,30391,5,2,0:0:0:0:
248,160,31058,5,0,0:0:0:0:
192,232,31280,2,0,L|198:279,1,47.9999985351563
120,172,31724,1,0,0:0:0:0:
284,244,31947,1,0,0:0:0:0:
284,244,32058,1,0,0:0:0:0:
285,244,32169,6,0,B|348:256|348:256|400:232|400:232|380:232|364:224,1,143.999995605469
309,112,33058,2,0,L|316:160,1,47.9999985351563,2|0,0:0|0:0,0:0:0:0:
386,8,33502,2,0,L|380:56,1,47.9999985351563,2|0,0:0|0:0,0:0:0:0:
309,112,33947,6,0,P|232:112|248:152,1,143.999995605469,2|0,0:0|0:0,0:0:0:0:
132,208,34835,2,0,P|156:212|179:212,1,47.9999985351563
64,148,35280,1,0,0:0:0:0:
56,304,35502,1,0,0:0:0:0:
56,304,35613,1,0,0:0:0:0:
56,304,35724,6,0,P|89:299|108:292,1,47.9999985351563
348,280,36169,2,0,P|310:250|263:247,1,95.9999970703126,0|2,0:0|0:0,0:0:0:0:
192,300,36835,1,0,0:0:0:0:
240,148,37058,2,0,L|244:76,1,71.9999978027344
256,68,37502,6,0,P|292:60|332:76,1,64,2|0,0:3|0:0,0:0:0:0:
464,44,37947,1,2,0:3:0:0:
464,44,38169,1,0,0:0:0:0:
441,184,38391,6,0,P|409:186|379:175,1,64,2|0,0:3|0:0,0:0:0:0:
240,148,38835,1,2,0:3:0:0:
348,280,39057,1,0,0:0:0:0:
176,228,39280,6,0,L|112:232,1,64,6|0,0:3|0:0,0:0:0:0:
64,148,39724,1,2,0:3:0:0:
152,24,39947,1,0,0:0:0:0:
223,87,40169,2,0,P|236:116|240:147,1,64,6|0,0:3|0:0,0:0:0:0:
284,276,40613,2,0,L|348:280,1,64,6|0,0:3|0:0,0:0:0:0:
476,288,41058,5,6,0:3:0:0:
464,200,41280,1,4,0:3:0:0:
392,353,41502,1,6,0:3:0:0:
379,175,41724,1,4,0:3:0:0:
284,276,41947,2,0,B|204:304|204:304|152:288,1,128,2|2,0:3|0:3,0:0:0:0:
162,291,42835,5,2,0:3:0:0:
213,84,43280,5,4,0:0:0:0:
421,133,43724,5,2,0:3:0:0:
372,342,44169,5,6,0:0:0:0:
280,316,44391,1,2,0:0:0:0:
280,316,44502,1,0,0:0:0:0:
280,316,44613,6,0,B|244:312|212:324|212:324|176:308|176:308|132:312,1,143.999995605469,4|2,0:1|0:0,0:0:0:0:
81,208,45502,2,0,P|76:232|75:255,1,47.9999985351563,2|2,0:0|0:0,0:0:0:0:
60,340,45947,2,0,L|12:332,1,47.9999985351563,2|2,0:0|0:0,0:0:0:0:
140,311,46391,5,0,0:3:0:0:
244,172,46835,6,0,L|291:179,1,47.9999985351563,2|2,0:0|0:0,0:0:0:0:
223,87,47280,1,0,0:0:0:0:
426,83,47502,2,0,P|403:90|379:94,1,47.9999985351563,2|0,0:0|0:0,0:0:0:0:
320,31,47946,1,0,0:0:0:0:
291,179,48169,6,0,B|312:236|312:236|292:272|292:272|324:268|344:280,1,143.999995605469,2|2,0:0|0:0,0:0:0:0:
333,275,49280,5,2,0:0:0:0:
404,328,49502,2,0,P|428:320|456:320,1,47.9999985351563
276,344,49947,6,0,L|228:336,2,47.9999985351563,0|2|2,0:0|0:0|0:0,0:0:0:0:
291,179,50613,1,2,0:0:0:0:
224,236,50835,2,0,P|180:256|128:248,1,95.9999970703126,2|0,0:0|0:0,0:0:0:0:
299,131,51724,6,0,L|291:179,1,47.9999985351563,2|0,0:3|0:0,0:0:0:0:
244,12,52391,5,0,0:0:0:0:
299,131,52613,2,0,L|291:179,1,47.9999985351563
332,20,53058,2,0,P|344:40|351:63,1,47.9999985351563
308,264,53502,5,0,0:0:0:0:
308,264,53947,6,0,L|355:256,1,47.9999985351563
462,334,54391,2,0,P|442:321|420:312,1,47.9999985351563,2|0,0:0|0:0,0:0:0:0:
436,228,54835,2,0,P|440:200|451:165,1,47.9999985351563
351,63,55280,6,0,P|299:51|255:59,1,95.9999970703126,2|0,0:0|0:0,0:0:0:0:
134,144,55947,2,0,P|181:151|228:140,1,95.9999970703126,0|2,0:0|0:0,0:0:0:0:
228,140,57058,6,0,L|240:196,1,47.9999985351563
228,336,57502,1,0,0:0:0:0:
228,336,57724,1,0,0:0:0:0:
329,187,57947,2,0,P|283:174|237:186,1,95.9999970703126,2|0,0:3|0:0,0:0:0:0:
380,320,58613,1,0,0:0:0:0:
380,320,58724,1,0,0:0:0:0:
380,320,58835,6,0,L|388:256,2,64,2|0|2,0:3|0:0|0:3,0:0:0:0:
300,284,59502,1,0,0:0:0:0:
165,343,59724,2,0,P|196:344|227:335,1,64,2|0,0:3|0:0,0:0:0:0:
220,248,60169,1,2,0:3:0:0:
308,372,60391,1,0,0:0:0:0:
248,164,60613,6,0,L|184:168,1,64,2|0,0:3|0:0,0:0:0:0:
120,232,61058,1,2,0:3:0:0:
120,232,61280,1,0,0:0:0:0:
64,92,61502,2,0,L|128:96,1,64,2|0,0:3|0:0,0:0:0:0:
248,164,61947,1,2,0:3:0:0:
184,28,62169,1,0,0:0:0:0:
120,232,62391,6,0,P|74:245|28:235,1,96,2|0,0:3|0:0,0:0:0:0:
16,227,62835,2,0,L|4:163,1,64,2|0,0:3|0:0,0:0:0:0:
216,144,63280,2,0,P|248:216|240:276,2,128,2|2|2,0:3|0:3|0:3,0:0:0:0:
216,144,64613,5,2,0:3:0:0:
216,144,64835,1,2,0:0:0:0:
339,32,65058,2,0,P|299:57|252:60,1,96,2|0,0:3|0:0,0:0:0:0:
236,52,65502,1,2,0:3:0:0:
68,140,65724,1,2,0:3:0:0:
68,140,65835,1,0,0:0:0:0:
68,140,65947,6,0,L|131:149,1,64,4|0,0:0|0:0,0:0:0:0:
333,179,66391,1,8,0:0:0:0:
256,224,66613,2,0,B|224:233|224:233|191:222|191:222|160:231|160:231|188:242,1,128
232,328,67280,1,8,0:0:0:0:
228,136,67502,1,0,0:0:0:0:
228,136,67613,1,0,0:0:0:0:
228,136,67724,6,0,L|236:60,1,64,2|0,0:3|0:0,0:0:0:0:
362,2,68169,2,0,L|369:66,1,64,8|0,0:0|0:0,0:0:0:0:
333,241,68613,2,0,P|327:209|332:178,1,64,2|0,0:3|0:0,0:0:0:0:
432,332,69058,1,8,0:0:0:0:
432,332,69280,1,8,0:0:0:0:
232,328,69502,6,0,L|152:336,2,64,2|0|8,0:3|0:0|0:0,0:0:0:0:
256,224,70169,1,0,0:0:0:0:
283,37,70391,2,0,P|306:58|322:86,1,64,2|0,0:3|0:0,0:0:0:0:
188,156,70835,2,0,P|178:125|178:93,1,64,8|0,0:0|0:0,0:0:0:0:
256,224,71280,5,4,0:3:0:0:
256,224,73058,6,0,P|312:184|352:256,1,160,6|8,0:3|0:0,0:0:0:0:
424,180,73724,1,0,0:0:0:0:
420,316,73947,2,0,L|500:308,1,80,2|2,0:3|0:0,0:0:0:0:
340,368,74391,1,10,0:0:0:0:
256,224,74613,1,2,0:0:0:0:
256,224,74724,1,0,0:0:0:0:
256,224,74835,6,0,L|176:216,1,80,2|0,0:3|0:0,0:0:0:0:
108,148,75280,1,10,0:0:0:0:
56,304,75502,1,2,0:0:0:0:
148,336,75725,2,0,P|188:324|232:332,1,80,2|2,0:3|0:0,0:0:0:0:
333,230,76169,2,0,P|293:235|255:223,1,80,8|8,0:0|0:0,0:0:0:0:
196,80,76613,6,0,P|255:70|307:114,1,120,2|0,0:3|0:0,0:0:0:0:
304,120,77058,2,0,L|383:112,1,80,8|2,0:0|0:0,0:0:0:0:
232,360,77502,2,0,P|198:312|208:254,1,120,2|2,0:3|0:0,0:0:0:0:
224,250,77947,2,0,L|231:170,1,80,8|2,0:0|0:0,0:0:0:0:
304,288,78391,5,2,0:3:0:0:
148,200,78613,1,2,0:0:0:0:
232,360,78835,1,10,0:0:0:0:
56,304,79058,1,2,0:0:0:0:
231,170,79280,2,0,L|240:84,1,80,2|0,0:3|0:0,0:0:0:0:
248,80,79613,1,0,0:0:0:0:
256,72,79724,2,0,P|300:64|344:88,1,80,8|8,0:0|0:0,0:0:0:0:
424,180,80169,6,0,B|402:197|396:221|396:221|376:205|376:205|356:216|348:260|374:281,1,160,4|8,0:0|0:0,0:0:0:0:
312,356,80835,1,2,0:0:0:0:
420,362,81058,2,0,P|450:337|466:301,1,80,2|2,0:3|0:0,0:0:0:0:
256,276,81502,2,0,L|148:268,1,80,10|2,0:0|0:0,0:0:0:0:
36,160,81947,6,0,P|101:202|172:172,1,160,2|8,0:3|0:0,0:0:0:0:
236,52,82613,1,0,0:0:0:0:
392,144,82835,2,0,L|272:132,1,120,2|2,0:3|0:0,0:0:0:0:
260,144,83280,1,8,0:0:0:0:
344,24,83502,1,8,0:0:0:0:
452,216,83724,6,0,P|412:236|388:264,1,80,2|0,0:3|0:0,0:0:0:0:
312,356,84169,1,8,0:0:0:0:
312,356,84391,1,2,0:0:0:0:
260,144,84613,2,0,L|278:221,1,80,2|0,0:3|0:0,0:0:0:0:
282,233,84947,1,0,0:0:0:0:
285,245,85058,1,8,0:0:0:0:
131,260,85280,2,0,P|94:246|54:248,1,80,0|6,0:0|0:3,0:0:0:0:
54,248,85947,5,8,0:0:0:0:
54,248,86391,5,2,0:3:0:0:
54,248,86613,1,2,0:0:0:0:
80,340,86835,1,10,0:0:0:0:
80,340,87058,1,10,0:0:0:0:
172,316,87280,6,0,B|200:325|228:319|228:319|254:340|254:340|284:318|329:326,1,160,6|8,0:3|0:0,0:0:0:0:
460,196,87947,1,0,0:0:0:0:
474,287,88169,2,0,P|435:286|400:268,1,80,2|0,0:3|0:0,0:0:0:0:
336,196,88613,1,10,0:0:0:0:
236,52,88835,1,0,0:0:0:0:
236,52,88947,1,0,0:0:0:0:
236,52,89058,6,0,P|224:140|184:96,1,160,2|8,0:3|0:0,0:0:0:0:
140,56,89724,1,2,0:0:0:0:
54,248,89947,2,0,P|114:220|198:244,1,120,2|2,0:3|0:0,0:0:0:0:
180,236,90391,1,8,0:0:0:0:
256,340,90613,1,8,0:0:0:0:
400,268,90835,6,0,L|384:168,1,80,2|0,0:3|0:0,0:0:0:0:
424,48,91280,2,0,P|468:36|503:41,1,80,8|0,0:0|0:0,0:0:0:0:
281,118,91724,2,0,L|181:134,1,80,2|0,0:3|0:0,0:0:0:0:
60,93,92169,2,0,P|49:55|53:16,1,80,8|0,0:0|0:0,0:0:0:0:
100,232,92613,6,0,P|144:292|204:240,2,160,2|8|2,0:3|0:0|0:3,0:0:0:0:
100,232,93947,5,8,0:0:0:0:
202,130,94169,1,8,0:0:0:0:
202,130,94280,1,2,0:3:0:0:
202,130,94391,6,0,L|249:124,2,47.9999985351563,4|0|0,0:0|0:0|0:0,0:0:0:0:
308,60,95058,2,0,P|332:104|328:156,1,95.9999970703126
276,216,95724,2,0,L|228:210,1,47.9999985351563,2|0,0:0|0:0,0:0:0:0:
332,280,96169,6,0,L|379:274,2,47.9999985351563
272,340,96835,1,0,0:0:0:0:
276,216,97058,2,0,L|260:120,1,95.9999970703126,2|0,0:0|0:0,0:0:0:0:
136,240,97947,6,0,L|144:295,1,47.9999985351563,2|0,0:0|0:0,0:0:0:0:
64,328,98391,2,0,L|90:376,1,47.9999985351563
220,332,98835,2,0,B|260:324|292:336|292:336|316:320|340:296|340:296|364:324|396:348|448:344|500:320|504:244|496:196|440:160|372:164|336:224,1,503.999984619141
