osu file format v14

[General]
AudioFilename: audio.mp3
AudioLeadIn: 0
PreviewTime: 71893
Countdown: 0
SampleSet: Soft
StackLeniency: 0.4
Mode: 0
LetterboxInBreaks: 0
EpilepsyWarning: 1
WidescreenStoryboard: 1

[Editor]
DistanceSpacing: 0.8
BeatDivisor: 4
GridSize: 8
TimelineZoom: 0.7

[Metadata]
Title:Yuan Feng
TitleUnicode:远枫
Artist:Sharlo
ArtistUnicode:夏萝
Creator:Present
Version:Normal
Source:Zyon載音
Tags:遠楓 zion Chinese Pop Yonder Voice AngelSnow Maple Wind himmel Ujimatcha kuse KuBsNia_ZhoYL_
BeatmapID:3238145
BeatmapSetID:1584479

[Difficulty]
HPDrainRate:3
CircleSize:3.5
OverallDifficulty:4
ApproachRate:5.5
SliderMultiplier:1.2
SliderTickRate:2

[Events]
//Background and Video events
0,0,"asdf.jpg",0,0
//Break Periods
2,44813,50470
//Storyboard Layer 0 (Background)
//Storyboard Layer 1 (Fail)
//Storyboard Layer 2 (Pass)
//Storyboard Layer 3 (Foreground)
Sprite,Foreground,Centre,"sb\circle.png",144,151 F,1,1893,2693,0.55,0 S,1,1893,2693,0.03,0.3
Sprite,Foreground,Centre,"sb\circle.png",155,298 F,1,2559,3359,0.55,0 S,1,2559,3359,0.03,0.3
Sprite,Foreground,Centre,"sb\circle.png",198,277 F,1,3670,4470,0.55,0 S,1,3670,4470,0.03,0.3
Sprite,Foreground,Centre,"sb\circle.png",271,339 F,1,4337,5137,0.55,0 S,1,4337,5137,0.03,0.3
Sprite,Foreground,Centre,"sb\circle.png",462,268 F,1,5448,6248,0.55,0 S,1,5448,6248,0.03,0.3
Sprite,Foreground,Centre,"sb\circle.png",424,237 F,1,6115,6915,0.55,0 S,1,6115,6915,0.03,0.3
Sprite,Foreground,Centre,"sb\circle.png",462,268 F,1,7226,8026,0.55,0 S,1,7226,8026,0.03,0.3
Sprite,Foreground,Centre,"sb\circle.png",374,308 F,1,7893,8693,0.55,0 S,1,7893,8693,0.03,0.3
Sprite,Foreground,Centre,"sb\lyrics\credit\0042.png",-35.7314,223.4686 S,0,8893,,0.4 F,0,8893,9283,0,1 F,0,15526,15916,1,0
Sprite,Foreground,Centre,"sb\lyrics\credit\0065.png",-22.05939,226.2686 S,0,8893,,0.4 F,0,8893,9283,0,1 F,0,15526,15916,1,0
Sprite,Foreground,Centre,"sb\lyrics\credit\0061.png",-7.987395,226.2686 S,0,8893,,0.4 F,0,8893,9283,0,1 F,0,15526,15916,1,0
Sprite,Foreground,Centre,"sb\lyrics\credit\0074.png",5.284604,224.4686 S,0,8893,,0.4 F,0,8893,9283,0,1 F,0,15526,15916,1,0
Sprite,Foreground,Centre,"sb\lyrics\credit\006d.png",19.7566,226.2686 S,0,8893,,0.4 F,0,8893,9283,0,1 F,0,15526,15916,1,0
Sprite,Foreground,Centre,"sb\lyrics\credit\0061.png",33.6286,226.2686 S,0,8893,,0.4 F,0,8893,9283,0,1 F,0,15526,15916,1,0
Sprite,Foreground,Centre,"sb\lyrics\credit\0070.png",47.5006,228.2686 S,0,8893,,0.4 F,0,8893,9283,0,1 F,0,15526,15916,1,0
Sprite,Foreground,Centre,"sb\lyrics\credit\0062.png",75.24461,223.4686 S,0,8893,,0.4 F,0,8893,9283,0,1 F,0,15526,15916,1,0
Sprite,Foreground,Centre,"sb\lyrics\credit\0079.png",88.9166,228.2686 S,0,8893,,0.4 F,0,8893,9283,0,1 F,0,15526,15916,1,0
Sprite,Foreground,Centre,"sb\lyrics\credit\0050.png",117.0606,223.4686 S,0,8893,,0.4 F,0,8893,9283,0,1 F,0,15526,15916,1,0
Sprite,Foreground,Centre,"sb\lyrics\credit\0072.png",130.5326,226.2686 S,0,8893,,0.4 F,0,8893,9283,0,1 F,0,15526,15916,1,0
Sprite,Foreground,Centre,"sb\lyrics\credit\0065.png",144.4046,226.2686 S,0,8893,,0.4 F,0,8893,9283,0,1 F,0,15526,15916,1,0
Sprite,Foreground,Centre,"sb\lyrics\credit\0073.png",158.4766,226.2686 S,0,8893,,0.4 F,0,8893,9283,0,1 F,0,15526,15916,1,0
Sprite,Foreground,Centre,"sb\lyrics\credit\0065.png",172.1486,226.2686 S,0,8893,,0.4 F,0,8893,9283,0,1 F,0,15526,15916,1,0
Sprite,Foreground,Centre,"sb\lyrics\credit\006e.png",186.0206,226.2686 S,0,8893,,0.4 F,0,8893,9283,0,1 F,0,15526,15916,1,0
Sprite,Foreground,Centre,"sb\lyrics\credit\0074.png",199.4926,224.4686 S,0,8893,,0.4 F,0,8893,9283,0,1 F,0,15526,15916,1,0
//Storyboard Layer 4 (Overlay)
//Storyboard Sound Samples

[TimingPoints]
-5164,444.444444444444,4,2,8,40,1,0
8835,-100,4,2,8,50,0,0
16169,-100,4,2,8,20,0,0
24502,-100,4,2,8,20,0,0
24613,-100,4,2,8,20,0,0
30391,-100,4,2,8,50,0,0
37502,-100,4,2,8,30,0,0
44613,-100,4,2,8,50,0,0
46724,-100,4,2,8,50,0,0
46835,-100,4,2,8,50,0,0
51724,-100,4,2,8,30,0,0
51947,-100,4,2,8,50,0,0
57947,-100,4,2,8,30,0,0
58391,-100,4,2,8,50,0,0
58835,-100,4,2,8,40,0,0
65947,-100,4,2,8,50,0,0
66058,-100,4,2,8,50,0,0
66169,-100,4,2,8,50,0,0
71280,-100,4,2,9,50,0,0
73058,-100,4,2,8,60,0,0
73280,-100,4,2,8,60,0,0
73391,-100,4,2,8,60,0,0
75057,-100,4,2,8,60,0,0
75168,-100,4,2,8,60,0,0
76835,-100,4,2,8,60,0,0
76946,-100,4,2,8,60,0,0
80391,-100,4,2,8,60,0,0
80502,-100,4,2,8,60,0,0
82168,-100,4,2,8,60,0,0
82280,-100,4,2,8,60,0,0
87280,-100,4,2,8,50,0,0
94391,-100,4,2,8,40,0,0

[Colours]
Combo1 : 253,255,162
Combo2 : 255,147,66
Combo3 : 131,141,199
Combo4 : 213,197,176

[HitObjects]
80,95,1947,6,0,P|53:145|63:209,1,120,4|2,0:3|0:0,0:0:0:0:
91,242,2613,2,0,L|71:371,2,120,4|2|0,0:3|0:0|0:0,0:0:0:0:
134,221,3724,5,4,0:3:0:0:
207,283,4169,1,2,0:0:0:0:
207,283,4391,2,0,P|262:293|331:249,1,120,2|2,0:0|0:0,0:0:0:0:
398,212,5280,5,2,0:0:0:0:
398,212,5502,2,0,L|458:223,2,60,4|2|2,0:3|0:0|0:0,0:0:0:0:
360,181,6169,2,0,P|341:136|378:57,2,120,4|2|0,0:3|0:0|0:0,0:0:0:0:
347,227,7280,5,4,0:3:0:0:
256,247,7724,1,2,0:0:0:0:
256,247,7947,1,4,0:3:0:0:
172,210,8391,1,4,0:0:0:0:
172,210,8613,2,0,P|162:184|163:150,1,60,0|2,0:0|0:0,0:0:0:0:
197,119,9058,6,0,P|197:89|187:61,2,60,2|2|10,0:3|0:0|0:0,0:0:0:0:
162,152,9724,2,0,B|106:141|106:141|31:176,1,120,2|2,0:0|0:0,0:0:0:0:
14,201,10391,2,0,P|7:241|17:277,1,60,8|2,0:0|0:0,0:0:0:0:
34,301,10835,5,2,0:3:0:0:
122,350,11280,1,10,0:0:0:0:
122,350,11502,2,0,L|248:332,1,120,2|2,0:0|0:0,0:0:0:0:
288,325,12169,2,0,P|304:299|299:252,1,60,10|10,0:0|0:0,0:0:0:0:
270,236,12613,6,0,P|254:210|259:163,1,60,2|0,0:3|0:0,0:0:0:0:
274,138,13058,1,14,0:0:0:0:
363,106,13502,2,0,P|397:107|425:93,1,60,2|0,0:3|0:0,0:0:0:0:
425,48,13947,1,12,0:0:0:0:
327,30,14391,6,0,P|288:30|268:41,1,60,2|0,0:3|0:0,0:0:0:0:
234,72,14835,1,10,0:0:0:0:
234,72,15058,2,0,P|175:94|110:86,1,120,2|0,0:0|0:0,0:0:0:0:
74,106,15724,2,0,P|63:133|61:163,1,60,8|8,0:0|0:0,0:0:0:0:
94,198,16169,6,0,B|115:246|85:313|85:313|122:250|192:249,1,240,2|0,0:3|0:0,0:0:0:0:
275,273,17502,2,0,P|304:287|339:287,2,60
420,147,18835,5,0,0:0:0:0:
444,239,19280,1,0,0:0:0:0:
387,316,19724,2,0,P|340:282|190:353,1,240
99,320,21058,2,0,P|66:320|29:340,2,60
175,143,22391,5,0,0:0:0:0:
267,170,22835,1,0,0:0:0:0:
358,199,23280,2,0,P|418:198|344:125,1,240,2|0,0:3|0:0,0:0:0:0:
270,63,24613,2,0,L|204:77,2,60,0|0|4,0:0|0:0|0:3,0:0:0:0:
459,29,25947,5,0,0:0:0:0:
496,117,26391,1,0,0:0:0:0:
414,168,26835,2,0,B|363:199|363:199|384:325,2,180,4|4|0,0:3|0:3|0:0,0:0:0:0:
345,101,28613,2,0,P|262:90|192:164,2,180,4|4|0,0:3|0:3|0:0,0:0:0:0:
289,179,30391,6,0,P|302:233|228:334,1,180,2|0,0:0|0:0,0:0:0:0:
191,347,31280,2,0,P|159:340|126:342,1,60
106,300,31724,2,0,P|113:268|111:235,1,60
94,195,32169,1,0,0:0:0:0:
145,114,32613,1,0,0:0:0:0:
111,23,33058,6,0,P|55:1|-1:16,1,120,2|2,0:0|0:0,0:0:0:0:
45,100,33947,2,0,P|100:121|157:106,1,120,2|0,0:0|0:0,0:0:0:0:
203,87,34613,1,0,0:0:0:0:
203,87,34835,2,0,P|261:88|322:147,1,120
334,170,35502,1,0,0:0:0:0:
334,170,35724,6,0,L|326:239,2,60
363,132,36391,1,0,0:0:0:0:
363,132,36613,2,0,P|410:96|469:95,1,120,2|0,0:0|0:0,0:0:0:0:
442,187,37502,5,2,0:3:0:0:
413,278,37947,1,2,0:3:0:0:
457,362,38391,2,0,P|495:349|523:349,2,60,2|0|2,0:3|0:0|0:3,0:0:0:0:
415,382,39058,1,0,0:0:0:0:
415,382,39280,2,0,L|289:365,1,120,6|2,0:3|0:3,0:0:0:0:
236,290,40169,2,0,P|269:234|260:169,1,120,6|6,0:3|0:3,0:0:0:0:
222,94,41058,6,0,P|210:66|210:28,1,60,6|4,0:3|0:3,0:0:0:0:
246,7,41502,2,0,P|276:10|309:29,1,60,6|4,0:3|0:3,0:0:0:0:
340,53,41947,2,0,P|370:49|403:30,2,60,2|0|2,0:3|0:0|0:3,0:0:0:0:
295,137,42835,1,2,0:3:0:0:
378,185,43280,5,4,0:0:0:0:
330,268,43724,1,2,0:3:0:0:
247,220,44169,1,6,0:0:0:0:
247,315,44613,5,4,0:1:0:0:
247,315,51724,5,2,0:3:0:0:
247,315,53502,5,0,0:0:0:0:
160,273,53947,2,0,P|136:279|101:280,1,60
54,268,54391,2,0,P|40:288|27:321,2,60,2|0|0,0:0|0:0|0:0,0:0:0:0:
119,197,55280,6,0,L|116:69,1,120,2|0,0:0|0:0,0:0:0:0:
157,52,55947,2,0,B|180:36|180:36|272:61,1,120,0|2,0:0|0:0,0:0:0:0:
361,170,57058,2,0,B|272:145|272:145|249:161,1,120
208,187,57725,2,0,L|210:306,1,120
342,364,58835,6,0,P|367:314|432:336,1,120,2|2,0:3|0:3,0:0:0:0:
474,320,59502,1,0,0:0:0:0:
474,320,59724,2,0,P|480:282|474:250,1,60,2|0,0:3|0:0,0:0:0:0:
440,230,60169,2,0,P|434:192|440:160,1,60,2|0,0:3|0:0,0:0:0:0:
461,129,60613,6,0,P|407:98|326:114,1,120,2|2,0:3|0:3,0:0:0:0:
319,137,61280,1,0,0:0:0:0:
230,115,61724,1,0,0:0:0:0:
230,115,61947,2,0,L|220:49,1,60,2|0,0:3|0:0,0:0:0:0:
184,24,62391,6,0,P|115:20|77:72,1,120,2|2,0:3|0:3,0:0:0:0:
61,97,63058,2,0,L|80:219,1,120
116,245,63724,1,2,0:3:0:0:
196,298,64169,6,0,P|244:305|259:243,1,120,2|2,0:3|0:3,0:0:0:0:
283,204,64835,2,0,B|340:185|335:249|394:225,1,120,2|0,0:0|0:0,0:0:0:0:
417,184,65502,1,2,0:3:0:0:
399,88,65947,6,0,L|387:20,2,60,4|0|8,0:0|0:0|0:0,0:0:0:0:
359,115,66613,2,0,P|307:103|218:122,1,120
199,135,67280,2,0,P|168:147|132:146,1,60,8|0,0:0|0:0,0:0:0:0:
99,125,67724,1,2,0:3:0:0:
37,199,68169,5,8,0:0:0:0:
37,199,68391,2,0,L|22:321,1,120
53,354,69058,2,0,P|81:365|124:358,1,60,8|8,0:0|0:0,0:0:0:0:
153,342,69502,6,0,P|181:331|224:338,2,60,2|0|8,0:3|0:0|0:0,0:0:0:0:
110,363,70169,1,0,0:0:0:0:
110,363,70391,2,0,L|102:295,1,60,2|0,0:3|0:0,0:0:0:0:
132,265,70835,2,0,L|140:197,1,60,8|0,0:0|0:0,0:0:0:0:
112,165,71280,1,4,0:3:0:0:
289,42,73058,6,0,P|346:42|391:111,1,120,6|8,0:3|0:0,0:0:0:0:
419,128,73724,2,0,L|415:196,1,60,0|2,0:0|0:3,0:0:0:0:
379,228,74169,1,2,0:0:0:0:
379,228,74391,2,0,P|377:259|387:295,1,60,10|2,0:0|0:0,0:0:0:0:
422,323,74835,5,2,0:3:0:0:
325,372,75280,1,10,0:0:0:0:
325,372,75502,2,0,L|188:379,2,120,2|2|8,0:0|0:0|0:0,0:0:0:0:
364,335,76613,5,2,0:3:0:0:
294,292,76947,2,0,L|200:298,1,90,0|2,0:0|0:0,0:0:0:0:
155,321,77502,1,2,0:3:0:0:
126,245,77835,2,0,L|120:151,1,90,2|2,0:0|0:0,0:0:0:0:
152,111,78391,6,0,P|167:79|171:50,2,60,2|2|10,0:3|0:0|0:0,0:0:0:0:
120,155,79058,1,2,0:0:0:0:
120,155,79280,2,0,L|60:150,1,60,2|0,0:3|0:0,0:0:0:0:
18,183,79724,2,0,P|3:215|-1:244,1,60,8|8,0:0|0:0,0:0:0:0:
30,283,80169,6,0,P|78:303|135:263,1,120,4|8,0:0|0:0,0:0:0:0:
164,226,80835,2,0,P|193:229|227:251,2,60,2|2|2,0:0|0:3|0:0,0:0:0:0:
131,269,81502,1,10,0:0:0:0:
155,374,81947,5,2,0:3:0:0:
261,343,82391,1,8,0:0:0:0:
261,343,82613,2,0,P|318:344|384:365,2,120,0|0|8,0:0|0:0|0:0,0:0:0:0:
213,316,83724,5,2,0:3:0:0:
279,231,84169,1,8,0:0:0:0:
236,131,84613,2,0,P|221:84|229:31,2,90,2|0|0,0:3|0:0|0:0,0:0:0:0:
285,153,85502,5,6,0:3:0:0:
358,73,85947,1,8,0:0:0:0:
451,126,86391,2,0,P|459:149|458:189,1,60,2|2,0:3|0:0,0:0:0:0:
426,227,86835,2,0,P|418:250|419:290,1,60,10|10,0:0|0:0,0:0:0:0:
442,333,87280,6,0,B|400:321|400:321|319:350,1,120,6|8,0:3|0:0,0:0:0:0:
232,340,88169,2,0,B|244:298|244:298|215:217,1,120,2|10,0:3|0:0,0:0:0:0:
224,130,89058,6,0,B|266:142|266:142|347:113,1,120,2|8,0:3|0:0,0:0:0:0:
433,129,89947,1,2,0:3:0:0:
383,46,90391,2,0,P|346:34|320:36,1,60,8|8,0:0|0:0,0:0:0:0:
277,42,90835,6,0,B|205:16|205:16|163:28,1,120,2|8,0:3|0:0,0:0:0:0:
91,92,91724,2,0,B|162:117|162:117|204:105,1,120,2|8,0:3|0:0,0:0:0:0:
191,200,92613,6,0,B|233:188|233:188|304:213,1,120,2|8,0:3|0:0,0:0:0:0:
346,300,93502,2,0,B|304:312|304:312|232:286,1,120,2|8,0:3|0:0,0:0:0:0:
188,283,94169,1,8,0:0:0:0:
188,283,94391,6,0,P|155:294|131:320,2,60,4|0|0,0:0|0:0|0:0,0:0:0:0:
71,140,96169,6,0,P|55:171|56:206,2,60
111,113,96835,1,0,0:0:0:0:
111,113,97058,2,0,L|302:132,1,180,2|0,0:0|0:0,0:0:0:0:
331,155,97947,6,0,P|367:162|406:148,1,60,2|0,0:0|0:0,0:0:0:0:
428,129,98391,2,0,P|464:122|503:136,1,60
256,192,98835,12,0,101169,0:0:0:0:
