osu file format v14

[General]
AudioFilename: audio.mp3
AudioLeadIn: 0
PreviewTime: 60033
Countdown: 0
SampleSet: Soft
StackLeniency: 0.7
Mode: 0
LetterboxInBreaks: 0
WidescreenStoryboard: 0

[Editor]
DistanceSpacing: 1
BeatDivisor: 6
GridSize: 4
TimelineZoom: 2.699999

[Metadata]
Title:Yellow
TitleUnicode:Yellow
Artist:Sharlo
ArtistUnicode:Sharlo
Creator:Zero__wind
Version:thzz's Hard
Source:初音ミク -Project DIVA- 2nd
Tags:vocaloid livetune kz Hatsune Miku thzz
BeatmapID:1396884
BeatmapSetID:519335

[Difficulty]
HPDrainRate:5
CircleSize:4
OverallDifficulty:6
ApproachRate:7.5
SliderMultiplier:1.6
SliderTickRate:2

[Events]
//Background and Video events
0,0,"bg.jpg",0,0
//Break Periods
2,106374,120467
//Storyboard Layer 0 (Background)
//Storyboard Layer 1 (Fail)
//Storyboard Layer 2 (Pass)
//Storyboard Layer 3 (Foreground)
//Storyboard Sound Samples

[TimingPoints]
348,472.44094488189,4,2,1,60,1,0
15466,-90.9090909090909,4,2,1,70,0,0
60820,-90.9090909090909,4,2,1,80,0,1
75938,-100,4,2,1,80,0,0
83497,-90.9090909090909,4,2,1,80,0,0
91056,-90.9090909090909,4,2,1,80,0,1
106174,-90.9090909090909,4,2,1,70,0,0
121292,-125,4,2,1,70,0,0
128851,-111.111111111111,4,2,1,70,0,0
132631,-100,4,2,1,70,0,0
136410,-90.9090909090909,4,2,1,80,0,1
151529,-83.3333333333333,4,2,1,80,0,1
164757,-90.9090909090909,4,2,1,70,0,0
166174,-76.9230769230769,4,2,1,70,0,0
166647,-90.9090909090909,4,2,1,70,0,0
181765,-100,4,2,1,60,0,0
195820,-90.9090909090909,4,2,1,5,0,0

[Colours]
Combo1 : 249,190,142
Combo2 : 255,221,130

[HitObjects]
91,113,348,5,4,0:0:0:0:
91,113,820,2,0,L|180:126,1,80,0|2,0:0|0:0,0:0:0:0:
170,124,1529,2,0,P|183:83|200:47,2,80,2|0|0,0:0|0:0|0:0,0:0:0:0:
190,201,2237,5,2,0:0:0:0:
138,326,2473,2,0,P|131:287|125:248,1,80,0|0,0:0|0:0,0:0:0:0:
55,305,2946,2,0,P|133:287|212:278,1,160,2|2,0:0|0:0,0:0:0:0:
282,317,3655,2,0,P|321:324|361:328,1,80,0|0,0:0|0:0,0:0:0:0:
466,282,4127,5,4,0:0:0:0:
466,282,4599,2,0,L|475:202,1,80,0|2,0:0|0:0,0:0:0:0:
392,90,5308,2,0,L|401:170,2,80,0|2|0,0:0|0:0|0:0,0:0:0:0:
336,29,6017,6,0,P|297:23|257:23,1,80,2|2,0:0|0:0,0:0:0:0:
185,57,6489,1,0,0:0:0:0:
143,197,6725,2,0,L|133:118,1,80,2|0,0:0|0:0,0:0:0:0:
226,148,7198,2,0,L|271:135,4,40,2|0|0|2|0,0:0|0:0|0:0|0:0|0:0,0:0:0:0:
63,187,7907,6,0,P|102:189|142:196,1,80,4|0,3:2|0:0,0:0:0:0:
206,244,8379,1,0,3:0:0:0:
314,284,8615,2,0,P|237:269|177:318,1,160,2|2,0:0|0:0,0:0:0:0:
74,266,9324,2,0,L|62:186,1,80,0|0,3:0|0:0,0:0:0:0:
150,84,9796,6,0,L|139:164,2,80,2|0|0,3:2|0:0|3:0,0:0:0:0:
214,36,10505,1,2,0:0:0:0:
287,67,10741,2,0,P|330:57|371:53,1,80,0|2,3:0|0:0,0:0:0:0:
486,133,11214,2,0,P|447:124|408:120,1,80,0|0,3:0|0:0,0:0:0:0:
348,173,11686,5,2,3:2:0:0:
348,173,12159,2,0,L|340:252,1,80,0|2,3:0|0:0,0:0:0:0:
395,310,12631,2,0,P|432:295|471:290,1,80,0|0,3:0|0:0,0:0:0:0:
340,252,13103,2,0,P|302:237|263:232,1,80,2|0,3:2|0:0,0:0:0:0:
205,177,13576,5,2,3:2:0:0:
143,289,13812,1,2,3:2:0:0:
73,181,14048,1,0,1:0:0:0:
0,316,14285,6,0,P|66:274|143:289,1,160,2|2,3:2|3:2,0:0:0:0:
264,373,14993,1,8,1:0:0:0:
264,372,15466,6,0,P|304:357|348:351,1,88.000002685547,4|2,3:2|0:0,0:0:0:0:
435,342,15938,2,0,B|451:289|451:289|420:251|428:200,1,146.666671142578,8|2,0:0|0:0,0:0:0:0:
434,174,16410,2,0,P|393:181|341:192,1,88.000002685547,0|2,3:0|0:0,0:0:0:0:
284,88,16883,2,0,P|327:80|370:71,1,88.000002685547,8|2,0:0|0:0,0:0:0:0:
256,180,17355,6,0,P|266:222|261:266,1,88.000002685547,0|2,3:2|0:0,0:0:0:0:
307,339,17828,2,0,B|254:352|254:352|209:337|209:337|184:339|160:352,1,146.666671142578,8|2,0:0|0:0,0:0:0:0:
136,354,18300,2,0,L|117:268,1,88.000002685547,0|2,3:0|0:0,0:0:0:0:
134,181,18773,2,0,P|177:172|216:191,1,88.000002685547,8|2,0:0|0:0,0:0:0:0:
53,212,19245,6,0,P|51:169|54:125,1,88.000002685547,4|2,3:2|0:0,0:0:0:0:
84,40,19718,2,0,B|126:48|156:28|156:28|196:24|228:52,1,146.666671142578,8|2,0:0|0:0,0:0:0:0:
248,64,20190,2,0,P|292:72|340:60,1,88.000002685547,0|2,3:0|0:0,0:0:0:0:
345,169,20662,2,0,P|317:202|304:244,1,88.000002685547,8|2,0:0|0:0,0:0:0:0:
204,282,21135,6,0,L|117:267,2,88.000002685547,2|2|8,3:2|0:0|0:0,0:0:0:0:
276,332,21844,2,0,B|335:346|368:308|368:308|448:336,1,176.000005371094,2|2,0:0|0:0,0:0:0:0:
487,255,22552,2,0,P|495:211|498:167,1,88.000002685547,8|2,0:0|0:0,0:0:0:0:
407,41,23025,6,0,P|410:85|418:129,1,88.000002685547,4|2,3:2|0:0,0:0:0:0:
375,206,23497,2,0,B|325:189|325:189|292:222|237:214,1,146.666671142578,8|2,0:0|0:0,0:0:0:0:
213,197,23970,2,0,P|167:186|123:186,1,88.000002685547,0|2,3:0|0:0,0:0:0:0:
18,243,24442,2,0,P|61:251|101:269,1,88.000002685547,8|2,0:0|0:0,0:0:0:0:
158,337,24914,6,0,P|201:340|240:322,1,88.000002685547,0|2,3:2|0:0,0:0:0:0:
368,232,25387,2,0,B|324:224|288:252|288:252|228:216,1,146.666671142578,8|2,0:0|0:0,0:0:0:0:
220,196,25859,2,0,P|227:144|233:103,1,88.000002685547,0|2,3:0|0:0,0:0:0:0:
132,224,26332,2,0,P|127:267|120:311,1,88.000002685547,8|2,0:0|0:0,0:0:0:0:
40,184,26804,6,0,P|33:132|27:91,1,88.000002685547,4|2,3:2|0:0,0:0:0:0:
133,1,27277,2,0,B|136:44|124:80|124:80|140:112|180:128,1,146.666671142578,8|2,0:0|0:0,0:0:0:0:
200,132,27749,2,0,P|244:117|293:111,1,88.000002685547,0|0,3:0|0:0,0:0:0:0:
360,64,28222,2,0,P|404:79|453:85,1,88.000002685547,8|2,0:0|0:0,0:0:0:0:
492,180,28694,6,0,P|448:186|407:200,2,88.000002685547,2|2|8,3:2|0:0|0:0,0:0:0:0:
321,240,29403,2,0,P|385:295|472:273,1,176.000005371094,2|0,0:0|3:0,0:0:0:0:
509,358,30111,2,0,P|469:376|426:384,1,88.000002685547,8|2,0:0|0:0,0:0:0:0:
321,240,30584,6,0,P|260:201|189:213,1,146.666671142578,4|0,3:2|0:0,0:0:0:0:
166,230,31056,2,0,P|123:237|79:242,1,88.000002685547,8|2,0:0|0:0,0:0:0:0:
236,312,31529,2,0,P|283:319|331:324,1,88.000002685547,0|2,3:0|0:0,0:0:0:0:
153,356,32001,2,0,P|109:362|65:367,1,88.000002685547,8|2,0:0|0:0,0:0:0:0:
0,256,32473,5,0,3:0:0:0:
22,170,32710,1,2,0:0:0:0:
108,156,32946,1,8,0:0:0:0:
178,204,33182,2,0,P|262:201|316:128,1,176.000005371094,2|2,0:0|0:0,0:0:0:0:
191,35,33891,2,0,P|197:78|220:116,1,88.000002685547,8|2,0:0|0:0,0:0:0:0:
297,44,34363,6,0,P|340:38|384:35,2,88.000002685547,0|2|8,3:0|0:0|0:0,0:0:0:0:
473,36,35072,2,0,P|429:109|345:114,1,176.000005371094,2|2,0:0|0:0,0:0:0:0:
256,119,35781,1,8,0:0:0:0:
316,277,36017,6,0,P|316:233|304:191,1,88.000002685547,2|0,0:0|3:0,0:0:0:0:
174,87,36489,2,0,P|212:108|255:118,1,88.000002685547,2|8,0:0|0:0,0:0:0:0:
177,190,36962,2,0,P|91:184|22:236,1,176.000005371094,2|2,0:0|0:0,0:0:0:0:
10,323,37670,1,8,0:0:0:0:
88,363,37907,1,2,0:0:0:0:
172,328,38143,6,0,B|219:324|251:348|251:348|291:340|315:320,1,146.666671142578,4|0,3:2|0:0,0:0:0:0:
316,296,38615,2,0,P|359:287|402:283,1,88.000002685547,8|2,0:0|0:0,0:0:0:0:
232,224,39088,2,0,P|188:216|144:211,1,88.000002685547,0|2,3:0|0:0,0:0:0:0:
304,132,39560,2,0,P|347:124|391:120,1,88.000002685547,8|2,0:0|0:0,0:0:0:0:
232,32,40033,5,0,3:0:0:0:
164,88,40269,1,2,0:0:0:0:
76,88,40505,1,8,0:0:0:0:
44,172,40741,2,0,B|55:199|55:226|55:226|21:279|52:339,1,176.000005371094,2|2,0:0|0:0,0:0:0:0:
122,284,41450,5,8,0:0:0:0:
122,284,41686,2,0,P|193:275|282:333,1,176.000005371094,2|2,0:0|0:0,0:0:0:0:
359,291,42395,1,8,0:0:0:0:
500,241,42632,2,0,P|417:228|359:289,1,176.000005371094,2|0,0:0|0:0,0:0:0:0:
303,221,43340,2,0,P|297:178|294:134,1,88.000002685547,8|2,0:0|0:0,0:0:0:0:
336,56,43812,6,0,P|373:34|417:35,2,88.000002685547,0|2|8,3:0|0:0|0:0,0:0:0:0:
303,221,44521,2,0,P|388:223|454:167,1,176.000005371094,2|2,0:0|0:0,0:0:0:0:
508,240,45229,2,0,L|512:344,1,88.000002685547,8|2,0:0|0:0,0:0:0:0:
380,360,45702,6,0,P|319:363|288:280,1,146.666671142578,4|0,3:2|0:0,0:0:0:0:
280,264,46174,2,0,P|239:247|195:242,1,88.000002685547,8|2,0:0|0:0,0:0:0:0:
106,252,46647,2,0,L|95:156,1,88.000002685547,0|2,3:0|0:0,0:0:0:0:
186,41,47119,2,0,L|176:129,1,88.000002685547,8|2,0:0|0:0,0:0:0:0:
17,121,47592,5,0,3:0:0:0:
95,164,47828,1,2,0:0:0:0:
176,129,48064,1,8,0:0:0:0:
250,176,48300,2,0,B|308:188|308:188|382:161|382:161|398:195,1,176.000005371094,2|2,0:0|0:0,0:0:0:0:
448,348,49009,2,0,P|454:304|455:260,1,88.000002685547,8|2,0:0|0:0,0:0:0:0:
398,194,49481,6,0,P|399:151|405:107,2,88.000002685547,0|2|8,3:0|0:0|0:0,0:0:0:0:
321,282,50190,2,0,P|252:230|167:242,1,176.000005371094,2|2,0:0|0:0,0:0:0:0:
97,295,50899,1,8,0:0:0:0:
232,297,51135,6,0,P|206:263|168:241,1,88.000002685547,2|0,0:0|3:0,0:0:0:0:
46,188,51607,1,0,0:0:0:0:
69,102,51844,1,8,0:0:0:0:
138,48,52080,2,0,P|204:35|316:42,1,176.000005371094,2|2,0:0|0:0,0:0:0:0:
395,96,52788,2,0,P|365:127|324:139,1,88.000002685547,8|2,0:0|0:0,0:0:0:0:
216,168,53261,6,0,B|203:209|203:209|218:240|218:240|214:280|202:307,1,146.666671142578,4|0,3:2|0:0,0:0:0:0:
183,329,53733,2,0,P|145:320|88:318,1,88.000002685547,8|2,0:0|0:0,0:0:0:0:
2,240,54206,2,0,P|45:230|89:229,1,88.000002685547,0|2,3:0|0:0,0:0:0:0:
135,134,54678,2,0,P|176:147|215:167,1,88.000002685547,8|2,0:0|0:0,0:0:0:0:
292,256,55151,5,0,3:0:0:0:
366,209,55387,1,2,0:0:0:0:
453,219,55623,1,8,0:0:0:0:
509,281,55859,2,0,P|441:329|359:293,1,176.000005371094,2|2,0:0|0:0,0:0:0:0:
366,209,56568,1,8,0:0:0:0:
192,183,56804,6,0,P|239:114|320:133,1,176.000005371094,2|2,0:0|0:0,0:0:0:0:
366,209,57513,1,8,0:0:0:0:
243,257,57749,2,0,P|202:273|155:266,1,88.000002685547,2|0,0:0|3:0,0:0:0:0:
85,220,58222,2,0,L|74:130,2,88.000002685547,2|8|2,0:0|0:0|0:0,0:0:0:0:
28,343,58930,5,0,3:0:0:0:
121,293,59166,1,0,3:0:0:0:
226,306,59403,1,4,1:2:0:0:
306,374,59639,2,0,P|383:344|334:278,1,176.000005371094,0|0,3:0|3:0,0:0:0:0:
287,199,60348,2,0,L|294:128,1,44.0000013427735,0|0,1:0|1:0,0:0:0:0:
296,111,60584,1,0,1:0:0:0:
162,28,60820,6,0,P|212:30|252:36,1,88.000002685547,4|2,3:2|0:0,0:0:0:0:
440,44,61292,2,0,P|390:46|350:52,1,88.000002685547,8|2,0:0|0:0,0:0:0:0:
287,199,61765,2,0,P|370:203|407:129,1,176.000005371094,0|8,3:0|0:0,0:0:0:0:
250,36,62473,5,2,0:0:0:0:
250,36,62710,2,0,L|239:123,1,88.000002685547,0|2,3:0|0:0,0:0:0:0:
160,177,63182,1,8,0:0:0:0:
227,260,63418,1,2,0:0:0:0:
123,277,63655,2,0,P|163:351|247:364,1,176.000005371094,0|8,3:0|0:0,0:0:0:0:
330,335,64363,1,2,0:0:0:0:
408,288,64599,6,0,P|454:288|497:296,2,88.000002685547,0|2|8,3:0|0:0|0:0,0:0:0:0:
360,212,65308,1,2,0:0:0:0:
313,136,65544,2,0,P|267:136|224:128,1,88.000002685547,0|2,3:0|0:0,0:0:0:0:
180,48,66017,2,0,P|134:48|91:56,1,88.000002685547,8|2,0:0|0:0,0:0:0:0:
14,175,66489,5,0,3:0:0:0:
98,149,66725,1,2,0:0:0:0:
172,199,66962,1,8,0:0:0:0:
226,129,67198,1,2,0:0:0:0:
315,257,67434,2,0,P|229:260|171:198,1,176.000005371094,0|8,3:0|0:0,0:0:0:0:
226,129,68143,1,2,0:0:0:0:
351,165,68379,6,0,P|395:155|445:153,1,88.000002685547,4|2,3:2|0:0,0:0:0:0:
400,268,68851,2,0,P|356:258|306:256,1,88.000002685547,8|2,0:0|0:0,0:0:0:0:
166,299,69324,2,0,P|249:313|313:256,1,176.000005371094,0|8,3:0|0:0,0:0:0:0:
311,167,70033,1,2,0:0:0:0:
259,95,70269,6,0,B|168:81,1,88.000002685547,0|2,3:0|0:0,0:0:0:0:
80,188,70741,2,0,B|169:173,1,88.000002685547,8|2,0:0|0:0,0:0:0:0:
259,95,71214,2,0,P|342:80|406:151,1,176.000005371094,0|8,3:0|0:0,0:0:0:0:
402,227,71922,1,2,0:0:0:0:
384,312,72159,6,0,P|426:328|476:329,2,88.000002685547,0|2|8,3:0|0:0|0:0,0:0:0:0:
300,276,72867,1,2,0:0:0:0:
213,255,73103,2,0,P|171:271|121:272,2,88.000002685547,0|2|8,3:0|0:0|0:0,0:0:0:0:
279,197,73812,1,2,0:0:0:0:
239,118,74048,6,0,P|235:74|232:30,1,88.000002685547,0|2,3:0|0:0,0:0:0:0:
358,134,74521,2,0,P|361:177|364:221,1,88.000002685547,8|2,0:0|0:0,0:0:0:0:
239,118,74993,2,0,P|170:129|104:91,1,146.666671142578,0|2,3:0|0:0,0:0:0:0:
81,75,75466,2,0,L|56:160,1,88.000002685547,8|2,0:0|0:0,0:0:0:0:
43,291,75938,6,0,P|50:254|88:247,1,80,4|0,3:2|0:0,0:0:0:0:
212,348,76647,2,0,P|176:360|151:332,1,80,4|0,3:2|0:0,0:0:0:0:
217,186,77355,2,0,P|259:177|299:172,1,80,2|4,0:0|0:0,0:0:0:0:
360,124,77828,6,0,L|365:44,1,80,4|0,3:2|0:0,0:0:0:0:
423,171,78300,1,4,3:2:0:0:
402,248,78536,1,4,0:0:0:0:
402,248,79245,6,0,P|368:260|324:264,1,80,0|2,3:0|0:0,0:0:0:0:
245,241,79718,1,4,3:2:0:0:
182,294,79954,6,0,P|143:293|107:277,1,80,2|0,0:0|0:0,0:0:0:0:
4,183,80426,2,0,P|83:193|159:217,1,160,2|0,0:0|0:0,0:0:0:0:
182,294,81135,1,0,0:0:0:0:
258,272,81371,2,0,P|297:273|337:279,1,80,2|0,0:0|3:0,0:0:0:0:
431,256,81844,5,0,3:0:0:0:
456,163,82080,1,0,3:0:0:0:
428,69,82316,2,0,P|366:23|289:33,1,160,2|0,1:2|3:0,0:0:0:0:
221,101,83025,2,0,L|182:93,3,26.6666666666667,8|0|0|0,1:0|1:0|1:0|1:0,0:0:0:0:
100,64,83497,6,0,P|110:121|114:163,1,88.000002685547,4|0,3:2|0:0,0:0:0:0:
156,232,83970,2,0,P|146:289|142:331,1,88.000002685547,8|0,0:0|0:0,0:0:0:0:
228,168,84442,2,0,P|222:124|214:81,1,88.000002685547,0|0,3:0|0:0,0:0:0:0:
320,216,84915,2,0,P|310:273|306:315,1,88.000002685547,8|0,0:0|0:0,0:0:0:0:
244,371,85387,5,0,3:0:0:0:
178,312,85623,1,2,0:0:0:0:
90,307,85859,1,8,0:0:0:0:
12,349,86096,2,0,P|7:266|77:220,1,176.000005371094,2|2,0:0|0:0,0:0:0:0:
100,134,86804,5,8,0:0:0:0:
100,134,87040,2,0,L|75:227,1,88.000002685547,2|0,0:0|3:0,0:0:0:0:
180,184,87513,2,0,P|222:170|269:166,1,88.000002685547,2|8,0:0|0:0,0:0:0:0:
404,220,87985,2,0,P|321:231|266:167,1,176.000005371094,2|2,0:0|0:0,0:0:0:0:
248,76,88694,1,8,0:0:0:0:
312,12,88930,6,0,P|366:15|409:18,1,88.000002685547,2|0,0:0|3:0,0:0:0:0:
485,79,89403,1,0,3:0:0:0:
493,184,89639,1,4,1:2:0:0:
401,237,89875,2,0,B|330:262|279:228|279:228|285:198|319:180,1,176.000005371094,0|4,3:0|0:0,0:0:0:0:
373,121,90584,2,0,L|360:70,2,44.0000013427735,0|0|4,1:0|0:0|0:0,0:0:0:0:
301,28,91056,6,0,P|340:2|390:2,1,88.000002685547,4|2,3:2|0:0,0:0:0:0:
235,88,91529,2,0,P|196:62|146:62,1,88.000002685547,8|2,0:0|0:0,0:0:0:0:
14,181,92001,2,0,P|99:191|172:144,1,176.000005371094,0|8,3:0|0:0,0:0:0:0:
252,196,92710,1,2,0:0:0:0:
325,141,92946,6,0,P|371:129|424:124,1,88.000002685547,0|2,3:0|0:0,0:0:0:0:
486,250,93418,1,8,0:0:0:0:
386,213,93655,1,2,0:0:0:0:
345,313,93891,2,0,P|283:370|199:355,1,176.000005371094,0|8,3:0|0:0,0:0:0:0:
136,288,94599,1,2,0:0:0:0:
271,184,94836,6,0,L|258:271,2,88.000002685547,0|2|8,3:0|0:0|0:0,0:0:0:0:
180,180,95544,1,2,0:0:0:0:
104,127,95781,2,0,L|90:40,1,88.000002685547,0|2,3:0|0:0,0:0:0:0:
204,8,96253,2,0,L|218:95,1,88.000002685547,8|2,0:0|0:0,0:0:0:0:
284,156,96725,5,0,3:0:0:0:
367,127,96962,1,2,0:0:0:0:
450,161,97198,1,8,0:0:0:0:
509,97,97434,1,2,0:0:0:0:
471,15,97670,2,0,P|419:82|450:161,1,176.000005371094,0|8,3:0|0:0,0:0:0:0:
511,224,98379,1,2,0:0:0:0:
476,376,98615,6,0,P|461:335|456:292,1,88.000002685547,4|2,3:2|0:0,0:0:0:0:
362,188,99088,2,0,P|320:173|277:167,1,88.000002685547,8|2,0:0|0:0,0:0:0:0:
142,224,99560,2,0,B|206:224|247:276|247:276|297:252,1,176.000005371094,0|8,3:0|0:0,0:0:0:0:
362,188,100269,1,2,0:0:0:0:
362,188,100505,6,0,L|372:90,1,88.000002685547,0|2,3:0|0:0,0:0:0:0:
194,66,100977,2,0,L|202:153,1,88.000002685547,8|2,0:0|0:0,0:0:0:0:
287,68,101450,2,0,P|351:14|433:36,1,176.000005371094,0|8,3:0|0:0,0:0:0:0:
480,119,102159,1,2,0:0:0:0:
388,186,102395,6,0,P|375:143|370:100,2,88.000002685547,0|2|8,3:0|0:0|0:0,0:0:0:0:
332,256,103103,1,2,0:0:0:0:
250,296,103340,2,0,P|244:339|232:381,2,88.000002685547,0|2|8,3:0|0:0|0:0,0:0:0:0:
218,213,104048,1,2,0:0:0:0:
139,173,104285,6,0,L|51:181,1,88.000002685547,0|2,3:0|0:0,0:0:0:0:
74,315,104757,2,0,L|161:323,1,88.000002685547,8|2,0:0|0:0,0:0:0:0:
288,264,105229,2,0,P|357:251|414:294,1,146.666671142578,0|2,3:0|0:0,0:0:0:0:
424,322,105702,2,0,P|463:304|507:297,1,88.000002685547,8|2,0:0|0:0,0:0:0:0:
431,195,106174,5,4,0:0:0:0:
69,75,121292,5,4,3:2:0:0:
150,107,121765,1,0,3:0:0:0:
223,58,122237,1,0,3:0:0:0:
304,90,122710,1,0,3:0:0:0:
469,163,123182,5,0,3:0:0:0:
388,131,123655,1,0,3:0:0:0:
315,180,124127,1,0,3:0:0:0:
234,148,124600,1,0,3:0:0:0:
103,193,125072,6,0,P|73:137|68:74,2,128,4|0|0,3:2|3:0|3:0,0:0:0:0:
188,224,126489,1,0,3:0:0:0:
271,190,126962,2,0,P|334:189|389:220,1,128,0|0,3:0|3:0,0:0:0:0:
421,304,127907,1,0,3:0:0:0:
368,376,128379,2,0,P|336:381|304:383,1,64,0|0,3:0|0:0,0:0:0:0:
256,328,128851,6,0,P|204:298|120:298,1,143.999995605469,4|0,3:2|3:0,0:0:0:0:
340,256,129796,2,0,P|392:226|476:226,1,143.999995605469,0|0,3:0|3:0,0:0:0:0:
304,88,130741,6,0,P|271:72|235:67,1,71.9999978027344,0|0,3:0|3:0,0:0:0:0:
168,96,131214,1,0,3:0:0:0:
93,84,131450,2,0,B|44:89|4:115|4:115|24:135|32:154,1,143.999995605469,0|0,3:0|3:0,0:0:0:0:
84,211,132159,2,0,P|71:244|64:279,1,71.9999978027344,0|0,3:0|3:0,0:0:0:0:
111,343,132631,6,0,P|150:335|188:322,1,80,0|0,3:0|3:0,0:0:0:0:
313,340,133103,2,0,P|287:310|258:284,1,80,0|0,3:0|3:0,0:0:0:0:
212,162,133576,2,0,P|198:199|191:239,2,80,0|0|0,3:0|3:0|3:0,0:0:0:0:
271,108,134285,1,0,3:0:0:0:
256,192,134521,12,12,135938,0:0:0:0:
349,201,136410,6,0,P|390:188|424:160,1,88.000002685547,4|2,3:2|0:0,0:0:0:0:
510,63,136883,2,0,P|468:50|434:22,1,88.000002685547,8|2,0:0|0:0,0:0:0:0:
371,83,137355,2,0,P|283:72|196:63,1,176.000005371094,0|8,3:0|0:0,0:0:0:0:
114,97,138064,1,2,0:0:0:0:
64,200,138300,6,0,P|106:189|149:180,1,88.000002685547,0|2,3:0|0:0,0:0:0:0:
267,283,138773,2,0,P|225:272|182:264,1,88.000002685547,8|2,0:0|0:0,0:0:0:0:
355,279,139245,2,0,P|315:353|231:363,1,176.000005371094,0|8,3:0|0:0,0:0:0:0:
146,336,139954,1,2,0:0:0:0:
88,269,140190,6,0,P|41:264|0:255,2,88.000002685547,0|2|8,3:0|0:0|0:0,0:0:0:0:
168,224,140899,1,2,0:0:0:0:
209,141,141135,2,0,P|204:97|195:54,1,88.000002685547,0|2,3:0|0:0,0:0:0:0:
288,208,141607,2,0,P|283:252|274:295,1,88.000002685547,8|2,0:0|0:0,0:0:0:0:
382,172,142080,5,0,3:0:0:0:
416,252,142316,1,2,0:0:0:0:
360,320,142552,1,8,0:0:0:0:
274,294,142788,1,2,0:0:0:0:
188,311,143025,2,0,P|206:230|287:207,1,176.000005371094,0|8,3:0|0:0,0:0:0:0:
274,294,143733,1,2,0:0:0:0:
120,367,143970,6,0,P|76:372|32:375,1,88.000002685547,4|2,3:2|0:0,0:0:0:0:
91,240,144442,2,0,P|134:245|178:248,1,88.000002685547,8|2,0:0|0:0,0:0:0:0:
288,208,144914,2,0,B|341:209|369:170|369:170|414:170|449:186,1,176.000005371094,0|8,3:0|0:0,0:0:0:0:
291,116,145623,5,2,0:0:0:0:
291,116,145859,2,0,P|273:66|248:32,1,88.000002685547,0|2,3:0|0:0,0:0:0:0:
168,3,146332,1,8,0:0:0:0:
84,29,146568,1,2,0:0:0:0:
47,108,146804,2,0,B|64:139|52:178|52:178|114:173|149:205,1,176.000005371094,0|8,3:0|0:0,0:0:0:0:
210,268,147513,1,2,0:0:0:0:
180,352,147749,6,0,P|138:340|95:331,2,88.000002685547,0|2|8,3:0|0:0|0:0,0:0:0:0:
268,334,148458,1,2,0:0:0:0:
320,260,148694,2,0,P|363:250|405:237,1,88.000002685547,0|2,3:0|0:0,0:0:0:0:
248,188,149166,2,0,P|209:167|172:143,1,88.000002685547,8|2,0:0|0:0,0:0:0:0:
133,43,149639,5,0,3:0:0:0:
304,8,150111,1,8,0:0:0:0:
450,102,150584,1,0,3:0:0:0:
417,183,150820,2,0,P|426:225|446:264,2,88.000002685547,8|8|2,0:1|0:1|0:0,0:0:0:0:
322,99,151529,6,0,P|277:83|230:78,1,95.9999970703126,4|2,3:2|0:0,0:0:0:0:
84,179,152001,2,0,P|131:174|177:158,1,95.9999970703126,8|0,0:0|0:0,0:0:0:0:
254,213,152473,2,0,P|344:201|400:273,1,191.999994140625,0|8,3:0|0:0,0:0:0:0:
371,365,153182,1,2,0:0:0:0:
284,324,153418,5,0,3:0:0:0:
191,349,153655,1,2,0:0:0:0:
124,280,153891,2,0,P|111:233|105:186,1,95.9999970703126,8|2,0:0|0:0,0:0:0:0:
155,103,154363,2,0,P|63:100|9:174,1,191.999994140625,0|8,3:0|0:0,0:0:0:0:
11,271,155072,1,2,0:0:0:0:
88,332,155308,6,0,P|143:343|196:352,2,95.9999970703126,0|2|8,3:0|0:0|0:0,0:0:0:0:
100,236,156017,1,0,0:0:0:0:
152,152,156253,2,0,P|163:97|172:44,1,95.9999970703126,0|2,3:0|0:0,0:0:0:0:
268,0,156725,2,0,P|276:47|285:94,1,95.9999970703126,8|2,0:0|0:0,0:0:0:0:
400,80,157198,5,0,3:0:0:0:
457,157,157434,1,2,0:0:0:0:
416,243,157670,1,8,0:0:0:0:
459,329,157907,1,2,0:0:0:0:
370,369,158143,2,0,P|276:351|181:342,1,191.999994140625,0|8,3:0|0:0,0:0:0:0:
87,363,158851,1,2,0:0:0:0:
1,225,159088,6,0,P|45:207|90:192,1,95.9999970703126,4|2,3:2|0:0,0:0:0:0:
76,27,159560,2,0,P|106:65|132:106,1,95.9999970703126,8|2,0:0|0:0,0:0:0:0:
191,181,160033,2,0,P|266:126|358:141,1,191.999994140625,0|8,3:0|0:0,0:0:0:0:
409,221,160741,1,2,0:0:0:0:
409,221,160978,6,0,P|397:267|388:314,2,95.9999970703126,0|0|8,3:0|0:0|0:0,0:0:0:0:
478,154,161686,1,2,0:0:0:0:
438,66,161922,2,0,B|393:37|350:37|350:37|311:72|258:65,1,191.999994140625,0|8,3:0|0:0,0:0:0:0:
169,29,162631,1,2,0:0:0:0:
100,100,162867,6,0,P|92:147|84:194,2,95.9999970703126,0|2|8,3:0|0:0|0:0,0:0:0:0:
191,137,163576,1,2,0:0:0:0:
228,228,163812,2,0,P|275:236|322:242,1,95.9999970703126,0|2,3:0|0:0,0:0:0:0:
360,152,164285,1,8,0:0:0:0:
275,102,164521,2,0,P|220:111|182:152,1,95.9999970703126,2|0,0:0|0:0,0:0:0:0:
190,136,166174,6,0,P|282:104|350:175,1,207.999990478516,0|4,0:0|3:2,0:0:0:0:
232,307,167119,6,0,B|143:277|143:277|94:297,1,146.666671142578,8|2,0:0|0:0,0:0:0:0:
74,319,167591,2,0,P|67:278|56:226,1,88.000002685547,0|2,3:0|0:0,0:0:0:0:
120,88,168064,2,0,P|127:129|138:181,1,88.000002685547,8|2,0:0|0:0,0:0:0:0:
251,108,168536,6,0,P|293:98|337:103,1,88.000002685547,0|2,3:2|0:0,0:0:0:0:
408,154,169009,2,0,B|409:175|403:198|403:198|367:229|367:229|352:282,1,146.666671142578,8|2,0:0|0:0,0:0:0:0:
366,308,169481,2,0,P|322:310|282:329,1,88.000002685547,0|2,3:0|0:0,0:0:0:0:
124,336,169954,2,0,P|165:322|199:293,1,88.000002685547,8|2,0:0|0:0,0:0:0:0:
242,174,170426,6,0,P|282:156|326:154,1,88.000002685547,4|2,3:2|0:0,0:0:0:0:
448,72,170899,2,0,B|416:84|384:76|384:76|360:40|312:28,1,146.666671142578,8|2,0:0|0:0,0:0:0:0:
292,44,171371,2,0,P|251:60|208:53,1,88.000002685547,0|2,3:0|0:0,0:0:0:0:
120,41,171843,2,0,P|79:57|53:91,1,88.000002685547,10|0,0:0|0:0,0:0:0:0:
79,236,172316,6,0,L|94:323,2,88.000002685547,2|2|8,3:2|0:0|0:0,0:0:0:0:
135,168,173025,2,0,B|184:153|184:153|236:204|312:168,1,176.000005371094,2|2,0:0|0:0,0:0:0:0:
369,118,173733,2,0,P|412:121|456:128,1,88.000002685547,8|2,0:0|0:0,0:0:0:0:
395,294,174206,6,0,P|347:316|304:306,1,88.000002685547,4|2,3:2|0:0,0:0:0:0:
239,263,174678,2,0,B|199:252|166:273|166:273|131:289|96:277,1,146.666671142578,8|2,0:0|0:0,0:0:0:0:
72,260,175151,2,0,P|61:217|60:173,1,88.000002685547,0|2,3:0|0:0,0:0:0:0:
80,89,175623,2,0,P|117:94|165:114,1,88.000002685547,8|2,0:0|0:0,0:0:0:0:
314,153,176095,6,0,P|275:171|232:169,1,88.000002685547,0|2,3:2|0:0,0:0:0:0:
80,89,176568,2,0,B|64:144|64:144|88:192|60:248,1,146.666671142578,8|2,0:0|0:0,0:0:0:0:
56,259,177040,2,0,P|61:287|84:346,1,88.000002685547,0|2,3:0|0:0,0:0:0:0:
172,324,177513,2,0,P|200:319|259:296,1,88.000002685547,8|2,0:0|0:0,0:0:0:0:
315,167,177985,6,0,P|308:115|302:74,1,88.000002685547,4|2,3:2|0:0,0:0:0:0:
440,28,178458,2,0,B|428:68|429:106|429:106|464:124|480:164,1,146.666671142578,8|2,0:0|0:0,0:0:0:0:
480,184,178930,2,0,P|441:206|399:219,1,88.000002685547,0|0,3:0|0:0,0:0:0:0:
319,177,179403,2,0,L|232:194,1,88.000002685547,8|2,0:0|0:0,0:0:0:0:
160,132,179875,6,0,P|147:90|140:46,2,88.000002685547,2|2|8,3:2|0:0|0:0,0:0:0:0:
112,286,180584,2,0,P|182:278|232:188,1,176.000005371094,2|2,0:0|0:0,0:0:0:0:
284,122,181292,2,0,P|324:105|368:100,1,88.000002685547,8|2,0:0|0:0,0:0:0:0:
504,180,181765,6,0,P|465:186|436:160,1,80,4|0,0:0|0:0,0:0:0:0:
359,20,182473,2,0,P|280:10|211:48,2,160,2|2|0,0:0|0:0|0:0,0:0:0:0:
421,71,183655,6,0,P|462:55|502:48,2,80,2|0|0,0:0|0:0|0:0,0:0:0:0:
346,101,184363,2,0,P|304:167|313:245,1,160,2|0,0:0|0:0,0:0:0:0:
361,309,185072,1,0,0:0:0:0:
223,170,185544,6,0,P|174:168|158:209,1,80,4|0,0:0|0:0,0:0:0:0:
71,324,186253,2,0,P|146:298|225:289,1,160,2|0,0:0|0:0,0:0:0:0:
298,323,186962,2,0,P|334:338|374:340,1,80,2|0,0:0|0:0,0:0:0:0:
451,318,187434,6,0,L|465:239,1,80,2|2,0:0|0:0,0:0:0:0:
504,169,187907,1,0,0:0:0:0:
486,91,188143,2,0,P|427:40|350:53,1,160,2|2,0:0|0:0,0:0:0:0:
299,114,188851,2,0,L|311:152,2,40,0|2|0,0:0|0:0|0:0,0:0:0:0:
178,36,189324,6,0,P|146:14|103:28,1,80,4|0,0:0|0:0,0:0:0:0:
233,170,190033,2,0,P|291:116|369:104,1,160,2|2,0:0|0:0,0:0:0:0:
447,119,190741,2,0,P|460:156|479:191,1,80,0|0,0:0|0:0,0:0:0:0:
446,264,191214,6,0,P|432:301|413:336,2,80,2|0|2,0:0|0:0|0:0,0:0:0:0:
393,204,191922,2,0,B|343:186|343:186|295:226|243:213,1,160,2|0,0:0|0:0,0:0:0:0:
167,188,192631,1,0,0:0:0:0:
64,312,193103,6,0,P|26:310|3:273,1,80,4|0,0:0|0:0,0:0:0:0:
89,49,193812,2,0,P|135:113|166:187,1,160,2|0,0:0|0:0,0:0:0:0:
212,254,194521,6,0,P|261:246|301:222,1,80,2|0,0:0|0:0,0:0:0:0:
336,168,194993,6,0,P|385:176|425:200,1,80,2|2,0:0|0:0,0:0:0:0:
420,272,195466,1,0,0:0:0:0:
344,296,195702,1,0,0:0:0:0:
256,192,195859,12,0,196883,0:0:0:0:
