osu file format v14

[General]
AudioFilename: audio.mp3
AudioLeadIn: 0
PreviewTime: 60033
Countdown: 0
SampleSet: Soft
StackLeniency: 0.5
Mode: 0
LetterboxInBreaks: 0
WidescreenStoryboard: 0

[Editor]
DistanceSpacing: 1
BeatDivisor: 4
GridSize: 4
TimelineZoom: 2.699999

[Metadata]
Title:Yellow
TitleUnicode:Yellow
Artist:Sharlo
ArtistUnicode:Sharlo
Creator:Zero__wind
Version:Insane
Source:初音ミク -Project DIVA- 2nd
Tags:vocaloid livetune kz Hatsune Miku thzz
BeatmapID:1344425
BeatmapSetID:519335

[Difficulty]
HPDrainRate:5.5
CircleSize:4
OverallDifficulty:7.5
ApproachRate:8
SliderMultiplier:1.4
SliderTickRate:2

[Events]
//Background and Video events
0,0,"bg.jpg",0,0
//Break Periods
2,106374,120542
//Storyboard Layer 0 (Background)
//Storyboard Layer 1 (Fail)
//Storyboard Layer 2 (Pass)
//Storyboard Layer 3 (Foreground)
//Storyboard Sound Samples

[TimingPoints]
348,472.44094488189,4,2,1,60,1,0
584,-100,4,2,1,50,0,0
4127,-100,4,2,1,40,0,0
4363,-100,4,2,1,50,0,0
7907,-90.9090909090909,4,2,1,70,0,0
8143,-90.9090909090909,4,2,1,60,0,0
11686,-90.9090909090909,4,2,1,50,0,0
11922,-90.9090909090909,4,2,1,60,0,0
15466,-83.3333333333333,4,2,1,70,0,0
30584,-83.3333333333333,4,2,1,60,0,0
58930,-83.3333333333333,4,2,1,70,0,0
60820,-76.9230769230769,4,2,1,70,0,1
75938,-90.9090909090909,4,2,1,70,0,0
79245,-90.9090909090909,4,2,1,60,0,0
79718,-90.9090909090909,4,2,1,70,0,0
79796,-90.9090909090909,4,2,1,30,0,0
80190,-90.9090909090909,4,2,1,40,0,0
80662,-90.9090909090909,4,2,1,50,0,0
81135,-90.9090909090909,4,2,1,60,0,0
81607,-90.9090909090909,4,2,1,70,0,0
83497,-83.3333333333333,4,2,1,60,0,0
91056,-76.9230769230769,4,2,1,70,0,1
106174,-76.9230769230769,4,2,1,70,0,0
121292,-83.3333333333333,4,2,1,70,0,0
121529,-83.3333333333333,4,2,1,60,0,0
125072,-83.3333333333333,4,2,1,80,0,0
125308,-83.3333333333333,4,2,1,60,0,0
132631,-83.3333333333333,4,2,1,50,0,0
134993,-83.3333333333333,4,2,1,60,0,0
135466,-83.3333333333333,4,2,1,70,0,0
135938,-83.3333333333333,4,2,1,80,0,0
136056,-83.3333333333333,4,2,1,70,0,0
136410,-76.9230769230769,4,2,1,70,0,1
164757,-100,4,2,1,60,0,0
166647,-83.3333333333333,4,2,1,70,0,0
181765,-100,4,2,1,60,0,0
182001,-100,4,2,1,50,0,0
185544,-100,4,2,1,40,0,0
185781,-100,4,2,1,50,0,0
189324,-100,4,2,1,40,0,0
189560,-100,4,2,1,50,0,0
193103,-100,4,2,1,40,0,0
193340,-100,4,2,1,50,0,0
195702,-125,4,2,1,50,0,0
195820,-125,4,2,1,5,0,0

[Colours]
Combo1 : 249,190,142
Combo2 : 255,221,130

[HitObjects]
356,116,348,6,0,P|344:148|341:183,1,70,4|0,0:0|0:0,0:0:0:0:
352,275,820,1,0,0:0:0:0:
440,167,1056,1,2,0:0:0:0:
440,167,1529,2,0,P|496:135|440:91,1,140,2|0,0:0|0:0,0:0:0:0:
341,182,2237,5,2,0:0:0:0:
404,251,2473,1,0,0:0:0:0:
249,202,2710,1,0,0:0:0:0:
369,92,2946,1,2,0:0:0:0:
337,324,3418,2,0,P|403:351|469:325,1,140,2|0,0:0|0:0,0:0:0:0:
313,175,4127,6,0,P|279:184|248:201,1,70,4|0,0:0|0:0,0:0:0:0:
196,275,4599,1,0,0:0:0:0:
196,127,4836,1,2,0:0:0:0:
196,127,5308,1,0,0:0:0:0:
56,99,5544,1,2,0:0:0:0:
112,183,5781,1,0,0:0:0:0:
140,43,6017,5,2,0:0:0:0:
0,15,6253,1,2,0:0:0:0:
56,99,6489,1,0,0:0:0:0:
139,42,6725,2,0,P|156:109|124:170,1,140,2|2,0:0|0:0,0:0:0:0:
96,210,7316,1,2,0:0:0:0:
52,232,7434,2,0,L|12:224,2,35,0|2|0,0:0|0:0|0:0,0:0:0:0:
200,240,7907,6,0,P|244:240|288:228,1,77.0000023498536,4|0,3:2|0:0,0:0:0:0:
364,188,8379,1,0,3:0:0:0:
420,346,8615,2,0,P|394:317|376:284,1,77.0000023498536,2|0,0:0|3:0,0:0:0:0:
464,184,9088,2,0,P|489:155|508:121,2,77.0000023498536,2|0|0,0:0|3:0|0:0,0:0:0:0:
289,111,9796,5,2,3:2:0:0:
392,84,10033,1,0,0:0:0:0:
364,188,10269,1,0,3:0:0:0:
212,152,10505,2,0,P|199:115|208:78,1,77.0000023498536,2|0,0:0|3:0,0:0:0:0:
280,236,10977,2,0,P|288:273|276:309,2,77.0000023498536,2|0|0,0:0|3:0|0:0,0:0:0:0:
132,188,11686,6,0,P|80:200|56:216,1,77.0000023498536,2|0,3:2|0:0,0:0:0:0:
196,268,12159,1,0,3:0:0:0:
240,124,12395,2,0,P|233:86|215:52,1,77.0000023498536,2|0,0:0|3:0,0:0:0:0:
148,116,12867,1,0,0:0:0:0:
308,72,13103,1,2,3:2:0:0:
215,52,13340,1,0,0:0:0:0:
256,200,13576,5,2,3:2:0:0:
72,152,13812,1,2,3:2:0:0:
136,288,14048,1,0,1:0:0:0:
256,200,14285,2,0,L|336:196,1,77.0000023498536,2|0,3:2|3:0,0:0:0:0:
460,192,14757,1,2,3:2:0:0:
416,288,14993,2,0,L|420:316,3,25.6666674499512,8|0|0|0,1:0|1:0|1:0|1:0,0:0:0:0:
396,76,15466,6,0,P|416:39|452:19,1,83.9999974365235,4|0,3:2|0:0,0:0:0:0:
396,184,15938,1,8,0:0:0:0:
300,128,16174,2,0,P|261:113|220:121,1,83.9999974365235,2|0,0:0|3:0,0:0:0:0:
60,188,16647,2,0,P|98:202|139:194,1,83.9999974365235,2|8,0:0|0:0,0:0:0:0:
252,208,17119,1,0,0:0:0:0:
200,44,17355,5,2,3:2:0:0:
108,108,17592,1,0,0:0:0:0:
160,272,17828,1,8,0:0:0:0:
324,251,18064,2,0,P|339:213|328:174,1,83.9999974365235,2|0,0:0|3:0,0:0:0:0:
281,323,18536,2,0,P|319:338|358:327,1,83.9999974365235,2|8,0:0|0:0,0:0:0:0:
424,240,19009,1,0,0:0:0:0:
252,208,19245,6,0,L|168:228,1,83.9999974365235,4|0,3:2|0:0,0:0:0:0:
281,323,19718,1,8,0:0:0:0:
176,356,19954,2,0,L|94:336,1,83.9999974365235,2|0,0:0|3:0,0:0:0:0:
12,264,20426,1,0,0:0:0:0:
116,132,20662,1,10,0:0:0:0:
170,227,20899,1,0,0:0:0:0:
16,160,21135,5,2,3:2:0:0:
208,144,21371,1,2,0:0:0:0:
88,232,21607,1,8,0:0:0:0:
164,61,21844,2,0,P|204:50|245:60,1,83.9999974365235,2|0,0:0|3:0,0:0:0:0:
250,225,22316,2,0,P|209:235|169:226,2,83.9999974365235,2|8|0,0:0|0:0|0:0,0:0:0:0:
408,144,23025,6,0,L|492:144,1,83.9999974365235,4|0,3:2|0:0,0:0:0:0:
368,244,23497,1,8,0:0:0:0:
312,152,23733,2,0,P|313:110|338:77,1,83.9999974365235,2|0,0:0|3:0,0:0:0:0:
464,236,24206,2,0,P|462:277|437:310,1,83.9999974365235,2|8,0:0|0:0,0:0:0:0:
340,360,24678,1,0,0:0:0:0:
224,200,24914,5,2,3:2:0:0:
336,180,25151,1,0,0:0:0:0:
228,380,25387,1,8,0:0:0:0:
60,311,25623,2,0,P|100:303|140:315,1,83.9999974365235,2|0,0:0|3:0,0:0:0:0:
223,200,26096,2,0,P|183:208|143:196,1,83.9999974365235,2|8,0:0|0:0,0:0:0:0:
60,128,26568,1,0,0:0:0:0:
199,36,26804,6,0,L|187:120,1,83.9999974365235,4|0,3:2|0:0,0:0:0:0:
168,284,27277,1,8,0:0:0:0:
96,365,27513,2,0,P|66:335|58:295,1,83.9999974365235,2|0,0:0|3:0,0:0:0:0:
88,184,27985,1,0,0:0:0:0:
276,220,28222,1,10,0:0:0:0:
168,284,28458,1,0,0:0:0:0:
202,94,28694,5,2,3:2:0:0:
88,266,28930,1,2,0:0:0:0:
280,136,29166,1,8,0:0:0:0:
160,172,29403,1,2,0:0:0:0:
252,304,29639,5,0,3:0:0:0:
56,168,29875,1,0,3:0:0:0:
192,24,30111,2,0,L|276:40,1,83.9999974365235,8|0,0:0|0:0,0:0:0:0:
432,212,30584,2,0,L|348:228,1,83.9999974365235,4|2,3:2|0:0,0:0:0:0:
244,288,31056,6,0,P|235:330|250:368,1,83.9999974365235,8|2,0:0|0:0,0:0:0:0:
201,185,31529,2,0,P|240:172|267:140,1,83.9999974365235,0|2,3:0|0:0,0:0:0:0:
134,272,32001,2,0,P|103:244|62:237,1,83.9999974365235,8|2,0:0|0:0,0:0:0:0:
56,340,32473,5,0,3:0:0:0:
244,288,32710,1,2,0:0:0:0:
124,168,32946,1,8,0:0:0:0:
267,139,33182,2,0,L|367:147,1,83.9999974365235,2|0,0:0|3:0,0:0:0:0:
244,288,33655,2,0,L|160:281,1,83.9999974365235,2|8,0:0|0:0,0:0:0:0:
72,228,34127,1,2,0:0:0:0:
68,332,34363,1,0,3:0:0:0:
164,177,34599,5,2,0:0:0:0:
56,96,34836,1,8,0:0:0:0:
220,20,35072,2,0,P|239:60|232:100,1,83.9999974365235,2|0,0:0|3:0,0:0:0:0:
164,177,35544,1,2,0:0:0:0:
56,258,35781,1,8,0:0:0:0:
220,334,36017,2,0,P|239:294|232:254,1,83.9999974365235,2|0,0:0|3:0,0:0:0:0:
164,177,36489,5,2,0:0:0:0:
34,177,36725,1,8,0:0:0:0:
164,177,36962,2,0,L|248:177,1,83.9999974365235,2|0,0:0|3:0,0:0:0:0:
378,177,37434,1,2,0:0:0:0:
344,336,37670,2,0,P|318:302|311:261,1,83.9999974365235,8|2,0:0|0:0,0:0:0:0:
468,138,38143,2,0,P|476:178|466:219,1,83.9999974365235,4|2,3:2|0:0,0:0:0:0:
427,347,38615,6,0,L|343:335,1,83.9999974365235,8|2,0:0|0:0,0:0:0:0:
216,321,39088,2,0,L|268:254,1,83.9999974365235,0|2,3:0|0:0,0:0:0:0:
344,152,39560,2,0,L|375:230,1,83.9999974365235,8|2,0:0|0:0,0:0:0:0:
343,335,40033,5,0,3:0:0:0:
184,244,40269,1,2,0:0:0:0:
344,152,40505,1,8,0:0:0:0:
184,243,40741,2,0,P|142:238|111:209,1,83.9999974365235,2|0,0:0|3:0,0:0:0:0:
288,56,41214,5,2,0:0:0:0:
184,152,41450,1,8,0:0:0:0:
344,152,41686,2,0,L|428:148,1,83.9999974365235,2|0,0:0|3:0,0:0:0:0:
184,152,42159,1,2,0:0:0:0:
288,56,42395,1,8,0:0:0:0:
128,56,42631,2,0,L|44:60,1,83.9999974365235,2|0,0:0|3:0,0:0:0:0:
0,160,43103,1,2,0:0:0:0:
76,272,43340,2,0,P|118:269|155:242,1,83.9999974365235,8|2,0:0|0:0,0:0:0:0:
212,76,43812,5,0,3:0:0:0:
148,164,44048,1,2,0:0:0:0:
224,284,44285,1,8,0:0:0:0:
160,372,44521,2,0,P|104:380|72:360,1,83.9999974365235,2|0,0:0|3:0,0:0:0:0:
223,284,44993,2,0,P|263:273|302:287,1,83.9999974365235,2|8,0:0|0:0,0:0:0:0:
260,372,45466,1,0,0:0:0:0:
188,176,45702,2,0,L|208:92,1,83.9999974365235,4|2,3:2|0:0,0:0:0:0:
315,15,46174,6,0,P|353:29|374:65,1,83.9999974365235,8|2,0:0|0:0,0:0:0:0:
335,231,46647,2,0,P|330:182|350:153,1,83.9999974365235,0|2,3:0|0:0,0:0:0:0:
512,105,47119,2,0,P|479:130|438:131,1,83.9999974365235,8|2,0:0|0:0,0:0:0:0:
300,92,47592,5,0,3:0:0:0:
409,205,47828,1,2,0:0:0:0:
312,328,48064,1,8,0:0:0:0:
144,248,48300,2,0,L|236:252,1,83.9999974365235,2|0,0:0|3:0,0:0:0:0:
84,356,48773,2,0,L|0:352,1,83.9999974365235,2|8,0:0|0:0,0:0:0:0:
144,248,49245,1,2,0:0:0:0:
184,344,49481,1,0,3:0:0:0:
216,152,49718,5,2,0:0:0:0:
64,192,49954,1,8,0:0:0:0:
195,48,50190,2,0,P|237:47|275:64,1,83.9999974365235,2|0,0:0|3:0,0:0:0:0:
368,192,50662,1,2,0:0:0:0:
216,152,50898,1,8,0:0:0:0:
347,295,51134,2,0,P|388:295|426:278,1,83.9999974365235,2|0,0:0|3:0,0:0:0:0:
484,196,51607,5,0,0:0:0:0:
372,84,51844,1,8,0:0:0:0:
288,196,52080,2,0,L|270:278,1,83.9999974365235,2|0,0:0|3:0,0:0:0:0:
196,156,52552,1,2,0:0:0:0:
141,310,52788,2,0,L|124:228,1,83.9999974365235,8|0,0:0|0:0,0:0:0:0:
224,44,53261,2,0,P|262:59|290:89,1,83.9999974365235,4|2,3:2|0:0,0:0:0:0:
203,254,53733,6,0,L|123:227,1,83.9999974365235,8|2,0:0|0:0,0:0:0:0:
310,222,54206,2,0,L|327:304,1,83.9999974365235,0|2,3:0|0:0,0:0:0:0:
228,145,54678,2,0,L|290:89,1,83.9999974365235,8|2,0:0|0:0,0:0:0:0:
404,164,55151,5,0,3:0:0:0:
327,304,55387,1,2,0:0:0:0:
228,145,55623,1,8,0:0:0:0:
395,64,55859,2,0,P|437:67|472:90,1,83.9999974365235,2|0,0:0|3:0,0:0:0:0:
508,248,56332,5,2,0:0:0:0:
448,372,56568,1,8,0:0:0:0:
327,304,56804,2,0,L|240:336,1,83.9999974365235,2|0,0:0|3:0,0:0:0:0:
424,276,57277,1,2,0:0:0:0:
364,152,57513,1,8,0:0:0:0:
164,191,57749,2,0,L|243:220,1,83.9999974365235,2|0,0:0|3:0,0:0:0:0:
359,231,58222,1,2,0:0:0:0:
316,84,58458,1,8,0:0:0:0:
242,219,58694,1,2,0:0:0:0:
436,196,58930,5,0,3:0:0:0:
232,120,59166,1,0,3:0:0:0:
272,320,59403,1,4,1:2:0:0:
320,208,59639,1,0,3:0:0:0:
320,208,59757,1,2,0:0:0:0:
320,208,59875,1,0,3:0:0:0:
172,284,60111,5,0,3:0:0:0:
396,296,60348,1,0,1:0:0:0:
376,72,60584,1,0,1:0:0:0:
157,50,60820,6,0,P|132:87|130:132,1,90.9999958343508,4|2,3:2|0:0,0:0:0:0:
16,264,61292,2,0,P|60:267|100:246,1,90.9999958343508,8|2,0:0|0:0,0:0:0:0:
295,163,61765,2,0,P|311:205|300:249,1,90.9999958343508,0|2,3:0|0:0,0:0:0:0:
180,328,62237,1,8,0:0:0:0:
216,212,62473,1,2,0:0:0:0:
360,312,62710,5,0,3:0:0:0:
396,196,62946,1,2,0:0:0:0:
264,292,63182,1,8,0:0:0:0:
300,132,63418,1,2,0:0:0:0:
435,119,63655,2,0,P|469:150|481:193,1,90.9999958343508,0|2,3:0|0:0,0:0:0:0:
388,352,64127,1,8,0:0:0:0:
496,304,64363,1,2,0:0:0:0:
296,276,64599,5,0,3:0:0:0:
396,196,64836,1,2,0:0:0:0:
242,166,65072,2,0,P|240:122|261:82,1,90.9999958343508,8|2,0:0|0:0,0:0:0:0:
424,60,65544,1,0,3:0:0:0:
324,140,65781,1,2,0:0:0:0:
477,169,66017,2,0,P|479:213|458:253,1,90.9999958343508,8|2,0:0|0:0,0:0:0:0:
296,276,66489,5,0,3:0:0:0:
424,60,66725,1,2,0:0:0:0:
457,253,66962,1,8,0:0:0:0:
324,140,67198,1,2,0:0:0:0:
512,28,67434,2,0,P|519:72|500:112,1,90.9999958343508,0|2,3:0|0:0,0:0:0:0:
368,224,67907,1,8,0:0:0:0:
260,196,68143,1,2,0:0:0:0:
92,316,68379,6,0,P|138:316|181:288,1,90.9999958343508,4|2,3:2|0:0,0:0:0:0:
228,99,68851,2,0,P|188:121|165:160,1,90.9999958343508,8|2,0:0|0:0,0:0:0:0:
296,296,69324,2,0,L|384:340,1,90.9999958343508,0|2,3:0|0:0,0:0:0:0:
504,272,69796,1,8,0:0:0:0:
396,216,70033,1,2,0:0:0:0:
476,372,70269,5,0,3:0:0:0:
464,176,70505,1,2,0:0:0:0:
340,292,70741,1,8,0:0:0:0:
504,272,70977,1,2,0:0:0:0:
376,124,71214,2,0,L|284:136,1,90.9999958343508,0|2,3:0|0:0,0:0:0:0:
96,188,71686,1,8,0:0:0:0:
172,272,71922,1,2,0:0:0:0:
176,104,72159,5,0,3:0:0:0:
76,280,72395,1,2,0:0:0:0:
264,240,72631,2,0,L|354:228,1,90.9999958343508,8|2,0:0|0:0,0:0:0:0:
500,184,73103,1,0,3:0:0:0:
428,300,73340,1,2,0:0:0:0:
392,120,73576,1,8,0:0:0:0:
500,184,73812,1,2,0:0:0:0:
354,227,74048,5,0,3:0:0:0:
476,100,74285,1,2,0:0:0:0:
323,44,74521,2,0,P|297:80|291:125,1,90.9999958343508,8|2,0:0|0:0,0:0:0:0:
278,295,74993,2,0,P|314:321|359:327,1,90.9999958343508,0|2,3:0|0:0,0:0:0:0:
367,190,75466,1,8,0:0:0:0:
148,276,75702,1,2,0:0:0:0:
216,68,75938,5,4,3:2:0:0:
296,316,76647,5,4,3:2:0:0:
164,240,77592,5,4,0:0:0:0:
348,144,77828,1,4,3:2:0:0:
304,284,78300,5,4,3:2:0:0:
208,100,78536,1,4,0:0:0:0:
212,328,79245,5,0,3:0:0:0:
116,212,79481,1,0,0:0:0:0:
288,84,79718,1,4,3:2:0:0:
256,192,79836,12,8,83025,1:0:0:0:
100,28,83497,6,0,L|88:120,1,83.9999974365235,4|2,3:2|0:0,0:0:0:0:
84,248,83970,2,0,P|120:272|164:272,1,83.9999974365235,8|2,0:0|0:0,0:0:0:0:
324,316,84442,2,0,P|306:279|271:257,1,83.9999974365235,0|2,3:0|0:0,0:0:0:0:
408,204,84914,2,0,P|449:202|483:178,1,83.9999974365235,8|2,0:0|0:0,0:0:0:0:
416,16,85387,5,0,3:0:0:0:
312,64,85623,1,2,0:0:0:0:
408,204,85859,1,8,0:0:0:0:
276,188,86096,2,0,L|188:172,1,83.9999974365235,2|0,0:0|3:0,0:0:0:0:
156,12,86568,5,2,0:0:0:0:
193,172,86804,1,8,0:0:0:0:
100,267,87040,2,0,P|58:264|23:241,1,83.9999974365235,2|0,0:0|3:0,0:0:0:0:
124,20,87513,1,2,0:0:0:0:
87,180,87749,1,8,0:0:0:0:
256,115,87985,2,0,P|221:93|179:89,1,83.9999974365235,2|0,0:0|3:0,0:0:0:0:
0,128,88458,1,2,0:0:0:0:
193,172,88694,1,8,0:0:0:0:
124,20,88930,1,2,0:0:0:0:
80,220,89166,5,0,3:0:0:0:
312,192,89403,1,0,3:0:0:0:
192,344,89639,1,4,1:2:0:0:
200,232,89875,1,0,3:0:0:0:
200,232,89993,1,2,1:2:0:0:
200,232,90111,1,0,1:0:0:0:
332,316,90348,5,4,0:0:0:0:
112,376,90584,1,0,1:0:0:0:
152,152,90820,1,4,0:0:0:0:
376,108,91056,6,0,L|456:152,1,90.9999958343508,4|2,3:2|0:0,0:0:0:0:
348,336,91529,2,0,P|304:347|261:336,1,90.9999958343508,8|2,0:0|0:0,0:0:0:0:
152,152,92001,2,0,L|232:108,1,90.9999958343508,0|2,3:0|0:0,0:0:0:0:
304,259,92473,1,8,0:0:0:0:
304,148,92710,1,2,0:0:0:0:
148,284,92946,5,0,3:0:0:0:
236,200,93182,1,2,0:0:0:0:
120,60,93418,1,8,0:0:0:0:
76,228,93655,1,2,0:0:0:0:
217,88,93891,2,0,P|262:87|303:108,1,90.9999958343508,0|2,3:0|0:0,0:0:0:0:
388,232,94363,1,8,0:0:0:0:
296,300,94599,1,2,0:0:0:0:
400,84,94836,5,0,3:0:0:0:
236,200,95072,1,2,0:0:0:0:
388,232,95308,2,0,P|433:232|473:213,1,90.9999958343508,8|2,0:0|0:0,0:0:0:0:
324,152,95781,1,0,3:0:0:0:
488,36,96017,1,2,0:0:0:0:
337,3,96253,2,0,P|291:2|251:21,1,90.9999958343508,8|2,0:0|0:0,0:0:0:0:
100,160,96725,5,0,3:0:0:0:
208,112,96962,1,2,0:0:0:0:
4,96,97198,1,8,0:0:0:0:
176,184,97434,1,2,0:0:0:0:
4,284,97670,2,0,P|-7:240|7:197,1,90.9999958343508,0|2,3:0|0:0,0:0:0:0:
132,88,98143,1,8,0:0:0:0:
100,244,98379,1,2,0:0:0:0:
340,168,98615,6,0,L|248:179,1,90.9999958343508,4|2,3:2|0:0,0:0:0:0:
448,294,99088,2,0,P|488:274|510:235,1,90.9999958343508,8|2,0:0|0:0,0:0:0:0:
488,60,99560,2,0,P|457:27|414:17,1,90.9999958343508,0|2,3:0|0:0,0:0:0:0:
292,112,100033,1,8,0:0:0:0:
304,232,100269,1,2,0:0:0:0:
420,96,100505,5,0,3:0:0:0:
292,112,100741,1,2,0:0:0:0:
432,216,100977,1,8,0:0:0:0:
472,24,101214,1,2,0:0:0:0:
311,27,101450,2,0,P|289:67|292:112,1,90.9999958343508,0|2,3:0|0:0,0:0:0:0:
380,276,101922,1,8,0:0:0:0:
372,164,102159,1,2,0:0:0:0:
232,272,102395,5,0,3:0:0:0:
432,216,102631,1,2,0:0:0:0:
276,136,102867,2,0,L|284:44,1,90.9999958343508,8|2,0:0|0:0,0:0:0:0:
424,140,103340,1,0,3:0:0:0:
224,196,103576,1,2,0:0:0:0:
380,276,103812,1,8,0:0:0:0:
240,352,104048,1,2,0:0:0:0:
332,192,104285,5,0,3:0:0:0:
200,120,104521,1,2,0:0:0:0:
68,191,104757,2,0,P|50:233|59:277,1,90.9999958343508,8|2,0:0|0:0,0:0:0:0:
155,366,105229,2,0,P|197:372|238:352,1,90.9999958343508,0|2,3:0|0:0,0:0:0:0:
292,108,105702,1,8,0:0:0:0:
136,241,105938,1,2,0:0:0:0:
360,300,106174,1,4,0:0:0:0:
256,84,121292,5,4,3:2:0:0:
307,342,121765,2,0,P|271:322|251:285,1,83.9999974365235,0|0,3:0|0:0,0:0:0:0:
100,161,122237,2,0,P|135:140|176:141,1,83.9999974365235,0|0,3:0|0:0,0:0:0:0:
360,72,122710,2,0,P|361:113|339:148,1,83.9999974365235,0|0,3:0|0:0,0:0:0:0:
143,248,123182,6,0,P|104:260|63:252,1,83.9999974365235,0|0,3:0|0:0,0:0:0:0:
62,68,123654,2,0,P|103:60|143:73,1,83.9999974365235,0|0,3:0|0:0,0:0:0:0:
324,228,124127,2,0,L|404:260,1,83.9999974365235,0|0,3:0|0:0,0:0:0:0:
401,62,124599,2,0,L|324:94,1,83.9999974365235,0|0,3:0|0:0,0:0:0:0:
100,161,125072,5,4,3:2:0:0:
323,227,125544,2,0,P|365:228|402:209,1,83.9999974365235,0|0,3:0|0:0,0:0:0:0:
190,232,126017,2,0,P|168:270|169:317,1,83.9999974365235,0|0,3:0|0:0,0:0:0:0:
253,115,126489,2,0,P|231:77|190:54,1,83.9999974365235,0|0,3:0|0:0,0:0:0:0:
248,292,126962,6,0,L|320:336,1,83.9999974365235,0|0,3:0|0:0,0:0:0:0:
172,135,127434,2,0,L|99:175,1,83.9999974365235,0|0,3:0|0:0,0:0:0:0:
347,147,127907,2,0,L|348:64,1,83.9999974365235,0|0,3:0|0:0,0:0:0:0:
172,135,128379,2,0,L|173:218,1,83.9999974365235,0|0,3:0|0:0,0:0:0:0:
444,352,128851,5,4,3:2:0:0:
320,244,129088,1,0,3:0:0:0:
444,224,129324,1,0,3:0:0:0:
320,332,129561,1,0,3:0:0:0:
192,244,129796,5,0,3:0:0:0:
68,352,130033,1,0,3:0:0:0:
68,224,130269,1,0,3:0:0:0:
192,332,130506,1,0,3:0:0:0:
320,156,130741,5,0,3:0:0:0:
444,288,130977,1,0,3:0:0:0:
296,328,131214,1,0,3:0:0:0:
192,156,131450,5,0,3:0:0:0:
68,288,131686,1,0,3:0:0:0:
216,328,131923,1,0,3:0:0:0:
356,260,132159,5,0,3:0:0:0:
356,124,132395,1,0,3:0:0:0:
216,56,132631,5,0,3:0:0:0:
197,53,132749,1,0,3:0:0:0:
179,54,132867,1,0,3:0:0:0:
161,58,132985,1,0,3:0:0:0:
144,65,133103,1,0,3:0:0:0:
129,75,133221,1,0,3:0:0:0:
116,88,133339,1,0,3:0:0:0:
105,103,133457,1,0,3:0:0:0:
96,119,133575,5,0,3:0:0:0:
91,137,133693,1,0,3:0:0:0:
90,155,133812,1,0,3:0:0:0:
91,173,133930,1,0,3:0:0:0:
96,191,134048,1,0,3:0:0:0:
103,208,134166,1,0,3:0:0:0:
114,223,134284,1,0,3:0:0:0:
127,236,134402,1,0,3:0:0:0:
142,246,134521,6,0,L|164:264,23,20.9999993591309,0|0|0|0|0|0|0|0|4|0|0|0|0|0|0|0|4|0|0|0|0|0|0|0,3:0|3:0|3:0|3:0|3:0|3:0|3:0|3:0|3:2|3:0|3:0|3:0|3:0|3:0|3:0|3:0|3:2|3:0|3:0|3:0|3:0|0:0|0:0|0:0,0:0:0:0:
180,272,135938,2,0,L|264:252,1,83.9999974365235,12|0,0:0|1:0,0:0:0:0:
456,48,136410,6,0,P|412:60|388:96,1,90.9999958343508,4|2,3:2|0:0,0:0:0:0:
416,256,136883,2,0,P|455:278|498:270,1,90.9999958343508,8|2,0:0|0:0,0:0:0:0:
295,352,137355,2,0,P|253:363|212:344,1,90.9999958343508,0|2,3:0|0:0,0:0:0:0:
352,156,137828,1,8,0:0:0:0:
416,256,138064,1,2,0:0:0:0:
261,252,138300,5,0,3:0:0:0:
436,172,138536,1,2,0:0:0:0:
336,320,138773,1,8,0:0:0:0:
256,152,139009,1,2,0:0:0:0:
404,40,139245,2,0,L|496:68,1,90.9999958343508,0|2,3:0|0:0,0:0:0:0:
512,224,139718,1,8,0:0:0:0:
408,284,139954,1,2,0:0:0:0:
352,116,140190,5,0,3:0:0:0:
248,228,140426,1,2,0:0:0:0:
144,76,140662,2,0,L|52:76,1,90.9999958343508,8|2,0:0|0:0,0:0:0:0:
40,268,141135,1,0,3:0:0:0:
144,380,141371,1,2,0:0:0:0:
248,228,141607,2,0,L|340:228,1,90.9999958343508,8|2,0:0|0:0,0:0:0:0:
456,268,142080,5,0,3:0:0:0:
352,380,142316,1,2,0:0:0:0:
248,228,142552,1,8,0:0:0:0:
420,184,142788,1,2,0:0:0:0:
315,31,143025,2,0,L|284:116,1,90.9999958343508,0|2,3:0|0:0,0:0:0:0:
232,304,143497,1,8,0:0:0:0:
339,228,143733,1,2,0:0:0:0:
210,47,143970,6,0,P|167:35|123:49,1,90.9999958343508,4|2,3:2|0:0,0:0:0:0:
57,227,144442,2,0,P|80:266|121:285,1,90.9999958343508,8|2,0:0|0:0,0:0:0:0:
339,228,144914,2,0,L|252:196,1,90.9999958343508,0|2,3:0|0:0,0:0:0:0:
32,116,145387,1,8,0:0:0:0:
136,204,145623,1,2,0:0:0:0:
192,36,145859,5,0,3:0:0:0:
32,116,146096,1,2,0:0:0:0:
248,108,146332,1,8,0:0:0:0:
94,40,146568,1,2,0:0:0:0:
4,211,146804,2,0,P|0:256|18:297,1,90.9999958343508,0|2,3:0|0:0,0:0:0:0:
160,364,147277,1,8,0:0:0:0:
264,296,147513,1,2,0:0:0:0:
204,124,147749,5,0,3:0:0:0:
96,240,147985,1,2,0:0:0:0:
199,359,148222,2,0,P|237:381|282:384,1,90.9999958343508,8|2,0:0|0:0,0:0:0:0:
427,127,148694,1,0,3:0:0:0:
421,285,148930,1,2,0:0:0:0:
264,296,149167,2,0,P|220:284|186:254,1,90.9999958343508,8|2,0:0|0:0,0:0:0:0:
280,48,149639,5,0,3:0:0:0:
172,163,149875,1,2,0:0:0:0:
190,6,150111,1,8,0:0:0:0:
262,205,150348,1,2,0:0:0:0:
374,15,150584,1,0,3:0:0:0:
132,76,150820,1,8,0:1:0:0:
364,136,151056,1,8,0:1:0:0:
192,228,151292,1,2,0:0:0:0:
374,14,151529,6,0,P|418:24|453:54,1,90.9999958343508,4|2,3:2|0:0,0:0:0:0:
508,228,152001,2,0,P|509:273|489:314,1,90.9999958343508,8|0,0:0|0:0,0:0:0:0:
340,372,152473,2,0,L|252:352,1,90.9999958343508,0|2,3:0|0:0,0:0:0:0:
216,176,152946,1,8,0:0:0:0:
156,288,153182,1,2,0:0:0:0:
320,240,153418,5,0,3:0:0:0:
128,200,153655,1,2,0:0:0:0:
316,128,153891,1,8,0:0:0:0:
184,48,154127,1,2,0:0:0:0:
60,143,154363,2,0,P|42:188|47:231,1,90.9999958343508,0|2,3:0|0:0,0:0:0:0:
140,368,154836,1,8,0:0:0:0:
215,254,155072,1,2,0:0:0:0:
28,352,155308,5,0,3:0:0:0:
128,200,155544,1,2,0:0:0:0:
296,271,155781,2,0,P|275:312|237:334,1,90.9999958343508,8|2,0:0|0:0,0:0:0:0:
315,102,156253,1,0,3:0:0:0:
215,254,156489,1,2,0:0:0:0:
46,182,156726,2,0,P|66:141|104:119,1,90.9999958343508,8|2,0:0|0:0,0:0:0:0:
237,334,157198,5,0,3:0:0:0:
128,200,157434,1,2,0:0:0:0:
120,380,157670,1,8,0:0:0:0:
232,228,157907,1,2,0:0:0:0:
400,240,158143,2,0,L|492:264,1,90.9999958343508,0|2,3:0|0:0,0:0:0:0:
392,376,158615,1,8,0:0:0:0:
316,292,158851,1,2,0:0:0:0:
426,69,159088,6,0,P|442:121|429:153,1,90.9999958343508,4|2,3:2|0:0,0:0:0:0:
316,292,159560,2,0,L|227:268,1,90.9999958343508,8|2,0:0|0:0,0:0:0:0:
194,89,160033,2,0,P|205:46|240:18,1,90.9999958343508,0|2,3:0|0:0,0:0:0:0:
384,232,160505,1,8,0:0:0:0:
288,100,160741,1,2,0:0:0:0:
472,140,160977,5,0,3:0:0:0:
376,8,161213,1,2,0:0:0:0:
288,200,161450,1,8,0:0:0:0:
443,60,161686,1,2,0:0:0:0:
292,16,161922,2,0,L|200:24,1,90.9999958343508,0|2,3:0|0:0,0:0:0:0:
36,148,162395,1,8,0:0:0:0:
168,136,162631,1,2,0:0:0:0:
44,24,162867,5,0,3:0:0:0:
108,200,163103,1,2,0:0:0:0:
201,22,163340,2,0,P|245:25|283:50,1,90.9999958343508,8|2,0:0|0:0,0:0:0:0:
284,280,163812,1,0,3:0:0:0:
220,104,164048,1,2,0:0:0:0:
127,281,164285,1,8,0:0:0:0:
132,116,164521,1,2,0:0:0:0:
208,208,164757,5,0,0:0:0:0:
220,104,165229,1,0,0:0:0:0:
232,0,165702,1,0,0:0:0:0:
408,0,166174,2,2,P|436:12|456:44,1,70,0|0,0:0|0:0,0:0:0:0:
384,188,166647,6,0,L|296:176,1,83.9999974365235,4|0,3:2|0:0,0:0:0:0:
172,152,167119,1,8,0:0:0:0:
60,88,167355,2,0,P|35:48|36:8,1,83.9999974365235,2|0,0:0|3:0,0:0:0:0:
68,200,167828,2,0,P|45:234|8:253,1,83.9999974365235,2|8,0:0|0:0,0:0:0:0:
60,88,168300,1,0,0:0:0:0:
200,64,168536,6,0,L|283:75,1,83.9999974365235,2|0,3:2|0:0,0:0:0:0:
412,196,169009,1,8,0:0:0:0:
384,64,169245,2,0,P|398:25|430:0,1,83.9999974365235,2|0,0:0|3:0,0:0:0:0:
495,208,169718,2,0,P|480:246|448:271,1,83.9999974365235,2|8,0:0|0:0,0:0:0:0:
312,304,170190,1,2,0:0:0:0:
120,208,170426,6,0,L|202:191,1,83.9999974365235,4|0,3:2|0:0,0:0:0:0:
360,232,170899,1,8,0:0:0:0:
279,379,171135,2,0,P|245:356|230:317,1,83.9999974365235,2|0,0:0|3:0,0:0:0:0:
202,191,171607,1,0,0:0:0:0:
160,376,171844,1,10,0:0:0:0:
312,304,172080,1,0,0:0:0:0:
112,268,172316,5,2,3:2:0:0:
184,116,172552,1,2,0:0:0:0:
220,280,172788,1,8,0:0:0:0:
84,380,173025,2,0,P|38:382|3:362,1,83.9999974365235,2|0,0:0|3:0,0:0:0:0:
88,183,173497,2,0,P|129:180|166:199,2,83.9999974365235,2|8|0,0:0|0:0|0:0,0:0:0:0:
220,280,174206,6,0,P|249:251|262:212,1,83.9999974365235,4|0,3:2|0:0,0:0:0:0:
236,72,174678,1,8,0:0:0:0:
104,20,174914,2,0,L|12:28,1,83.9999974365235,2|0,0:0|3:0,0:0:0:0:
88,160,175387,2,0,L|171:152,1,83.9999974365235,2|8,0:0|0:0,0:0:0:0:
296,132,175859,1,0,0:0:0:0:
452,180,176096,6,0,P|472:220|472:260,1,83.9999974365235,2|0,3:2|0:0,0:0:0:0:
316,368,176568,1,8,0:0:0:0:
281,214,176804,2,0,L|297:122,1,83.9999974365235,2|0,0:0|3:0,0:0:0:0:
400,296,177277,2,0,L|416:388,1,83.9999974365235,2|8,0:0|0:0,0:0:0:0:
388,180,177749,1,0,0:0:0:0:
295,319,177985,6,0,P|253:319|216:299,1,83.9999974365235,4|0,3:2|0:0,0:0:0:0:
144,132,178458,1,8,0:0:0:0:
320,32,178694,2,0,P|331:71|326:115,1,83.9999974365235,2|0,0:0|3:0,0:0:0:0:
275,239,179166,1,0,0:0:0:0:
240,80,179403,1,10,0:0:0:0:
189,206,179639,1,0,0:0:0:0:
326,113,179875,5,2,3:2:0:0:
144,132,180111,1,2,0:0:0:0:
152,316,180348,1,8,0:0:0:0:
333,297,180584,2,0,P|355:261|355:220,1,83.9999974365235,2|0,0:0|3:0,0:0:0:0:
189,206,181056,1,2,0:0:0:0:
326,113,181292,1,8,0:0:0:0:
204,28,181529,1,2,0:0:0:0:
35,195,181765,6,0,P|63:217|97:225,1,70,4|0,0:0|0:0,0:0:0:0:
189,206,182237,1,0,0:0:0:0:
128,88,182473,1,2,0:0:0:0:
128,88,182946,2,0,P|104:60|172:32,1,140,2|0,0:0|0:0,0:0:0:0:
276,184,183655,5,2,0:0:0:0:
196,272,183891,1,0,0:0:0:0:
168,160,184127,1,0,0:0:0:0:
304,288,184363,1,2,0:0:0:0:
464,96,184836,2,0,P|503:151|496:219,1,140
456,324,185544,6,0,P|421:333|388:333,1,70,4|0,0:0|0:0,0:0:0:0:
304,288,186017,1,0,0:0:0:0:
411,175,186253,1,2,0:0:0:0:
411,175,186725,1,0,0:0:0:0:
268,200,186962,1,2,0:0:0:0:
324,104,187198,1,0,0:0:0:0:
360,256,187434,5,2,0:0:0:0:
408,92,187670,1,2,0:0:0:0:
276,36,187907,1,0,0:0:0:0:
207,175,188143,2,0,P|270:203|335:180,1,140,2|2,0:0|0:0,0:0:0:0:
408,92,188851,2,0,L|412:52,2,35,0|2|0,0:0|0:0|0:0,0:0:0:0:
412,260,189324,6,0,P|449:246|476:220,1,70,4|0,0:0|0:0,0:0:0:0:
488,136,189796,1,0,0:0:0:0:
335,180,190033,1,2,0:0:0:0:
335,180,190505,2,0,P|264:180|280:128,1,140,2|0,0:0|0:0,0:0:0:0:
411,57,191214,5,2,0:0:0:0:
488,136,191450,1,0,0:0:0:0:
384,252,191686,1,2,0:0:0:0:
345,102,191922,1,2,0:0:0:0:
240,287,192395,2,0,P|174:269|144:209,1,140
124,72,193103,6,0,P|99:96|82:127,1,70,4|0,0:0|0:0,0:0:0:0:
64,228,193576,1,0,0:0:0:0:
226,206,193812,1,2,0:0:0:0:
226,206,194285,1,0,0:0:0:0:
184,348,194521,1,2,0:0:0:0:
148,260,194757,1,0,0:0:0:0:
316,176,194993,5,2,0:0:0:0:
232,284,195229,1,2,0:0:0:0:
156,188,195466,1,0,0:0:0:0:
296,91,195702,2,0,P|401:160|322:262,1,280,2|0,0:0|0:0,0:0:0:0:
