osu file format v14

[General]
AudioFilename: audio.mp3
AudioLeadIn: 0
PreviewTime: 60033
Countdown: 0
SampleSet: Soft
StackLeniency: 0.5
Mode: 0
LetterboxInBreaks: 0
WidescreenStoryboard: 0

[Editor]
Bookmarks: 7907,13576,90111
DistanceSpacing: 1.2
BeatDivisor: 4
GridSize: 4
TimelineZoom: 1.6

[Metadata]
Title:Yellow
TitleUnicode:Yellow
Artist:Sharlo
ArtistUnicode:Sharlo
Creator:Zero__wind
Version:Normal
Source:初音ミク -Project DIVA- 2nd
Tags:vocaloid livetune kz Hatsune Miku thzz
BeatmapID:1137260
BeatmapSetID:519335

[Difficulty]
HPDrainRate:4
CircleSize:3.5
OverallDifficulty:4
ApproachRate:5
SliderMultiplier:1.3
SliderTickRate:2

[Events]
//Background and Video events
0,0,"bg.jpg",0,0
//Break Periods
2,106374,120092
//Storyboard Layer 0 (Background)
//Storyboard Layer 1 (Fail)
//Storyboard Layer 2 (Pass)
//Storyboard Layer 3 (Foreground)
//Storyboard Sound Samples

[TimingPoints]
348,472.44094488189,4,2,1,60,1,0
348,-100,4,2,1,60,0,0
584,-100,4,2,1,50,0,0
4127,-100,4,2,1,40,0,0
4363,-100,4,2,1,50,0,0
7907,-100,4,2,1,70,0,0
8143,-100,4,2,1,60,0,0
11686,-100,4,2,1,50,0,0
11922,-100,4,2,1,60,0,0
15466,-100,4,2,1,70,0,0
30584,-100,4,2,1,60,0,0
58930,-100,4,2,1,70,0,0
60820,-100,4,2,1,70,0,1
75938,-100,4,2,1,70,0,0
79245,-100,4,2,1,60,0,0
79718,-100,4,2,1,70,0,0
79796,-100,4,2,1,30,0,0
80190,-100,4,2,1,40,0,0
80662,-100,4,2,1,50,0,0
81135,-100,4,2,1,60,0,0
81607,-100,4,2,1,70,0,0
83497,-100,4,2,1,60,0,0
91056,-100,4,2,1,70,0,1
106174,-100,4,2,1,70,0,0
121529,-100,4,2,1,60,0,0
125072,-100,4,2,1,70,0,0
125308,-100,4,2,1,60,0,0
132631,-100,4,2,1,50,0,0
134521,-100,4,2,1,60,0,0
135466,-100,4,2,1,70,0,0
136410,-100,4,2,1,70,0,1
164757,-100,4,2,1,60,0,0
166647,-100,4,2,1,70,0,0
181765,-100,4,2,1,60,0,0
182001,-100,4,2,1,50,0,0
185544,-100,4,2,1,40,0,0
185781,-100,4,2,1,50,0,0
189324,-100,4,2,1,40,0,0
189560,-100,4,2,1,50,0,0
193103,-100,4,2,1,40,0,0
193340,-100,4,2,1,50,0,0
195702,-100,4,2,1,50,0,0
195820,-100,4,2,1,5,0,0

[Colours]
Combo1 : 249,190,142
Combo2 : 255,221,130

[HitObjects]
148,252,348,6,0,P|212:280|272:260,1,130,4|2,0:0|0:0,0:0:0:0:
312,200,1056,1,2,0:0:0:0:
236,64,1529,2,0,L|160:72,2,65,2|0|0,0:0|0:0|0:0,0:0:0:0:
312,60,2237,6,0,L|388:68,1,65,2|0,0:0|0:0,0:0:0:0:
452,84,2710,1,2,0:0:0:0:
508,136,2946,2,0,P|524:212|500:260,1,130,2|2,0:0|0:0,0:0:0:0:
436,296,3655,1,0,0:0:0:0:
284,268,4127,6,0,L|148:280,1,130,4|2,0:0|0:0,0:0:0:0:
80,300,4836,1,2,0:0:0:0:
168,171,5308,2,0,P|175:140|172:108,2,65,2|2|0,0:0|0:0|0:0,0:0:0:0:
100,136,6017,5,2,0:0:0:0:
116,58,6253,2,0,P|142:39|174:32,1,65,2|2,0:0|0:0,0:0:0:0:
252,36,6725,2,0,L|392:60,1,130,2|2,0:0|0:0,0:0:0:0:
456,80,7434,1,0,0:0:0:0:
440,236,7907,6,0,L|432:308,2,65,4|0|2,3:2|0:0|3:2,0:0:0:0:
484,172,8615,1,2,0:0:0:0:
344,244,9088,2,0,P|312:240|280:220,1,65,2|0,0:0|3:0,0:0:0:0:
236,164,9560,1,2,0:0:0:0:
211,91,9796,6,0,L|219:23,2,65,2|0|2,3:2|0:0|3:2,0:0:0:0:
160,148,10505,2,0,P|100:172|41:142,1,130,2|2,0:0|0:0,0:0:0:0:
104,92,11214,1,0,3:0:0:0:
116,248,11686,6,0,L|104:324,2,65,4|0|2,3:2|0:0|3:2,0:0:0:0:
160,184,12395,1,2,0:0:0:0:
307,236,12867,1,2,0:0:0:0:
384,240,13103,2,0,L|452:232,1,65,2|0,3:2|0:0,0:0:0:0:
508,184,13576,6,0,P|517:146|508:112,1,65,2|2,3:2|3:2,0:0:0:0:
476,52,14048,1,2,1:2:0:0:
400,36,14285,2,0,L|264:28,1,130,2|2,3:2|1:2,0:0:0:0:
192,28,14993,1,8,1:0:0:0:
88,144,15466,5,4,3:2:0:0:
136,292,15938,1,8,0:0:0:0:
204,256,16174,2,0,P|276:236|340:260,1,130,2|2,0:0|0:0,0:0:0:0:
392,296,16883,1,8,0:0:0:0:
392,140,17355,6,0,L|396:76,1,65,2|0,3:2|0:0,0:0:0:0:
441,12,17828,1,10,0:0:0:0:
500,64,18064,2,0,L|491:204,1,130,2|0,0:0|0:0,0:0:0:0:
448,256,18773,1,8,0:0:0:0:
304,192,19245,5,4,3:2:0:0:
156,240,19718,1,8,0:0:0:0:
191,309,19954,2,0,P|255:310|306:270,1,130,2|0,0:0|0:0,0:0:0:0:
304,192,20662,2,0,L|300:112,1,65,10|0,0:0|0:0,0:0:0:0:
288,48,21135,5,2,3:2:0:0:
212,72,21371,2,0,P|173:68|148:52,1,65,2|10,0:0|0:0,0:0:0:0:
80,20,21844,2,0,L|60:176,1,130,2|2,0:0|0:0,0:0:0:0:
56,228,22552,1,8,0:0:0:0:
148,352,23025,6,0,P|217:349|268:307,1,130,4|8,3:2|0:0,0:0:0:0:
272,236,23733,2,0,P|248:176|278:117,1,130,2|2,0:0|0:0,0:0:0:0:
328,180,24442,1,8,0:0:0:0:
183,240,24914,6,0,P|151:237|122:224,2,65,2|0|8,3:2|0:0|0:0,0:0:0:0:
170,164,25623,2,0,P|188:100|164:40,1,130,2|0,0:0|0:0,0:0:0:0:
89,24,26332,1,8,0:0:0:0:
21,167,26804,6,0,P|3:228|25:288,1,130,4|8,3:2|0:0,0:0:0:0:
100,316,27513,2,0,L|232:336,1,130,2|0,0:0|0:0,0:0:0:0:
307,348,28222,2,0,P|347:336|367:320,1,65,10|0,0:0|0:0,0:0:0:0:
400,252,28694,5,2,3:2:0:0:
404,176,28930,2,0,L|400:112,1,65,2|10,0:0|0:0,0:0:0:0:
360,43,29403,2,0,L|302:14,2,65,2|0|0,0:0|3:0|3:0,0:0:0:0:
438,43,30111,1,8,0:0:0:0:
512,184,30584,5,4,3:2:0:0:
444,324,31056,2,0,P|368:352|316:336,2,130,8|0|8,0:0|3:0|0:0,0:0:0:0:
432,168,32473,6,0,P|396:152|364:156,1,65,0|2,3:0|0:0,0:0:0:0:
292,168,32946,1,8,0:0:0:0:
236,224,33182,2,0,P|212:164|242:105,1,130,2|2,0:0|0:0,0:0:0:0:
304,64,33891,1,8,0:0:0:0:
460,84,34363,5,0,3:0:0:0:
504,148,34599,2,0,P|514:182|508:216,2,65,2|8|2,0:0|0:0|0:0,0:0:0:0:
388,252,35544,2,0,P|378:286|384:320,2,65,2|8|2,0:0|0:0|0:0,0:0:0:0:
292,128,36489,6,0,P|266:147|234:154,1,65,2|8,0:0|0:0,0:0:0:0:
160,136,36962,2,0,P|88:148|44:216,1,130,2|2,0:0|0:0,0:0:0:0:
36,264,37670,1,8,0:0:0:0:
156,364,38143,5,4,3:2:0:0:
300,308,38615,2,0,P|376:312|428:360,2,130,8|0|8,0:0|3:0|0:0,0:0:0:0:
164,228,40033,6,0,P|165:175|177:149,1,65,0|2,3:0|0:0,0:0:0:0:
216,100,40505,1,8,0:0:0:0:
292,88,40741,2,0,L|428:112,1,130,2|2,0:0|0:0,0:0:0:0:
417,190,41450,2,0,L|352:178,1,65,8|2,0:0|0:0,0:0:0:0:
196,188,42159,6,0,L|184:256,1,65,2|8,0:0|0:0,0:0:0:0:
160,328,42631,2,0,P|100:352|41:322,1,130,2|2,0:0|0:0,0:0:0:0:
24,252,43340,1,8,0:0:0:0:
44,96,43812,6,0,L|55:31,2,65,0|2|8,3:0|0:0|0:0,0:0:0:0:
96,156,44521,2,0,L|232:144,1,130,2|2,0:0|0:0,0:0:0:0:
304,136,45229,2,0,L|372:141,1,65,8|0,0:0|0:0,0:0:0:0:
448,152,45702,5,4,3:2:0:0:
432,308,46174,2,0,L|416:376,1,65,8|2,0:0|0:0,0:0:0:0:
337,371,46647,2,0,L|366:244,1,130,0|8,3:0|0:0,0:0:0:0:
392,92,47592,6,0,P|388:54|372:28,1,65,0|2,3:0|0:0,0:0:0:0:
300,4,48064,1,8,0:0:0:0:
244,56,48300,2,0,P|176:80|116:36,1,130,2|2,0:0|0:0,0:0:0:0:
56,16,49009,1,8,0:0:0:0:
20,168,49481,5,4,3:2:0:0:
28,244,49718,2,0,P|47:269|76:283,2,65,0|8|2,0:0|0:0|0:0,0:0:0:0:
152,148,50662,2,0,P|193:156|212:173,2,65,0|8|2,0:0|0:0|0:0,0:0:0:0:
220,288,51607,6,0,P|251:284|278:265,1,65,2|8,0:0|0:0,0:0:0:0:
324,204,52080,2,0,P|340:120|312:72,1,130,2|2,0:0|0:0,0:0:0:0:
260,36,52788,1,8,0:0:0:0:
152,148,53261,5,4,3:2:0:0:
172,304,53733,2,0,P|204:332|228:336,1,65,8|2,0:0|0:0,0:0:0:0:
301,352,54206,2,0,L|437:356,1,130,0|8,3:0|0:0,0:0:0:0:
508,271,55151,6,0,P|515:240|505:210,2,65,0|2|8,3:2|0:0|0:0,0:0:0:0:
436,244,55859,1,2,0:0:0:0:
416,88,56332,2,0,P|439:65|470:59,2,65,2|8|2,0:0|0:0|0:0,0:0:0:0:
324,212,57277,6,0,P|291:213|263:198,1,65,2|8,0:0|0:0,0:0:0:0:
208,144,57749,2,0,P|200:96|248:32,1,130,2|2,0:0|0:0,0:0:0:0:
320,8,58458,2,0,P|352:6|380:21,1,65,8|2,0:0|0:0,0:0:0:0:
444,68,58930,5,0,3:0:0:0:
452,144,59166,2,0,L|448:216,1,65,0|4,3:0|1:2,0:0:0:0:
428,284,59639,1,0,3:0:0:0:
288,356,60111,1,0,3:0:0:0:
232,303,60348,2,0,P|195:299|163:309,1,65,0|0,1:0|0:0,0:0:0:0:
96,336,60820,5,4,3:2:0:0:
176,200,61292,1,8,0:0:0:0:
75,79,61765,1,0,3:0:0:0:
229,52,62237,2,0,L|304:60,1,65,8|2,0:0|0:0,0:0:0:0:
368,84,62710,6,0,P|386:118|386:148,1,65,0|2,3:0|0:0,0:0:0:0:
376,220,63182,2,0,P|355:252|329:267,1,65,8|2,0:0|0:0,0:0:0:0:
262,294,63655,1,0,3:0:0:0:
108,300,64127,2,0,L|40:292,1,65,8|2,0:0|0:0,0:0:0:0:
56,216,64599,6,0,L|120:223,2,65,0|2|8,3:0|0:0|0:0,0:0:0:0:
112,72,65544,2,0,L|176:64,2,65,0|2|8,3:0|0:0|0:0,0:0:0:0:
168,216,66489,6,0,L|232:223,1,65,0|2,3:0|0:0,0:0:0:0:
312,224,66962,2,0,L|376:217,1,65,8|2,0:0|0:0,0:0:0:0:
452,196,67434,2,0,P|484:136|456:56,1,130,0|8,3:0|0:0,0:0:0:0:
424,16,68143,1,2,0:0:0:0:
424,16,68379,5,4,3:2:0:0:
292,96,68851,1,8,0:0:0:0:
160,16,69324,1,0,3:0:0:0:
156,172,69796,2,0,P|173:199|202:220,1,65,8|2,0:0|0:0,0:0:0:0:
276,232,70269,6,0,L|344:236,1,65,0|2,3:0|0:0,0:0:0:0:
336,314,70741,2,0,L|271:310,1,65,8|2,0:0|0:0,0:0:0:0:
195,297,71214,1,0,3:0:0:0:
40,280,71686,2,0,P|18:304|5:333,1,65,8|2,0:0|0:0,0:0:0:0:
84,345,72159,6,0,P|108:366|137:379,2,65,0|2|8,3:0|0:0|0:0,0:0:0:0:
156,204,73103,2,0,P|180:182|210:169,2,65,0|2|8,3:0|0:0|0:0,0:0:0:0:
221,247,73812,1,2,0:0:0:0:
284,204,74048,6,0,P|289:140|246:94,1,130,0|8,3:0|0:0,0:0:0:0:
90,94,74993,2,0,P|47:140|52:204,1,130,0|8,3:0|0:0,0:0:0:0:
168,308,75938,5,4,3:2:0:0:
392,236,76647,1,4,3:2:0:0:
168,104,77828,5,4,3:2:0:0:
392,32,78537,1,4,0:0:0:0:
460,256,79245,2,0,P|432:288|408:300,1,65,0|2,3:0|0:0,0:0:0:0:
336,308,79718,5,4,3:2:0:0:
256,192,79954,12,4,83497,3:2:0:0:
128,272,84442,6,0,P|120:207|147:148,1,130,0|8,3:0|0:0,0:0:0:0:
264,48,85387,2,0,L|328:56,1,65,0|2,3:0|0:0,0:0:0:0:
404,76,85859,1,8,0:0:0:0:
484,80,86096,2,0,P|510:138|502:202,1,130,2|2,0:0|0:0,0:0:0:0:
448,256,86804,2,0,L|384:264,1,65,8|2,0:0|0:0,0:0:0:0:
228,284,87513,6,0,L|220:352,2,65,2|8|2,0:0|0:0|0:0,0:0:0:0:
268,132,88458,2,0,L|260:64,1,65,2|8,0:0|0:0,0:0:0:0:
192,32,88930,2,0,P|120:48|64:20,1,130,2|0,0:0|3:0,0:0:0:0:
44,100,89639,2,0,L|36:168,1,65,4|0,1:2|3:0,0:0:0:0:
56,320,90348,1,4,0:0:0:0:
132,344,90584,2,0,P|164:344|196:332,1,65,0|4,1:0|0:0,0:0:0:0:
248,276,91056,5,4,3:2:0:0:
160,148,91529,1,8,0:0:0:0:
260,28,92001,2,0,P|324:4|384:28,1,130,0|8,3:0|0:0,0:0:0:0:
440,76,92710,1,2,0:0:0:0:
456,152,92946,6,0,L|452:220,1,65,0|2,3:0|0:0,0:0:0:0:
428,292,93418,2,0,L|377:337,2,65,8|2|0,0:0|0:0|3:0,0:0:0:0:
356,156,94363,2,0,P|321:146|292:150,1,65,8|2,0:0|0:0,0:0:0:0:
216,168,94836,6,0,L|152:180,1,65,0|2,3:0|0:0,0:0:0:0:
76,199,95308,1,8,0:0:0:0:
116,348,95781,2,0,L|180:336,1,65,0|2,3:0|0:0,0:0:0:0:
256,317,96253,1,8,0:0:0:0:
412,308,96725,6,0,P|448:324|464:344,2,65,0|2|8,3:0|0:0|0:0,0:0:0:0:
344,268,97434,1,2,0:0:0:0:
292,208,97670,2,0,P|268:148|298:89,1,130,0|8,3:0|0:0,0:0:0:0:
348,152,98379,1,2,0:0:0:0:
348,152,98615,5,4,3:2:0:0:
208,228,99088,1,8,0:0:0:0:
68,151,99560,2,0,P|40:209|54:272,1,130,0|8,3:0|0:0,0:0:0:0:
124,304,100269,1,2,0:0:0:0:
200,308,100505,6,0,P|232:304|260:289,1,65,0|2,3:0|0:0,0:0:0:0:
316,232,100977,2,0,P|348:235|376:250,1,65,8|2,0:0|0:0,0:0:0:0:
431,308,101450,1,0,3:0:0:0:
400,152,101922,2,0,P|400:112|412:84,1,65,8|2,0:0|0:0,0:0:0:0:
487,89,102395,6,0,P|497:119|496:152,1,65,0|2,3:0|0:0,0:0:0:0:
448,212,102867,1,8,0:0:0:0:
300,168,103340,2,0,P|264:160|236:164,1,65,0|2,3:0|0:0,0:0:0:0:
160,180,103812,2,0,P|135:207|124:233,1,65,8|2,0:0|0:0,0:0:0:0:
68,284,104285,6,0,P|124:312|184:284,2,130,0|8|0,3:0|0:0|3:0,0:0:0:0:
4,144,105702,2,0,L|12:76,1,65,8|2,0:0|0:0,0:0:0:0:
52,12,106174,1,4,0:0:0:0:
460,340,121292,5,4,3:2:0:0:
336,240,121765,1,0,3:0:0:0:
256,376,122237,1,0,3:0:0:0:
176,240,122710,1,0,3:0:0:0:
52,340,123182,5,0,3:0:0:0:
0,192,123655,1,0,3:0:0:0:
52,44,124127,1,0,3:0:0:0:
176,144,124599,1,0,3:0:0:0:
336,144,125072,5,4,3:2:0:0:
400,4,125544,1,0,3:0:0:0:
512,112,126017,1,0,3:0:0:0:
512,272,126489,1,0,3:0:0:0:
400,380,126962,5,0,3:0:0:0:
336,240,127434,1,0,3:0:0:0:
176,240,127907,1,0,3:0:0:0:
256,108,128379,1,0,3:0:0:0:
256,264,128851,5,4,3:2:0:0:
120,344,129324,2,0,L|56:360,2,65,0|0|0,3:0|3:0|3:0,0:0:0:0:
92,192,130269,2,0,L|28:192,2,65,0|0|0,3:0|3:0|3:0,0:0:0:0:
120,40,131214,2,0,L|56:24,2,65,0|0|0,3:0|3:0|3:0,0:0:0:0:
256,120,132159,1,0,3:0:0:0:
256,192,132631,12,4,135466,0:0:0:0:
348,96,136410,5,4,3:2:0:0:
420,236,136883,1,8,0:0:0:0:
284,312,137355,2,0,P|222:279|153:296,1,130,0|8,3:0|0:0,0:0:0:0:
88,284,138064,1,2,0:0:0:0:
20,320,138300,6,0,L|0:384,2,65,0|2|8,3:0|0:0|0:0,0:0:0:0:
104,188,139245,1,0,3:0:0:0:
96,32,139718,2,0,P|60:23|28:28,1,65,8|2,0:0|0:0,0:0:0:0:
20,104,140190,6,0,P|56:113|88:108,1,65,0|2,3:0|0:0,0:0:0:0:
156,82,140662,1,8,0:0:0:0:
300,20,141135,2,0,P|336:11|368:16,1,65,0|2,3:0|0:0,0:0:0:0:
436,42,141607,1,8,0:0:0:0:
432,200,142080,6,0,L|424:264,1,65,0|2,3:0|0:0,0:0:0:0:
504,272,142552,2,0,L|511:207,1,65,8|2,0:0|0:0,0:0:0:0:
475,135,143025,2,0,P|414:122|364:160,1,130,0|8,3:0|0:0,0:0:0:0:
344,236,143733,1,2,0:0:0:0:
344,236,143970,5,4,3:2:0:0:
220,332,144442,1,8,0:0:0:0:
116,216,144914,1,0,3:0:0:0:
240,120,145387,2,0,P|268:98|279:68,1,65,8|2,0:0|0:0,0:0:0:0:
222,17,145859,6,0,P|189:3|157:8,1,65,0|2,3:0|0:0,0:0:0:0:
141,82,146332,2,0,P|145:117|165:142,2,65,8|2|0,0:0|0:0|3:0,0:0:0:0:
296,64,147277,2,0,L|368:68,1,65,8|2,0:0|0:0,0:0:0:0:
436,84,147749,6,0,P|476:104|492:124,1,65,0|2,3:0|0:0,0:0:0:0:
512,192,148222,1,8,0:0:0:0:
400,300,148694,2,0,P|360:280|344:260,1,65,0|2,3:0|0:0,0:0:0:0:
324,192,149167,1,8,0:0:0:0:
380,48,149639,5,0,3:0:0:0:
436,192,150111,1,8,0:0:0:0:
380,336,150584,1,0,3:0:0:0:
305,360,150820,2,0,L|241:376,2,65,8|8|2,0:1|0:1|0:0,0:0:0:0:
320,283,151529,6,0,P|330:219|302:162,1,130,4|8,3:2|0:0,0:0:0:0:
148,180,152473,2,0,P|137:243|165:300,1,130,0|8,3:0|0:0,0:0:0:0:
228,348,153182,1,2,0:0:0:0:
305,360,153418,6,0,P|341:363|369:356,1,65,0|2,3:0|0:0,0:0:0:0:
436,316,153891,2,0,P|448:281|448:253,1,65,8|2,0:0|0:0,0:0:0:0:
427,178,154363,1,0,3:0:0:0:
340,52,154836,2,0,L|276:36,1,65,8|2,0:0|0:0,0:0:0:0:
200,24,155308,6,0,L|136:40,2,65,0|2|8,3:0|0:0|0:0,0:0:0:0:
248,172,156253,2,0,L|184:188,2,65,0|2|8,3:0|0:0|0:0,0:0:0:0:
296,320,157198,6,0,L|232:336,1,65,0|2,3:0|0:0,0:0:0:0:
155,335,157670,2,0,L|91:319,1,65,8|2,0:0|0:0,0:0:0:0:
44,260,158143,2,0,P|36:188|76:136,1,130,0|8,3:0|0:0,0:0:0:0:
128,92,158851,1,2,0:0:0:0:
128,92,159088,5,4,3:2:0:0:
268,164,159560,1,8,0:0:0:0:
408,92,160033,2,0,P|432:150|417:213,1,130,0|8,3:0|0:0,0:0:0:0:
360,268,160741,1,2,0:0:0:0:
286,295,160977,6,0,L|218:299,1,65,0|2,3:0|0:0,0:0:0:0:
163,245,161450,2,0,L|193:183,1,65,8|2,0:0|0:0,0:0:0:0:
268,164,161922,1,0,3:0:0:0:
412,228,162395,2,0,P|442:239|474:239,1,65,8|2,0:0|0:0,0:0:0:0:
456,164,162867,6,0,P|425:152|393:152,1,65,0|2,3:0|0:0,0:0:0:0:
336,208,163340,1,8,0:0:0:0:
248,336,163812,2,0,P|217:347|185:347,1,65,0|2,3:0|0:0,0:0:0:0:
130,290,164285,2,0,P|129:257|139:226,1,65,8|2,0:0|0:0,0:0:0:0:
204,272,164757,5,0,0:0:0:0:
64,344,165229,1,0,0:0:0:0:
16,192,165702,1,0,0:0:0:0:
64,40,166174,1,0,0:0:0:0:
204,112,166647,5,4,3:2:0:0:
256,192,166883,12,4,170426,3:2:0:0:
188,56,172316,6,0,L|124:72,1,65,2|2,3:2|0:0,0:0:0:0:
68,124,172788,1,8,0:0:0:0:
80,200,173025,2,0,P|140:224|201:203,1,130,2|2,0:0|0:0,0:0:0:0:
248,144,173733,1,8,0:0:0:0:
400,104,174206,5,4,3:2:0:0:
504,220,174678,1,8,0:0:0:0:
504,296,174914,2,0,P|472:356|408:372,1,130,2|2,0:0|0:0,0:0:0:0:
340,356,175623,1,8,0:0:0:0:
184,332,176096,6,0,L|120:344,2,65,2|0|8,3:2|0:0|0:0,0:0:0:0:
248,288,176804,2,0,P|272:216|248:164,1,130,2|0,0:0|0:0,0:0:0:0:
188,124,177513,1,8,0:0:0:0:
48,192,177985,6,0,P|24:252|54:311,1,130,4|8,3:2|0:0,0:0:0:0:
104,248,178694,1,2,0:0:0:0:
256,224,179166,1,0,0:0:0:0:
332,244,179403,2,0,L|400:260,1,65,10|0,0:0|0:0,0:0:0:0:
472,248,179875,6,0,P|470:280|455:308,2,65,2|2|8,3:2|0:0|0:0,0:0:0:0:
428,184,180584,2,0,L|301:154,1,130,2|2,0:0|0:0,0:0:0:0:
224,152,181292,1,8,0:0:0:0:
144,288,181765,6,0,P|72:304|28:276,1,130,4|0,0:0|0:0,0:0:0:0:
8,200,182473,1,2,0:0:0:0:
92,68,182946,2,0,P|97:31|89:6,2,65,2|0|0,0:0|0:0|0:0,0:0:0:0:
63,139,183655,6,0,P|95:145|126:136,1,65,2|0,0:0|0:0,0:0:0:0:
184,84,184127,1,0,0:0:0:0:
248,40,184363,2,0,L|396:64,1,130,2|0,0:0|0:0,0:0:0:0:
452,80,185072,1,0,0:0:0:0:
508,224,185544,5,4,0:0:0:0:
416,352,186017,2,0,L|351:341,1,65,0|2,0:0|0:0,0:0:0:0:
224,252,186725,1,0,0:0:0:0:
196,180,186962,2,0,P|192:136|204:108,1,65,2|0,0:0|0:0,0:0:0:0:
212,40,187434,6,0,P|236:19|267:10,2,65,2|2|0,0:0|0:0|0:0,0:0:0:0:
272,88,188143,2,0,P|322:125|384:109,1,130,2|2,0:0|0:0,0:0:0:0:
338,46,188852,1,0,0:0:0:0:
256,180,189324,6,0,P|248:244|292:293,1,130,4|0,0:0|0:0,0:0:0:0:
364,300,190033,1,2,0:0:0:0:
500,223,190505,2,0,P|510:193|505:162,2,65,2|0|0,0:0|0:0|0:0,0:0:0:0:
432,188,191214,6,0,L|364:176,1,65,2|0,0:0|0:0,0:0:0:0:
304,136,191686,1,0,0:0:0:0:
256,73,191922,2,0,P|224:128|244:188,1,130,2|0,0:0|0:0,0:0:0:0:
292,248,192631,1,0,0:0:0:0:
168,340,193103,5,4,0:0:0:0:
32,260,193576,2,0,L|40:196,1,65,0|2,0:0|0:0,0:0:0:0:
92,48,194285,1,0,0:0:0:0:
168,64,194521,2,0,L|240:76,1,65,2|0,0:0|0:0,0:0:0:0:
310,74,194993,6,0,L|382:62,1,65,2|2,0:0|0:0,0:0:0:0:
452,52,195466,1,0,0:0:0:0:
508,108,195702,2,0,B|554:213|503:237|495:269|435:273|395:257|403:233|387:197|403:181|415:165|445:176,1,325,2|0,0:0|0:0,0:0:0:0:
