osu file format v14

[General]
AudioFilename: audio.mp3
AudioLeadIn: 0
PreviewTime: 60534
Countdown: 0
SampleSet: Soft
StackLeniency: 0.7
Mode: 0
LetterboxInBreaks: 0
WidescreenStoryboard: 1

[Editor]
Bookmarks: 42398,61180,92485,130050
DistanceSpacing: 1.2
BeatDivisor: 4
GridSize: 4
TimelineZoom: 1

[Metadata]
Title:Xue Mao Jiao
TitleUnicode:学猫叫
Artist:Sharlo
ArtistUnicode:夏萝
Creator:Mimiliaa
Version:Wo Shi Mao
Source:
Tags:Chinese Cover Pop Cat 小潘潘 小峰峰 learning how to meow Xiao Pan Pan Xiao Feng Feng Mimilie Suzuhara Lulu Hitsukuya Hojo Karen Muziyami Sharlo MeAqua tete Present AngelSnow sinn
BeatmapID:3801649
BeatmapSetID:1850594

[Difficulty]
HPDrainRate:5
CircleSize:4
OverallDifficulty:7
ApproachRate:8.2
SliderMultiplier:1.44
SliderTickRate:1

[Events]
//Background and Video events
0,0,"Konachan.com - 331619 akamoku animal_ears aqua_hair bed blush breast_hold breasts catgirl cleavage hololive long_hair pointed_ears shirt signed yellow_eyes yukihana_lamy.jpg",0,0
//Break Periods
//Storyboard Layer 0 (Background)
//Storyboard Layer 1 (Fail)
//Storyboard Layer 2 (Pass)
//Storyboard Layer 3 (Foreground)
//Storyboard Layer 4 (Overlay)
//Storyboard Sound Samples

[TimingPoints]
665,521.739130434783,4,2,1,40,1,0
11099,-71.4285714285714,4,2,1,40,0,0
11230,-71.4285714285714,4,2,1,5,0,0
11361,-71.4285714285714,4,2,1,40,0,0
11491,-71.4285714285714,4,2,1,5,0,0
11622,-71.4285714285714,4,2,1,40,0,0
11751,-71.4285714285714,4,2,1,5,0,0
11882,-71.4285714285714,4,2,1,40,0,0
12012,-71.4285714285714,4,2,1,5,0,0
12143,-71.4285714285714,4,2,1,40,0,0
13186,-100,4,2,1,40,0,0
15273,-71.4285714285714,4,2,1,40,0,0
15404,-71.4285714285714,4,2,1,5,0,0
15535,-71.4285714285714,4,2,1,40,0,0
15665,-71.4285714285714,4,2,1,5,0,0
15796,-71.4285714285714,4,2,1,40,0,0
15925,-71.4285714285714,4,2,1,5,0,0
16056,-71.4285714285714,4,2,1,40,0,0
16186,-71.4285714285714,4,2,1,5,0,0
16317,-71.4285714285714,4,2,1,40,0,0
17360,-100,4,2,1,40,0,0
23230,-100,4,2,1,5,0,0
23360,-100,4,2,1,40,0,0
23491,-100,4,2,1,5,0,0
23621,-100,4,2,1,40,0,0
25708,-90.9090909090909,4,2,1,50,0,0
48795,-90.9090909090909,4,2,1,5,0,0
48925,-90.9090909090909,4,2,1,50,0,0
49056,-90.9090909090909,4,2,1,5,0,0
49186,-90.9090909090909,4,2,1,50,0,0
49317,-90.9090909090909,4,2,1,5,0,0
49447,-90.9090909090909,4,2,1,50,0,0
61186,-83.3333333333333,4,2,1,60,0,1
63273,-71.4285714285714,4,2,1,60,0,1
63404,-71.4285714285714,4,2,1,5,0,1
63535,-71.4285714285714,4,2,1,60,0,1
63665,-71.4285714285714,4,2,1,5,0,1
63796,-71.4285714285714,4,2,1,60,0,1
63925,-71.4285714285714,4,2,1,5,0,1
64056,-71.4285714285714,4,2,1,60,0,1
64186,-71.4285714285714,4,2,1,5,0,1
64317,-71.4285714285714,4,2,1,60,0,1
65360,-83.3333333333333,4,2,1,60,0,1
67447,-71.4285714285714,4,2,1,60,0,1
67578,-71.4285714285714,4,2,1,5,0,1
67709,-71.4285714285714,4,2,1,60,0,1
67838,-71.4285714285714,4,2,1,5,0,1
67969,-71.4285714285714,4,2,1,60,0,1
68099,-71.4285714285714,4,2,1,5,0,1
68230,-71.4285714285714,4,2,1,60,0,1
68360,-71.4285714285714,4,2,1,5,0,1
68491,-71.4285714285714,4,2,1,60,0,1
69534,-83.3333333333333,4,2,1,60,0,1
79969,-71.4285714285714,4,2,1,60,0,1
80099,-71.4285714285714,4,2,1,5,0,1
80230,-71.4285714285714,4,2,1,60,0,1
80360,-71.4285714285714,4,2,1,5,0,1
80491,-71.4285714285714,4,2,1,60,0,1
80621,-71.4285714285714,4,2,1,5,0,1
80752,-71.4285714285714,4,2,1,60,0,1
80882,-71.4285714285714,4,2,1,5,0,1
81013,-71.4285714285714,4,2,1,60,0,1
82056,-83.3333333333333,4,2,1,60,0,1
94578,-100,4,2,1,40,0,0
96665,-133.333333333333,4,2,1,40,0,0
102925,-100,4,2,1,50,0,0
117665,-100,4,2,1,5,0,0
117796,-100,4,2,1,50,0,0
117925,-100,4,2,1,5,0,0
118056,-100,4,2,1,50,0,0
118186,-100,4,2,1,5,0,0
118317,-100,4,2,1,50,0,0
130056,-83.3333333333333,4,2,1,60,0,1
132143,-71.4285714285714,4,2,1,60,0,1
132273,-71.4285714285714,4,2,1,5,0,1
132403,-71.4285714285714,4,2,1,60,0,1
132534,-71.4285714285714,4,2,1,5,0,1
132664,-71.4285714285714,4,2,1,60,0,1
132795,-71.4285714285714,4,2,1,5,0,1
132925,-71.4285714285714,4,2,1,60,0,1
133056,-71.4285714285714,4,2,1,5,0,1
133186,-71.4285714285714,4,2,1,60,0,1
135273,-83.3333333333333,4,2,1,60,0,1
136317,-71.4285714285714,4,2,1,60,0,1
136447,-71.4285714285714,4,2,1,5,0,1
136577,-71.4285714285714,4,2,1,60,0,1
136708,-71.4285714285714,4,2,1,5,0,1
136838,-71.4285714285714,4,2,1,60,0,1
136969,-71.4285714285714,4,2,1,5,0,1
137099,-71.4285714285714,4,2,1,60,0,1
137230,-71.4285714285714,4,2,1,5,0,1
137360,-71.4285714285714,4,2,1,60,0,1
138404,-83.3333333333333,4,2,1,60,0,1
148838,-71.4285714285714,4,2,1,60,0,1
148969,-71.4285714285714,4,2,1,5,0,1
149099,-71.4285714285714,4,2,1,60,0,1
149230,-71.4285714285714,4,2,1,5,0,1
149360,-71.4285714285714,4,2,1,60,0,1
149491,-71.4285714285714,4,2,1,5,0,1
149621,-71.4285714285714,4,2,1,60,0,1
149751,-71.4285714285714,4,2,1,5,0,1
149881,-71.4285714285714,4,2,1,60,0,1
150925,-83.3333333333333,4,2,1,60,0,1
163447,-100,4,2,1,60,0,0
165534,-71.4285714285714,4,2,1,60,0,0
165665,-71.4285714285714,4,2,1,5,0,0
165795,-71.4285714285714,4,2,1,60,0,0
165925,-71.4285714285714,4,2,1,5,0,0
166055,-71.4285714285714,4,2,1,60,0,0
166186,-71.4285714285714,4,2,1,5,0,0
166316,-71.4285714285714,4,2,1,60,0,0
166447,-71.4285714285714,4,2,1,5,0,0
166577,-71.4285714285714,4,2,1,60,0,0
167621,-100,4,2,1,60,0,0
169708,-71.4285714285714,4,2,1,60,0,0
169838,-71.4285714285714,4,2,1,5,0,0
169968,-71.4285714285714,4,2,1,60,0,0
170099,-71.4285714285714,4,2,1,5,0,0
170229,-71.4285714285714,4,2,1,60,0,0
170360,-71.4285714285714,4,2,1,5,0,0
170490,-71.4285714285714,4,2,1,60,0,0
170621,-71.4285714285714,4,2,1,5,0,0
170751,-71.4285714285714,4,2,1,60,0,0
171795,-100,4,2,1,60,0,0
182230,-71.4285714285714,4,2,1,60,0,0
182360,-71.4285714285714,4,2,1,5,0,0
182490,-71.4285714285714,4,2,1,60,0,0
182621,-71.4285714285714,4,2,1,5,0,0
182751,-71.4285714285714,4,2,1,60,0,0
182882,-71.4285714285714,4,2,1,5,0,0
183012,-71.4285714285714,4,2,1,60,0,0
183143,-71.4285714285714,4,2,1,5,0,0
183273,-71.4285714285714,4,2,1,60,0,0
184317,-100,4,2,1,60,0,0

[Colours]
Combo1 : 119,143,170
Combo2 : 152,199,250
Combo3 : 134,151,234

[HitObjects]
455,178,665,6,0,P|427:118|335:109,1,144,2|0,0:0|0:0,0:0:0:0:
224,166,1447,2,0,L|368:183,1,144,2|0,0:0|0:0,0:0:0:0:
453,271,2230,2,0,L|381:279,1,72,2|0,0:0|0:0,0:0:0:0:
224,166,2751,6,0,P|219:117|240:84,2,72,2|0|0,0:0|0:0|0:0,0:0:0:0:
298,323,3534,2,0,P|281:275|197:253,1,144,2|0,0:0|0:0,0:0:0:0:
114,309,4317,2,0,L|42:319,1,72,2|0,0:0|0:0,0:0:0:0:
197,252,4838,6,0,L|349:277,1,144,2|0,0:0|0:0,0:0:0:0:
155,171,5621,2,0,P|104:217|113:286,1,144,2|0,0:0|0:0,0:0:0:0:
155,171,6404,2,0,L|167:70,1,72,2|0,0:0|0:0,0:0:0:0:
71,11,6925,5,2,0:0:0:0:
15,122,7186,1,0,0:0:0:0:
91,3,7447,1,0,0:0:0:0:
163,99,7708,2,0,B|232:122|222:65|327:95,1,144,2|0,0:0|0:0,0:0:0:0:
402,139,8491,2,0,P|449:152|482:145,1,72,2|0,0:0|0:0,0:0:0:0:
449,55,9012,5,2,0:0:0:0:
312,171,9273,1,0,0:0:0:0:
471,148,9534,1,2,0:0:0:0:
295,176,9795,1,2,0:0:0:0:
445,254,10056,6,0,P|477:294|465:344,1,108,2|0,0:0|0:0,0:0:0:0:
447,365,10578,2,0,B|364:351|365:351,1,72,2|0,0:0|0:0,0:0:0:0:
261,287,11099,6,0,B|275:277|273:261|263:258|251:269|254:285,1,50.3999984619141,2|0,0:0|0:0,0:0:0:0:
207,191,11360,6,0,B|218:177|213:161|202:163|193:175|200:190,1,50.3999984619141,2|0,0:0|0:0,0:0:0:0:
114,174,11621,6,0,B|118:163|108:149|97:152|93:166|105:179,1,50.3999984619141,2|0,0:0|0:0,0:0:0:0:
35,241,11882,6,0,B|36:228|22:218|14:223|13:239|28:247,1,50.3999984619141,2|0,0:0|0:0,0:0:0:0:
61,326,12143,6,0,B|102:311|124:271|124:271|141:259|152:275|152:275|161:323|198:348,1,201.599993847656,2|0,0:0|0:0,0:0:0:0:
261,287,12925,1,2,0:0:0:0:
207,191,13186,6,0,L|215:119,1,72,2|0,0:0|0:0,0:0:0:0:
333,73,13708,2,0,L|324:1,1,72,2|2,0:0|0:0,0:0:0:0:
215,119,14230,2,0,B|288:112|269:169|352:159,1,144,2|0,0:0|0:0,0:0:0:0:
427,99,15012,1,2,0:0:0:0:
348,159,15273,6,0,B|343:141|328:137|321:146|328:161|344:163,1,50.3999984619141,2|0,0:0|0:0,0:0:0:0:
239,176,15534,6,0,B|229:159|213:159|211:170|219:182|236:181,1,50.3999984619141,2|0,0:0|0:0,0:0:0:0:
191,258,15795,6,0,B|182:249|165:254|164:265|176:274|192:267,1,50.3999984619141,2|0,0:0|0:0,0:0:0:0:
227,355,16056,6,0,B|215:348|201:358|203:367|217:374|230:362,1,50.3999984619141,2|0,0:0|0:0,0:0:0:0:
316,360,16317,6,0,B|316:315|286:281|286:281|280:260|299:256|299:256|347:264|383:237,1,201.599993847656,2|0,0:0|0:0,0:0:0:0:
483,143,17099,1,0,0:0:0:0:
410,330,17360,5,2,0:0:0:0:
324,168,17621,1,2,0:0:0:0:
449,247,17882,2,0,L|359:239,1,72,2|0,0:0|0:0,0:0:0:0:
249,127,18404,2,0,P|302:83|371:94,1,144,2|0,0:0|0:0,0:0:0:0:
454,34,19186,1,2,0:0:0:0:
249,127,19447,6,0,L|166:115,1,72,2|0,0:0|0:0,0:0:0:0:
71,38,19969,1,2,0:0:0:0:
71,38,20230,1,0,0:0:0:0:
29,132,20491,2,0,L|49:291,1,144,2|0,0:0|0:0,0:0:0:0:
46,274,21273,1,2,0:0:0:0:
157,335,21534,6,0,P|190:346|225:339,1,72,2|0,0:0|0:0,0:0:0:0:
229,183,22056,2,0,P|194:174|159:184,1,72,2|2,0:0|0:0,0:0:0:0:
194,260,22578,2,0,L|292:263,1,72,2|0,0:0|0:0,0:0:0:0:
439,155,23099,6,0,L|450:197,1,36,2|0,0:0|0:0,0:0:0:0:
454,210,23360,2,0,L|444:244,1,36,2|0,0:0|0:0,0:0:0:0:
429,260,23621,6,0,L|444:393,1,108,2|0,0:0|0:0,0:0:0:0:
431,364,24143,1,0,0:0:0:0:
229,183,24404,2,0,P|224:131|263:97,1,108,2|0,0:0|0:0,0:0:0:0:
285,97,24925,2,0,P|251:128|150:101,1,144,2|0,0:0|0:0,0:0:0:0:
58,18,25708,6,0,B|21:59|21:59|47:145,1,118.800003625488,2|0,3:2|0:0,0:0:0:0:
56,136,26230,1,10,0:0:0:0:
24,305,26491,1,0,3:0:0:0:
181,269,26751,2,0,P|145:248|106:253,1,79.2000024169923,2|0,0:0|0:0,0:0:0:0:
0,188,27273,1,10,0:0:0:0:
126,338,27534,1,2,0:0:0:0:
168,175,27795,6,0,L|158:77,2,79.2000024169923,2|0|10,3:2|0:0|0:2,0:0:0:0:
294,246,28578,2,0,P|342:269|416:242,1,118.800003625488,2|0,3:2|0:0,0:0:0:0:
423,241,29099,1,2,3:2:0:0:
246,345,29360,1,10,0:0:0:0:
388,376,29621,1,2,0:0:0:0:
296,233,29882,6,0,L|311:68,1,158.400004833985,2|8,3:2|0:0,0:0:0:0:
153,22,30665,1,2,3:2:0:0:
303,58,30925,1,0,0:0:0:0:
120,156,31186,1,2,0:2:0:0:
295,245,31447,1,10,0:2:0:0:
226,147,31708,1,2,3:2:0:0:
226,147,31969,6,0,L|121:154,1,79.2000024169923,2|2,3:2|0:0,0:0:0:0:
19,48,32491,1,8,0:0:0:0:
19,48,32751,2,0,P|50:26|130:62,1,118.800003625488,2|0,3:2|0:0,0:0:0:0:
134,67,33273,1,10,0:2:0:0:
209,241,33534,1,10,0:2:0:0:
21,197,33795,1,2,0:2:0:0:
146,152,34056,5,2,3:2:0:0:
83,272,34317,2,0,L|92:366,1,79.2000024169923,2|8,0:0|0:0,0:0:0:0:
209,241,34838,2,0,P|266:218|354:272,1,158.400004833985,2|0,3:2|3:0,0:0:0:0:
229,133,35621,1,10,0:2:0:0:
265,308,35882,1,2,0:2:0:0:
376,173,36143,5,2,3:2:0:0:
209,241,36404,1,2,0:0:0:0:
427,259,36665,1,8,0:0:0:0:
308,99,36925,2,0,B|245:76|246:125|182:102,1,118.800003625488,2|0,3:2|0:0,0:0:0:0:
174,98,37447,2,0,L|179:0,1,79.2000024169923,2|8,3:2|0:0,0:0:0:0:
311,120,37969,1,2,0:0:0:0:
43,194,38230,6,0,P|84:167|170:222,1,158.400004833985,2|8,3:2|0:0,0:0:0:0:
356,215,39012,1,2,3:2:0:0:
192,106,39273,1,2,0:2:0:0:
379,70,39534,1,2,0:2:0:0:
278,172,39795,2,0,B|262:210|262:210|281:260,1,79.2000024169923,8|0,0:0|3:0,0:0:0:0:
472,353,40317,6,0,P|420:303|327:319,1,158.400004833985,2|8,3:2|0:0,0:0:0:0:
494,238,41099,1,2,3:2:0:0:
338,310,41360,5,2,3:0:0:0:
324,324,41491,1,2,3:0:0:0:
304,328,41621,1,2,3:0:0:0:
283,327,41751,1,2,3:0:0:0:
268,321,41882,1,2,3:0:0:0:
164,208,42143,1,2,3:0:0:0:
164,208,42273,1,2,3:0:0:0:
164,208,42404,6,0,P|115:181|44:206,1,118.800003625488,2|0,3:2|0:0,0:0:0:0:
41,208,42925,1,10,0:0:0:0:
261,223,43186,1,2,3:2:0:0:
110,384,43447,2,0,L|102:259,1,118.800003625488,2|0,0:0|0:0,0:0:0:0:
113,274,43969,1,8,0:0:0:0:
209,313,44230,1,2,0:0:0:0:
21,315,44491,5,2,3:2:0:0:
168,212,44751,1,2,0:2:0:0:
13,326,45012,1,10,0:2:0:0:
209,313,45273,2,0,L|306:335,1,79.2000024169923,0|0,3:0|0:0,0:0:0:0:
437,296,45795,1,2,3:2:0:0:
266,224,46056,1,10,0:2:0:0:
417,186,46317,1,2,0:0:0:0:
206,291,46578,6,0,P|175:242|222:151,1,158.400004833985,2|8,3:2|0:0,0:0:0:0:
75,3,47360,1,2,3:2:0:0:
259,36,47621,1,2,0:2:0:0:
120,141,47882,1,0,0:0:0:0:
167,44,48143,2,0,L|268:60,1,79.2000024169923,10|0,0:0|3:0,0:0:0:0:
384,22,48665,6,0,P|405:19|433:29,1,39.6000012084961,2|0,3:2|0:0,0:0:0:0:
487,123,48925,2,0,P|478:142|455:161,1,39.6000012084961,2|0,0:0|0:0,0:0:0:0:
347,162,49186,2,0,P|334:144|329:115,1,39.6000012084961,10|0,0:2|0:0,0:0:0:0:
403,102,49447,6,0,L|411:245,1,118.800003625488,2|0,3:2|0:0,0:0:0:0:
412,240,49969,1,10,0:2:0:0:
274,364,50230,1,10,0:2:0:0:
252,232,50491,1,2,0:2:0:0:
393,353,50751,5,2,3:2:0:0:
206,305,51012,2,0,L|116:315,1,79.2000024169923,2|8,0:0|0:0,0:0:0:0:
274,364,51534,2,0,P|299:311|231:226,1,158.400004833985,2|0,3:2|0:0,0:0:0:0:
65,161,52317,1,10,0:0:0:0:
219,136,52578,1,2,0:0:0:0:
47,81,52838,5,2,3:2:0:0:
161,211,53099,1,2,0:0:0:0:
199,58,53360,1,10,0:0:0:0:
65,161,53621,2,0,B|53:298|53:297,1,118.800003625488,2|0,0:0|0:0,0:0:0:0:
63,291,54143,2,0,P|105:280|141:299,1,79.2000024169923,0|8,3:0|0:0,0:0:0:0:
304,246,54665,1,2,0:0:0:0:
204,348,54925,6,0,P|228:288|163:218,1,158.400004833985,2|8,3:2|0:0,0:0:0:0:
316,99,55708,1,2,3:2:0:0:
147,81,55969,1,0,0:0:0:0:
230,150,56230,1,2,0:2:0:0:
96,224,56491,1,10,0:2:0:0:
217,347,56751,6,0,L|321:368,1,79.2000024169923,2|0,3:2|3:0,0:0:0:0:
502,362,57273,1,2,0:2:0:0:
345,229,57534,1,10,0:2:0:0:
412,365,57795,2,0,L|425:196,1,158.400004833985,2|0,3:2|3:0,0:0:0:0:
379,27,58578,1,10,0:2:0:0:
486,118,58838,1,6,3:2:0:0:
187,169,59360,5,4,3:2:0:0:
339,246,59621,1,4,3:2:0:0:
206,91,59882,5,2,3:0:0:0:
174,87,60012,1,2,3:0:0:0:
144,97,60143,1,2,3:0:0:0:
121,118,60273,1,2,3:0:0:0:
110,148,60404,1,2,3:0:0:0:
144,297,60665,5,2,3:0:0:0:
124,267,60795,1,2,3:0:0:0:
92,249,60925,1,2,3:0:0:0:
56,244,61056,1,2,3:0:0:0:
24,259,61186,5,14,1:2:0:0:
187,169,61447,1,2,0:0:0:0:
0,138,61708,1,10,0:2:0:0:
70,328,61969,1,2,3:2:0:0:
103,166,62230,2,0,L|89:58,1,86.3999973632813,2|0,3:2|3:0,0:0:0:0:
90,67,62621,1,0,3:0:0:0:
90,67,62751,1,8,0:0:0:0:
201,164,63012,1,2,0:0:0:0:
426,111,63273,6,0,B|435:94|427:81|416:82|410:98|420:111,1,50.3999984619141,2|0,3:2|0:0,0:0:0:0:
238,76,63534,6,0,B|222:69|219:54|228:47|244:56|244:69,1,50.3999984619141,2|0,0:0|0:0,0:0:0:0:
336,45,63795,6,0,B|340:25|329:14|320:20|317:35|327:43,1,50.3999984619141,10|0,0:0|0:0,0:0:0:0:
198,171,64056,6,0,B|180:170|175:155|180:147|197:150|201:164,1,50.3999984619141,2|0,3:2|0:0,0:0:0:0:
389,189,64317,6,0,B|350:184|322:144|322:144|306:133|295:152|295:152|292:198|261:230,1,201.599993847656,2|8,3:2|0:0,0:0:0:0:
418,106,65099,1,2,3:2:0:0:
418,106,65230,1,2,0:2:0:0:
418,106,65360,5,2,3:2:0:0:
342,261,65621,1,2,0:0:0:0:
304,116,65882,1,10,0:0:0:0:
453,252,66143,1,2,3:2:0:0:
453,252,66273,1,2,0:2:0:0:
453,252,66404,2,0,L|438:350,1,86.3999973632813,2|0,0:0|3:0,0:0:0:0:
240,384,66925,1,10,0:2:0:0:
342,261,67186,1,2,0:2:0:0:
115,201,67447,6,0,B|105:184|113:171|124:172|130:188|120:201,1,50.3999984619141,2|0,3:2|0:0,0:0:0:0:
302,166,67708,6,0,B|318:159|320:144|311:137|296:146|296:158,1,50.3999984619141,2|0,0:0|0:0,0:0:0:0:
205,135,67969,6,0,B|200:115|211:104|220:110|223:125|213:133,1,50.3999984619141,10|0,0:0|0:0,0:0:0:0:
342,261,68230,6,0,B|359:260|364:245|359:237|342:240|339:253,1,50.3999984619141,2|0,3:2|0:0,0:0:0:0:
151,279,68491,6,0,B|189:273|217:234|217:234|233:223|244:242|244:242|247:287|279:319,1,201.599993847656,2|8,0:0|0:0,0:0:0:0:
461,250,69273,1,2,0:0:0:0:
461,250,69404,1,2,0:0:0:0:
461,250,69534,5,6,3:2:0:0:
293,143,69795,1,2,0:0:0:0:
369,281,70056,2,0,L|377:223,1,43.1999986816407,10|0,0:0|0:0,0:0:0:0:
387,155,70317,2,0,L|395:97,1,43.1999986816407,2|0,3:2|0:0,0:0:0:0:
456,48,70578,2,0,P|414:74|325:28,1,129.599996044922,2|0,3:2|0:0,0:0:0:0:
327,36,71099,1,10,0:0:0:0:
385,168,71360,1,2,0:0:0:0:
143,154,71621,5,2,3:2:0:0:
251,82,71882,1,2,0:2:0:0:
126,38,72143,1,10,0:2:0:0:
239,176,72404,1,2,3:2:0:0:
239,176,72534,1,2,0:2:0:0:
239,176,72665,2,0,B|254:272|197:255|212:350,1,172.799994726563,2|8,0:0|0:0,0:0:0:0:
210,342,73447,1,0,0:0:0:0:
0,331,73708,5,2,3:2:0:0:
150,216,73969,1,2,0:2:0:0:
125,362,74230,1,10,0:2:0:0:
20,209,74491,1,2,3:2:0:0:
173,225,74751,1,2,0:2:0:0:
78,288,75012,1,2,0:2:0:0:
104,135,75273,6,0,L|154:129,1,43.1999986816407,10|0,0:0|0:0,0:0:0:0:
288,169,75534,2,0,L|245:163,1,43.1999986816407,2|0,0:0|0:0,0:0:0:0:
114,49,75795,1,0,3:0:0:0:
273,66,76056,1,0,3:0:0:0:
273,66,76186,1,0,3:0:0:0:
273,66,76317,1,8,0:0:0:0:
88,143,76578,5,6,3:2:0:0:
333,231,76838,1,2,3:0:0:0:
357,213,76969,1,2,3:0:0:0:
369,185,77099,1,2,3:0:0:0:
369,154,77230,1,2,3:0:0:0:
350,129,77360,1,8,0:0:0:0:
193,260,77621,1,2,3:0:0:0:
189,289,77751,1,2,3:0:0:0:
195,318,77882,5,6,3:2:0:0:
434,371,78143,1,2,0:2:0:0:
274,289,78404,1,10,0:2:0:0:
462,240,78665,1,2,3:2:0:0:
330,357,78925,2,0,P|363:282|315:214,1,172.799994726563,2|8,0:0|0:0,0:0:0:0:
353,85,79708,1,2,0:0:0:0:
114,226,79969,6,0,B|96:218|94:203|103:197|118:205|118:222,1,50.3999984619141,2|0,3:2|0:0,0:0:0:0:
238,81,80230,6,0,B|246:65|238:51|227:52|220:69|228:79,1,50.3999984619141,2|0,0:0|0:0,0:0:0:0:
142,118,80491,6,0,B|126:104|127:89|138:88|150:98|147:110,1,50.3999984619141,10|0,0:0|0:0,0:0:0:0:
329,129,80752,6,0,B|342:116|336:102|327:99|316:112|322:125,1,50.3999984619141,2|0,3:2|0:0,0:0:0:0:
192,263,81013,6,0,B|219:234|215:185|215:185|221:167|241:175|241:175|273:208|317:214,1,201.599993847656,2|8,0:0|0:0,0:0:0:0:
117,217,81795,1,2,0:0:0:0:
233,364,82056,5,2,3:2:0:0:
73,285,82317,1,2,0:2:0:0:
278,288,82578,1,10,0:2:0:0:
115,373,82838,1,2,3:2:0:0:
115,373,82969,1,2,0:2:0:0:
115,373,83099,2,0,L|16:378,1,86.3999973632813,2|0,0:0|3:0,0:0:0:0:
124,211,83621,1,10,0:2:0:0:
191,294,83882,1,2,0:2:0:0:
20,220,84143,5,2,3:2:0:0:
220,165,84404,1,2,0:2:0:0:
36,102,84665,1,10,0:2:0:0:
124,211,84925,1,2,3:2:0:0:
216,82,85186,2,0,B|290:73|269:117|354:112,1,129.599996044922,2|0,0:0|0:0,0:0:0:0:
363,104,85708,1,10,0:2:0:0:
486,164,85969,1,2,0:2:0:0:
328,32,86230,5,6,3:2:0:0:
228,167,86491,1,2,0:2:0:0:
331,23,86751,1,10,0:2:0:0:
345,207,87012,1,2,3:2:0:0:
260,94,87273,2,0,P|218:85|178:101,1,86.3999973632813,2|0,0:0|3:0,0:0:0:0:
12,34,87795,1,8,0:0:0:0:
126,19,88056,1,2,0:2:0:0:
79,204,88317,5,2,3:2:0:0:
3,28,88578,1,2,0:2:0:0:
79,204,88838,1,10,0:2:0:0:
177,105,89099,1,2,0:2:0:0:
177,105,89230,1,2,0:2:0:0:
177,105,89360,2,0,L|-22:118,1,172.799994726563,2|8,0:0|0:0,0:0:0:0:
247,162,90143,1,2,0:0:0:0:
247,162,90273,1,2,0:0:0:0:
247,162,90404,6,0,P|272:116|233:38,1,129.599996044922,0|0,3:0|0:0,0:0:0:0:
226,31,90925,1,10,0:2:0:0:
366,171,91186,1,2,0:2:0:0:
177,105,91447,1,2,0:2:0:0:
370,61,91708,1,2,3:2:0:0:
171,208,91969,1,10,0:2:0:0:
289,274,92230,1,2,3:2:0:0:
68,286,92491,5,6,3:2:0:0:
255,193,92751,1,2,3:2:0:0:
91,130,93012,1,2,3:2:0:0:
301,286,93273,5,6,3:2:0:0:
126,125,94578,6,0,B|160:36|160:36|199:125|199:125|255:111|313:125|313:125|352:36|352:36|387:128,1,504,2|0,0:0|0:0,0:0:0:0:
348,227,96665,6,0,P|389:215|459:220,1,108.000004119873,2|0,0:0|0:0,0:0:0:0:
356,311,97447,2,0,P|399:307|467:324,1,108.000004119873,2|0,0:0|0:0,0:0:0:0:
164,227,98230,6,0,P|123:215|53:220,1,108.000004119873,2|0,0:0|0:0,0:0:0:0:
156,311,99273,1,2,0:0:0:0:
156,311,99534,2,0,P|113:307|45:324,1,108.000004119873,2|0,0:0|0:0,0:0:0:0:
312,382,100578,6,0,B|274:372|257:328|257:328|243:371|182:385,1,162.00000617981,2|0,0:0|0:0,0:0:0:0:
269,246,101621,6,0,P|259:206|248:245,1,108.000004119873,2|0,0:0|0:0,0:0:0:0:
450,340,102665,5,2,0:0:0:0:
450,340,102795,1,2,0:0:0:0:
450,340,102925,2,0,P|467:275|416:212,1,144,2|8,3:2|0:0,0:0:0:0:
370,291,103708,2,0,L|382:120,1,144,2|0,3:2|3:0,0:0:0:0:
462,94,104491,2,0,L|446:14,1,72,10|0,0:0|0:0,0:0:0:0:
444,16,104882,1,2,0:0:0:0:
444,16,105012,5,2,3:2:0:0:
371,48,105273,1,2,0:0:0:0:
298,16,105534,1,8,0:0:0:0:
235,64,105795,2,0,B|165:86|169:30|90:54,1,144,2|0,3:2|3:0,0:0:0:0:
58,123,106578,2,0,P|29:102|13:71,1,72,10|0,0:0|3:0,0:0:0:0:
95,52,107099,6,0,L|76:200,1,144,2|8,3:2|0:0,0:0:0:0:
167,215,107882,2,0,L|176:297,1,72,2|0,3:2|0:0,0:0:0:0:
23,363,108404,1,2,3:2:0:0:
69,284,108665,1,10,0:0:0:0:
143,369,108925,1,0,0:0:0:0:
143,369,109186,6,0,L|290:375,1,144,2|8,3:2|0:0,0:0:0:0:
286,374,109969,1,2,3:2:0:0:
415,319,110230,5,2,3:0:0:0:
433,296,110360,1,2,3:0:0:0:
437,267,110491,1,2,3:0:0:0:
429,239,110621,1,2,3:0:0:0:
410,216,110751,1,2,3:0:0:0:
288,98,111012,5,2,3:0:0:0:
299,125,111143,1,2,3:0:0:0:
296,149,111273,2,0,B|376:164|365:114|444:134,1,144,2|8,3:2|0:0,0:0:0:0:
492,45,112056,1,2,3:2:0:0:
436,132,112317,2,0,L|430:239,1,108,2|0,0:0|0:0,0:0:0:0:
426,268,112838,1,10,0:0:0:0:
346,356,113099,1,2,0:0:0:0:
487,370,113360,5,0,3:0:0:0:
331,265,113621,1,2,0:0:0:0:
504,279,113882,1,10,0:0:0:0:
346,356,114143,2,0,L|198:337,1,144,2|0,3:2|0:0,0:0:0:0:
74,279,114925,1,10,0:0:0:0:
175,241,115186,1,2,0:0:0:0:
34,349,115447,6,0,P|-3:310|28:218,1,144,2|8,3:2|0:0,0:0:0:0:
136,105,116230,1,2,3:2:0:0:
163,225,116491,1,2,0:2:0:0:
39,145,116751,1,2,3:2:0:0:
213,137,117012,2,0,L|296:131,1,72,10|0,0:0|0:0,0:0:0:0:
481,241,117534,6,0,P|484:262|474:290,1,36,2|0,3:2|0:0,0:0:0:0:
380,344,117794,2,0,P|361:335|342:312,1,36,2|0,0:0|0:0,0:0:0:0:
341,204,118055,2,0,P|359:191|388:186,1,36,10|0,0:0|0:0,0:0:0:0:
401,260,118316,6,0,B|331:243|335:296|247:265,1,144,2|0,3:2|3:2,0:0:0:0:
240,261,118969,1,0,3:0:0:0:
240,261,119099,2,0,P|191:249|155:255,1,72,8|0,0:0|0:0,0:0:0:0:
243,161,119621,5,2,3:2:0:0:
96,290,119882,2,0,B|78:259|78:259|91:218,1,72,2|8,0:0|0:0,0:0:0:0:
156,107,120404,2,0,L|171:262,1,144,2|0,3:2|3:0,0:0:0:0:
273,359,121186,1,10,0:2:0:0:
331,228,121447,1,2,0:2:0:0:
169,331,121708,5,2,3:2:0:0:
380,322,121969,1,2,0:2:0:0:
380,322,122099,1,2,0:2:0:0:
380,322,122230,1,10,0:2:0:0:
243,161,122491,2,0,L|249:282,1,108,2|0,3:2|0:0,0:0:0:0:
255,273,123012,1,0,3:0:0:0:
434,192,123273,1,8,0:0:0:0:
325,126,123534,1,0,0:0:0:0:
470,102,123795,6,0,B|392:84|408:144|318:118,1,144,2|8,3:2|0:0,0:0:0:0:
164,86,124578,1,2,3:2:0:0:
261,163,124838,1,2,0:2:0:0:
125,203,125099,1,2,3:2:0:0:
274,293,125360,1,10,0:2:0:0:
100,200,125621,2,0,L|25:214,1,72,2|0,0:0|3:0,0:0:0:0:
261,163,126143,5,2,0:0:0:0:
261,163,126273,1,2,0:0:0:0:
261,163,126404,1,10,0:0:0:0:
162,332,126665,2,0,P|206:279|273:292,1,144,2|0,3:2|3:0,0:0:0:0:
464,307,127447,1,10,0:2:0:0:
350,384,127708,1,6,0:2:0:0:
375,46,128230,5,4,3:2:0:0:
428,213,128491,1,4,3:2:0:0:
444,87,128751,1,2,3:0:0:0:
430,108,128882,1,2,3:0:0:0:
409,122,129012,1,2,3:0:0:0:
384,129,129143,1,2,3:0:0:0:
359,125,129273,1,2,3:0:0:0:
202,39,129534,5,10,0:0:0:0:
219,58,129665,1,2,3:0:0:0:
226,82,129795,1,2,3:0:0:0:
220,107,129925,1,2,3:0:0:0:
205,128,130056,5,4,3:2:0:0:
53,218,130317,1,2,0:0:0:0:
53,218,130447,1,2,0:0:0:0:
53,218,130578,1,10,0:0:0:0:
130,82,130838,1,2,3:2:0:0:
169,254,131099,2,0,L|278:273,1,86.3999973632813,2|0,0:0|3:0,0:0:0:0:
271,272,131491,1,0,3:0:0:0:
287,276,131621,2,0,L|346:269,1,43.1999986816407,10|0,0:0|0:0,0:0:0:0:
470,252,131882,1,2,0:0:0:0:
222,82,132143,6,0,L|172:69,1,50.3999984619141,2|0,3:2|0:0,0:0:0:0:
403,55,132404,6,0,L|444:26,1,50.3999984619141,2|0,0:0|0:0,0:0:0:0:
222,82,132665,6,0,L|173:121,1,50.3999984619141,10|0,0:0|0:0,0:0:0:0:
403,55,132925,6,0,L|462:74,1,50.3999984619141,2|0,3:2|0:0,0:0:0:0:
266,163,133186,6,0,B|239:198|280:221|321:181|321:181|374:204|397:169|371:144,1,201.599993847656,2|8,0:0|0:0,0:0:0:0:
181,196,133969,1,2,0:2:0:0:
181,196,134099,1,2,0:2:0:0:
181,196,134230,5,2,3:2:0:0:
308,97,134491,1,2,0:0:0:0:
126,72,134751,1,10,0:0:0:0:
266,163,135012,1,2,3:2:0:0:
109,245,135273,2,0,L|8:223,1,86.3999973632813,2|0,0:0|3:0,0:0:0:0:
10,219,135665,1,0,3:0:0:0:
10,203,135795,2,0,L|19:141,1,43.1999986816407,10|0,0:0|0:0,0:0:0:0:
115,67,136056,1,2,0:0:0:0:
330,184,136317,6,0,L|373:156,1,50.3999984619141,2|0,3:2|0:0,0:0:0:0:
149,214,136578,6,0,L|100:199,1,50.3999984619141,2|0,0:0|0:0,0:0:0:0:
330,184,136839,6,0,L|388:206,1,50.3999984619141,10|0,0:0|0:0,0:0:0:0:
149,214,137099,6,0,L|98:251,1,50.3999984619141,2|0,3:2|0:0,0:0:0:0:
313,274,137360,6,0,B|344:301|317:334|264:310|264:310|222:347|189:323|206:287,1,201.599993847656,2|8,0:0|0:0,0:0:0:0:
423,303,138143,1,2,0:0:0:0:
423,303,138273,1,2,0:0:0:0:
423,303,138404,5,6,3:2:0:0:
247,188,138665,1,2,0:2:0:0:
445,162,138925,1,10,0:2:0:0:
313,274,139186,1,2,3:2:0:0:
377,104,139447,2,0,P|433:72|494:87,1,129.599996044922,2|0,0:2|0:0,0:0:0:0:
508,110,139969,1,10,0:0:0:0:
351,21,140230,1,2,0:2:0:0:
351,21,140360,1,2,0:2:0:0:
351,21,140491,5,2,3:2:0:0:
360,198,140751,1,2,0:2:0:0:
437,51,141012,1,10,0:2:0:0:
488,228,141273,1,2,3:2:0:0:
312,126,141534,2,0,L|218:139,1,86.3999973632813,2|0,0:0|3:0,0:0:0:0:
217,142,141925,1,0,3:0:0:0:
217,142,142056,1,8,0:0:0:0:
81,70,142317,1,2,3:2:0:0:
60,208,142578,5,6,3:2:0:0:
202,63,142838,1,2,0:2:0:0:
47,216,143099,1,10,0:2:0:0:
252,224,143360,1,2,3:2:0:0:
252,224,143491,1,2,0:2:0:0:
252,224,143621,1,2,0:2:0:0:
112,141,143882,1,2,3:2:0:0:
286,52,144143,6,0,L|360:66,1,43.1999986816407,10|0,0:0|0:0,0:0:0:0:
488,138,144404,2,0,L|414:152,1,43.1999986816407,2|0,3:2|0:0,0:0:0:0:
325,177,144665,6,0,P|373:162|462:240,1,172.799994726563,2|8,3:2|0:0,0:0:0:0:
344,65,145447,1,2,3:2:0:0:
349,363,145708,5,2,3:0:0:0:
380,342,145838,1,2,3:0:0:0:
393,308,145969,1,0,3:0:0:0:
390,272,146099,1,2,3:0:0:0:
367,244,146230,1,10,3:2:0:0:
259,135,146491,1,2,3:0:0:0:
245,161,146621,1,2,3:0:0:0:
246,191,146751,5,6,3:2:0:0:
460,232,147012,1,2,0:0:0:0:
263,301,147273,2,0,L|307:298,1,43.1999986816407,10|0,0:0|0:0,0:0:0:0:
372,236,147534,1,2,3:2:0:0:
245,161,147795,2,0,B|177:150|189:204|100:183,1,129.599996044922,2|0,0:0|0:0,0:0:0:0:
102,175,148317,1,10,0:0:0:0:
252,298,148578,1,2,0:0:0:0:
228,71,148838,6,0,L|185:43,1,50.3999984619141,2|0,3:2|0:0,0:0:0:0:
409,101,149099,6,0,L|458:86,1,50.3999984619141,2|0,0:0|0:0,0:0:0:0:
228,71,149360,6,0,L|170:93,1,50.3999984619141,10|0,0:0|0:0,0:0:0:0:
409,101,149620,6,0,L|460:138,1,50.3999984619141,2|0,3:2|0:0,0:0:0:0:
245,161,149881,6,0,B|214:188|241:221|294:197|294:197|336:234|369:210|352:174,1,201.599993847656,2|8,0:0|0:0,0:0:0:0:
318,96,150665,1,2,0:2:0:0:
318,96,150795,1,2,0:2:0:0:
318,96,150925,5,2,3:2:0:0:
169,98,151186,1,2,0:0:0:0:
352,174,151447,1,10,0:0:0:0:
225,227,151708,1,2,3:2:0:0:
225,227,151838,1,2,0:2:0:0:
225,227,151969,1,2,0:2:0:0:
370,323,152230,1,2,3:2:0:0:
214,345,152491,5,10,0:0:0:0:
328,247,152751,1,2,0:0:0:0:
214,345,153012,6,0,P|190:345|162:336,1,43.1999986816407,2|0,3:2|0:0,0:0:0:0:
114,193,153273,2,0,P|126:213|132:242,1,43.1999986816407,2|0,0:0|0:0,0:0:0:0:
32,355,153534,2,0,P|44:334|65:314,1,43.1999986816407,10|0,0:0|0:0,0:0:0:0:
210,265,153795,1,2,3:2:0:0:
210,265,153925,1,2,0:2:0:0:
210,265,154056,2,0,L|359:291,1,129.599996044922,2|0,0:0|0:0,0:0:0:0:
359,288,154578,1,10,0:2:0:0:
500,197,154838,1,2,0:2:0:0:
500,197,154969,1,2,0:2:0:0:
500,197,155099,5,6,3:2:0:0:
320,140,155360,1,2,0:2:0:0:
448,285,155621,1,10,0:2:0:0:
505,110,155882,1,2,3:2:0:0:
362,213,156143,2,0,P|400:175|372:84,1,129.599996044922,2|0,0:0|0:0,0:0:0:0:
382,84,156665,1,10,0:2:0:0:
203,17,156925,1,2,0:2:0:0:
320,140,157186,5,2,3:2:0:0:
141,178,157447,1,2,0:2:0:0:
141,178,157578,1,2,0:2:0:0:
141,178,157708,1,10,0:2:0:0:
226,259,157969,2,0,L|230:212,1,43.1999986816407,2|0,3:2|0:0,0:0:0:0:
173,96,158230,2,0,P|125:87|55:192,1,172.799994726563,2|8,0:0|0:0,0:0:0:0:
99,317,159012,1,2,0:0:0:0:
99,317,159143,1,2,0:0:0:0:
99,317,159273,6,0,B|176:303|148:357|243:345,1,129.599996044922,2|0,3:2|0:0,0:0:0:0:
242,339,159795,1,10,0:2:0:0:
453,288,160056,1,2,0:2:0:0:
263,199,160317,1,2,0:2:0:0:
464,140,160578,1,2,3:2:0:0:
262,46,160838,1,10,0:2:0:0:
451,32,161099,5,2,0:2:0:0:
451,32,161230,1,2,0:2:0:0:
451,32,161360,1,6,3:2:0:0:
226,120,161621,1,2,3:2:0:0:
489,221,161882,1,10,0:2:0:0:
192,264,162143,5,6,3:2:0:0:
304,116,162404,1,2,3:0:0:0:
302,94,162534,1,2,3:0:0:0:
290,75,162665,1,2,3:0:0:0:
41,183,162925,5,8,0:0:0:0:
61,199,163056,1,2,3:0:0:0:
85,207,163186,1,2,3:0:0:0:
110,204,163317,1,2,3:0:0:0:
132,191,163447,5,6,3:2:0:0:
222,119,163708,1,2,0:0:0:0:
88,117,163969,1,8,0:0:0:0:
221,224,164230,1,2,3:2:0:0:
100,280,164491,2,0,B|180:264|156:318|246:302,1,144,2|8,0:0|0:0,0:0:0:0:
383,209,165273,1,2,0:0:0:0:
262,198,165534,6,0,B|250:183|255:168|266:168|275:182|267:197,1,50.3999984619141,2|0,3:2|0:0,0:0:0:0:
338,118,165795,6,0,B|329:100|338:86|349:91|354:105|343:118,1,50.3999984619141,2|0,0:2|0:0,0:0:0:0:
433,126,166056,6,0,B|430:113|444:102|454:107|454:122|439:131,1,50.3999984619141,10|0,0:2|0:0,0:0:0:0:
491,211,166317,6,0,B|492:197|508:191|514:198|512:213|495:217,1,50.3999984619141,2|0,3:2|0:0,0:0:0:0:
445,287,166578,6,0,B|408:261|397:217|397:217|383:200|369:213|369:213|348:257|305:271,1,201.599993847656,2|8,0:0|0:0,0:0:0:0:
262,198,167360,1,0,0:0:0:0:
84,272,167621,5,2,3:2:0:0:
233,344,167882,1,2,0:2:0:0:
172,202,168143,2,0,P|132:185|95:194,1,72,10|0,0:0|0:0,0:0:0:0:
157,344,168665,6,0,L|171:201,1,144,2|8,0:0|0:0,0:0:0:0:
112,59,169447,1,2,0:0:0:0:
283,131,169708,6,0,B|294:116|289:101|278:101|269:115|277:130,1,50.3999984619141,2|0,3:2|0:0,0:0:0:0:
207,51,169969,6,0,B|215:33|206:19|195:24|190:38|201:51,1,50.3999984619141,2|0,0:0|0:0,0:0:0:0:
112,59,170230,6,0,B|114:46|100:35|90:40|90:55|105:64,1,50.3999984619141,10|0,0:0|0:0,0:0:0:0:
54,144,170491,6,0,B|52:130|36:124|30:131|32:146|49:150,1,50.3999984619141,2|0,3:2|0:0,0:0:0:0:
100,220,170752,6,0,B|136:194|147:150|147:150|161:133|175:146|175:146|196:190|239:204,1,201.599993847656,0|8,0:0|0:0,0:0:0:0:
403,154,171534,1,2,0:2:0:0:
403,154,171665,1,2,0:2:0:0:
403,154,171795,5,6,3:2:0:0:
290,99,172056,1,2,0:2:0:0:
307,229,172317,2,0,L|354:238,1,36,10|0,0:0|0:0,0:0:0:0:
421,249,172578,2,0,L|468:258,1,36,2|0,3:2|0:0,0:0:0:0:
307,229,172838,6,0,B|240:215|242:275|159:254,1,144,2|8,0:0|0:0,0:0:0:0:
94,192,173621,1,2,0:0:0:0:
22,268,173882,6,0,L|31:347,2,72,2|0|10,3:2|0:0|0:2,0:0:0:0:
62,120,174665,1,2,3:2:0:0:
62,120,174795,1,2,0:2:0:0:
62,120,174925,2,0,P|101:111|177:183,1,144,2|8,0:2|0:0,0:0:0:0:
159,41,175708,1,2,0:0:0:0:
94,192,175969,5,0,3:0:0:0:
311,127,176230,1,2,0:2:0:0:
141,39,176491,1,10,0:2:0:0:
282,15,176751,1,2,3:2:0:0:
90,109,177012,1,2,0:2:0:0:
245,200,177273,1,0,3:0:0:0:
245,200,177404,1,0,3:0:0:0:
245,200,177534,2,0,L|294:206,1,36,10|0,0:0|0:0,0:0:0:0:
358,215,177795,2,0,L|407:221,1,36,2|0,0:0|0:0,0:0:0:0:
480,178,178056,6,0,P|444:138|393:125,1,108,2|0,3:2|0:0,0:0:0:0:
371,129,178578,1,8,0:0:0:0:
503,81,178838,1,4,0:0:0:0:
393,219,179099,5,2,3:0:0:0:
384,236,179230,1,2,3:0:0:0:
378,256,179360,1,2,3:0:0:0:
380,276,179491,1,2,3:0:0:0:
388,294,179621,1,8,0:0:0:0:
500,365,179882,1,2,3:0:0:0:
476,355,180012,1,2,3:0:0:0:
451,359,180143,5,6,3:2:0:0:
303,319,180404,1,2,0:0:0:0:
463,262,180665,1,8,0:0:0:0:
308,229,180925,1,2,3:2:0:0:
308,229,181056,1,2,0:0:0:0:
308,229,181186,2,0,B|236:220|243:275|160:253,1,144,2|8,0:0|0:0,0:0:0:0:
75,207,181969,1,2,0:0:0:0:
168,84,182230,6,0,B|161:66|171:54|182:57|185:74|173:84,1,50.3999984619141,2|0,3:2|0:0,0:0:0:0:
266,34,182491,6,0,B|264:14|277:5|285:13|285:27|271:36,1,50.3999984619141,2|0,0:0|0:0,0:0:0:0:
352,73,182752,6,0,B|354:60|371:54|378:63|373:77|356:80,1,50.3999984619141,10|0,0:0|0:0,0:0:0:0:
378,173,183013,6,0,B|383:160|401:160|404:169|397:182|379:180,1,50.3999984619141,2|0,3:2|0:0,0:0:0:0:
308,229,183274,6,0,B|282:192|287:147|287:147|280:126|262:134|262:134|227:168|182:166,1,201.599993847656,2|8,0:0|0:0,0:0:0:0:
51,74,184056,1,2,0:2:0:0:
194,75,184317,5,2,3:2:0:0:
39,155,184578,1,2,0:2:0:0:
176,170,184838,1,10,0:2:0:0:
35,65,185099,1,2,3:2:0:0:
192,59,185360,1,0,0:0:0:0:
21,166,185621,1,10,0:0:0:0:
179,187,185882,1,0,3:0:0:0:
51,74,186143,1,2,0:0:0:0:
265,190,186404,6,0,L|314:198,1,36,2|0,3:2|0:0,0:0:0:0:
411,220,186665,1,2,0:2:0:0:
411,220,186795,1,2,0:2:0:0:
411,220,186925,2,0,P|416:177|410:139,1,72,10|0,0:0|3:0,0:0:0:0:
297,84,187447,2,0,B|368:102|357:43|443:68,1,144,2|8,0:0|0:0,0:0:0:0:
503,139,188230,1,2,0:0:0:0:
281,78,188491,5,4,3:2:0:0:
411,220,188751,1,2,0:2:0:0:
218,190,189012,1,10,0:2:0:0:
358,158,189273,1,2,0:2:0:0:
179,112,189534,6,0,P|134:165|143:234,1,144,2|8,0:0|0:0,0:0:0:0:
278,302,190317,1,2,0:0:0:0:
278,302,190447,1,2,0:0:0:0:
278,302,190578,2,0,P|237:283|197:291,1,72,2|0,3:2|0:0,0:0:0:0:
98,311,191099,1,10,0:0:0:0:
218,190,191360,6,0,L|368:210,1,144,2|0,3:2|3:0,0:0:0:0:
382,212,192012,1,0,3:0:0:0:
382,212,192142,1,8,0:0:0:0:
488,164,192404,1,2,0:0:0:0:
460,365,192665,6,0,B|475:327|475:327|439:286|376:303,1,144,2|8,3:2|0:0,0:0:0:0:
220,308,193447,1,2,0:0:0:0:
382,212,193708,1,2,0:0:0:0:
185,147,193969,5,2,3:2:0:0:
392,59,194230,1,10,0:2:0:0:
206,32,194491,1,2,3:2:0:0:
206,32,194621,1,2,3:2:0:0:
206,32,194751,5,6,3:2:0:0:
384,197,195012,1,2,3:2:0:0:
406,42,195273,1,2,3:2:0:0:
174,173,195534,5,6,3:2:0:0:
174,173,196317,5,8,0:0:0:0:
174,173,196578,1,0,3:0:0:0:
87,130,196838,6,0,B|94:92|111:70|111:70|97:19|97:19|144:62|144:62|185:56|227:67|227:67|275:35|275:35|260:94|260:94|286:134|280:191|242:179|241:244|298:280|298:280|357:250|374:181|326:201|331:115|412:51|412:51|445:32|442:68|442:68|399:143|405:196|475:210|427:310|362:354|305:373|263:348|263:348|219:326|185:344|185:344|165:344|165:344|137:304|137:304|104:343|104:343|82:341|82:341|56:236|85:147,1,1728,2|0,0:0|0:0,0:0:0:0:
