osu file format v14

[General]
AudioFilename: sharlo.mp3
AudioLeadIn: 200
PreviewTime: 43337
Countdown: 0
SampleSet: Soft
StackLeniency: 0.7
Mode: 0
LetterboxInBreaks: 0
WidescreenStoryboard: 1

[Editor]
DistanceSpacing: 1.4
BeatDivisor: 4
GridSize: 4
TimelineZoom: 1.8

[Metadata]
Title:Shinkai Shoujo
TitleUnicode:深海少女
Artist:Sharlo
ArtistUnicode:Sharlo
Creator:yf_bmp
Version:Normal
Source:
Tags:Deep Sea Girl Osuidol SoGa Kencho yealina
BeatmapID:541220
BeatmapSetID:221768

[Difficulty]
HPDrainRate:4
CircleSize:3.5
OverallDifficulty:4
ApproachRate:5
SliderMultiplier:1.1
SliderTickRate:1

[Events]
//Background and Video events
0,0,"43975980.jpg",0,0
//Break Periods
2,61603,63706
2,128172,137283
2,154249,160057
2,189486,194655
//Storyboard Layer 0 (Background)
//Storyboard Layer 1 (Fail)
//Storyboard Layer 2 (Pass)
//Storyboard Layer 3 (Foreground)
//Storyboard Sound Samples

[TimingPoints]
1841,437.956204379562,4,2,1,100,1,0
7972,-100,4,2,2,100,0,0
8081,-100,4,2,1,100,0,0
9724,-100,4,2,2,100,0,0
9833,-100,4,2,1,100,0,0
12351,-100,4,2,3,40,0,0
14049,-100,4,2,1,50,0,0
14158,-100,4,2,3,50,0,0
43008,-100,4,2,3,80,0,0
43884,-100,4,2,3,60,0,1
61403,-100,4,2,3,50,0,0
92059,-100,4,2,3,80,0,0
92935,-100,4,2,3,60,0,1
110454,-100,4,2,3,50,0,0
113519,-100,4,2,3,30,0,0
113957,-100,4,2,3,50,0,0
117023,-100,4,2,3,30,0,0
117461,-100,4,2,3,50,0,0
161256,-100,4,2,3,40,0,0
170016,-100,4,2,3,50,0,0
171768,-100,4,2,3,60,0,1
178337,-100,4,2,3,50,0,0
178775,-100,4,2,3,60,0,1
184030,-100,4,2,3,40,0,1
184468,-100,4,2,3,50,0,1
184906,-100,4,2,3,60,0,1
189286,-100,4,2,3,50,0,0

[Colours]
Combo1 : 254,90,143
Combo2 : 173,91,255
Combo3 : 60,141,253
Combo4 : 66,255,51

[HitObjects]
152,284,1840,6,0,B|252:224|256:332|360:268,1,220,2|8,3:3|1:3,0:0:0:0:
472,160,3154,1,2,1:2:0:0:
360,52,3592,2,0,P|296:32|240:56,2,110,4|2|2,1:3|1:2|1:2,0:0:0:0:
300,192,4906,1,2,1:2:0:0:
152,152,5344,6,0,L|42:155,1,110,2|4,1:1|1:3,0:0:0:0:
148,268,6220,2,0,P|163:320|160:375,1,110,4|2,1:1|1:3,0:0:0:0:
300,308,7096,2,0,B|368:324|340:296|409:311,2,110,8|2|2,1:2|1:3|1:3,0:0:0:0:
320,156,8410,1,4,1:1:0:0:
468,108,8848,6,0,L|464:224,1,110,4|2,1:3|1:3,0:0:0:0:
320,156,9724,2,0,L|204:152,2,110,8|4|4,1:3|1:3|1:1,0:0:0:0:
388,16,11038,1,4,1:3:0:0:
240,56,11476,6,0,B|296:28|348:84|348:84|400:108|444:72,2,220,4|2|2,1:1|0:0|0:0,0:0:0:0:
184,200,13665,1,0,0:0:0:0:
284,316,14103,6,0,B|299:293|298:262|298:262|266:214|290:146|358:142|398:190|374:236,1,275,0|4,3:2|3:3,0:0:0:0:
372,316,15417,1,8,1:2:0:0:
460,188,15855,6,0,L|476:72,2,110,2|8|2,3:3|0:0|0:0,0:0:0:0:
340,88,17169,1,8,0:0:0:0:
200,148,17607,6,0,P|147:160|95:143,2,110,2|8|2,3:2|0:0|0:0,0:0:0:0:
108,272,18921,2,0,L|104:328,1,55,8|0,0:0|3:0,0:0:0:0:
176,356,19359,6,0,B|212:352|240:376|240:376|266:366|280:352,1,110,2|8,3:2|0:0,0:0:0:0:
340,312,20016,1,2,3:2:0:0:
340,312,20235,2,0,P|392:298|442:318,2,110,2|8|2,0:2|0:0|3:2,0:0:0:0:
256,184,21549,6,0,L|260:128,1,55,8|2,0:2|0:0,0:0:0:0:
316,76,21986,2,0,L|312:20,2,55,0|0|8,3:0|3:0|0:0,0:0:0:0:
383,119,22643,1,2,3:0:0:0:
383,119,22862,6,0,P|397:169|447:184,1,110,2|8,3:2|0:0,0:0:0:0:
348,300,23738,2,0,L|280:296,1,55,2|2,0:0|0:0,0:0:0:0:
224,260,24176,2,0,P|172:244|124:272,1,110,8|2,0:0|3:2,0:0:0:0:
8,364,25052,2,0,L|0:309,2,55,8|2|2,0:0|3:2|0:2,0:0:0:0:
40,212,25928,2,0,L|44:152,1,55,8|0,0:0|3:0,0:0:0:0:
15,84,26366,6,0,P|69:81|110:116,1,110,2|8,3:2|0:0,0:0:0:0:
256,164,27242,2,0,P|310:167|351:132,1,110,2|8,0:2|0:0,0:0:0:0:
472,39,28118,6,0,P|460:64|459:92,1,55,4|8,3:1|3:3,0:0:0:0:
480,168,28556,2,0,L|476:232,1,55,8|4,3:0|3:0,0:0:0:0:
440,292,28994,2,0,B|404:276|398:237|398:237|399:199,1,110,0|8,3:0|3:2,0:0:0:0:
324,64,29870,5,2,0:3:0:0:
204,264,30527,1,0,3:0:0:0:
204,264,30746,2,0,B|160:248|120:256|120:256|104:212|131:181,1,165,8|0,1:2|3:0,0:0:0:0:
200,148,31622,2,0,P|278:154|320:88,1,165,0|0,3:0|3:0,0:0:0:0:
172,52,32716,2,0,L|108:60,2,55,0|8|0,3:0|1:2|0:0,0:0:0:0:
244,83,33373,6,0,P|286:17|364:24,1,165,0|0,3:0|3:0,0:0:0:0:
428,72,34249,2,0,B|437:99|431:123|431:123|441:151|435:179|435:179|444:210|439:234,1,165,8|0,1:2|3:0,0:0:0:0:
364,216,35125,2,0,P|361:243|376:280,1,55,8|8,3:3|1:2,0:0:0:0:
396,344,35563,2,0,B|336:364|348:324|289:341,1,110,4|0,3:0|3:0,0:0:0:0:
148,280,36439,2,0,L|88:288,2,55,8|8|2,1:2|1:2|3:0,0:0:0:0:
256,168,37315,5,0,3:0:0:0:
104,196,37753,1,0,3:2:0:0:
180,60,38191,1,8,1:2:0:0:
336,60,38629,1,4,3:2:0:0:
408,196,39067,1,0,3:0:0:0:
256,168,39505,2,0,B|256:192|256:192|260:200|260:200|260:222,2,55,8|10|8,3:2|0:0|3:2,0:0:0:0:
316,311,40381,6,0,P|265:332|213:317,1,110,4|8,3:2|1:2,0:0:0:0:
148,276,41038,2,0,L|38:283,1,110,4|8,3:2|1:2,0:0:0:0:
4,212,41695,1,0,3:0:0:0:
22,136,41913,6,0,B|32:104|72:80|112:88|112:88|132:108|160:112|160:112|192:108|212:92|212:92|240:96|260:113,1,275,4|0,0:1|3:0,0:0:0:0:
260,112,43884,6,0,L|247:230,1,110,4|8,3:1|1:2,0:0:0:0:
344,344,44760,2,0,L|340:289,2,55,0|2|8,3:0|0:0|1:2,0:0:0:0:
492,300,45636,2,0,L|504:181,1,110,0|8,3:0|1:2,0:0:0:0:
372,108,46512,2,0,L|368:48,2,55,0|2|8,3:0|3:2|1:2,0:0:0:0:
220,88,47388,6,0,B|181:76|145:99|110:90,1,110,4|8,3:2|1:2,0:0:0:0:
52,40,48045,1,2,0:0:0:0:
52,40,48264,2,0,P|32:89|51:140,1,110,0|8,3:0|1:2,0:0:0:0:
172,236,49140,2,0,B|252:220|252:220|248:264,2,110,2|4|4,3:0|3:0|3:2,0:0:0:0:
316,292,50454,2,0,L|384:296,1,55,8|8,1:2|1:2,0:0:0:0:
436,252,50892,6,0,P|448:308|416:360,2,110,4|8|0,3:1|1:2|3:2,0:0:0:0:
312,160,52205,2,0,L|320:92,1,55,8|0,1:2|0:0,0:0:0:0:
372,48,52643,2,0,L|496:36,2,110,0|8|4,3:0|1:2|0:0,0:0:0:0:
220,28,53957,1,10,1:2:0:0:
76,80,54395,6,0,L|92:200,1,110,4|8,3:2|0:1,0:0:0:0:
8,320,55271,2,0,L|4:376,2,55,8|0|8,0:1|3:0|1:0,0:0:0:0:
160,332,56147,2,0,L|216:336,2,55,0|0|0,3:0|3:0|3:0,0:0:0:0:
196,256,56804,2,0,L|252:252,2,55,0|2|0,3:0|1:3|3:0,0:0:0:0:
220,176,57461,1,8,1:2:0:0:
324,288,57899,5,4,3:1:0:0:
256,192,58118,12,2,61403,3:0:0:0:
232,240,64906,6,0,L|348:256,2,110,2|8|2,3:3|0:0|2:2,0:0:0:0:
356,332,66220,2,0,L|420:324,1,55,8|0,0:0|0:0,0:0:0:0:
464,269,66658,6,0,P|481:217|468:164,2,110,2|8|2,3:2|0:0|0:0,0:0:0:0:
396,128,67972,2,0,L|400:72,1,55,8|0,0:0|3:0,0:0:0:0:
328,44,68410,6,0,B|292:48|264:24|264:24|238:34|224:48,1,110,2|8,3:2|0:0,0:0:0:0:
152,52,69067,1,8,3:1:0:0:
152,52,69286,2,0,L|160:176,1,110,2|8,0:2|0:0,0:0:0:0:
216,216,69943,1,4,3:2:0:0:
236,139,70162,1,2,0:0:0:0:
236,139,70381,6,0,P|288:142|317:187,1,110,8|2,1:2|0:0,0:0:0:0:
360,256,71038,1,0,3:0:0:0:
248,364,71476,2,0,L|316:368,1,55,8|2,1:2|3:0,0:0:0:0:
288,288,71913,6,0,L|168:280,1,110,2|8,3:2|0:0,0:0:0:0:
204,128,72789,2,0,L|224:68,1,55,2|0,0:0|3:0,0:0:0:0:
288,124,73227,2,0,P|340:140|388:112,1,110,8|2,0:0|3:2,0:0:0:0:
508,20,74103,2,0,L|516:76,2,55,8|8|2,0:0|3:1|0:0,0:0:0:0:
472,172,74979,2,0,L|468:232,1,55,8|0,0:0|3:0,0:0:0:0:
497,300,75417,6,0,P|443:303|402:268,1,110,2|8,3:2|0:0,0:0:0:0:
256,216,76293,2,0,P|202:213|161:248,1,110,2|8,0:2|1:2,0:0:0:0:
40,345,77169,6,0,P|52:320|53:292,1,55,4|8,3:1|3:3,0:0:0:0:
32,216,77607,2,0,L|36:152,1,55,8|4,3:0|3:3,0:0:0:0:
72,92,78045,2,0,P|115:67|178:80,1,110,0|8,3:0|1:2,0:0:0:0:
309,151,78921,6,0,B|396:134|376:200|464:183,2,165,2|0|0,3:0|3:0|3:0,0:0:0:0:
172,76,80673,1,0,3:0:0:0:
172,75,80892,2,0,P|147:153|177:228,1,165,0|0,3:0|3:0,0:0:0:0:
332,228,81986,2,0,L|328:300,1,55,8|0,1:2|0:0,0:0:0:0:
284,344,82424,6,0,B|196:327|216:392|128:376,1,165,0|0,3:0|3:0,0:0:0:0:
64,336,83300,2,0,P|35:260|58:182,1,165,8|0,1:2|3:0,0:0:0:0:
44,108,84176,2,0,P|46:80|39:54,1,55,0|8,3:0|1:2,0:0:0:0:
116,40,84614,2,0,B|180:24|156:60|224:44,1,110,8|0,0:3|3:0,0:0:0:0:
364,104,85490,2,0,L|424:96,2,55,8|8|2,1:2|0:0|3:3,0:0:0:0:
256,216,86366,5,0,0:0:0:0:
408,188,86804,1,0,3:2:0:0:
332,324,87242,1,0,1:2:0:0:
176,324,87680,1,4,3:2:0:0:
104,188,88118,1,0,3:0:0:0:
256,216,88556,2,0,B|256:192|256:192|252:184|252:184|252:162,2,55,8|10|8,3:2|0:0|3:2,0:0:0:0:
196,73,89432,6,0,P|247:52|299:67,1,110,4|8,3:2|1:2,0:0:0:0:
364,108,90089,2,0,L|476:100,1,110,4|8,3:2|1:2,0:0:0:0:
512,168,90746,2,0,P|512:196|507:223,1,55,0|4,3:0|0:1,0:0:0:0:
452,280,91184,6,0,B|432:296|400:296|400:296|380:276|352:272|352:272|320:276|300:292|300:292|272:288|252:271,1,220,8|0,1:2|3:0,0:0:0:0:
251,270,92935,6,0,L|264:152,1,110,4|8,3:1|1:2,0:0:0:0:
168,40,93811,2,0,L|172:95,2,55,0|2|8,3:0|0:0|1:2,0:0:0:0:
20,84,94687,2,0,L|8:203,1,110,0|8,3:0|1:2,0:0:0:0:
140,276,95563,2,0,L|144:336,2,55,0|0|8,3:0|0:0|1:2,0:0:0:0:
292,296,96439,6,0,B|360:308|336:284|400:293,1,110,2|0,3:0|1:2,0:0:0:0:
460,344,97096,1,2,0:0:0:0:
460,344,97315,2,0,P|480:295|461:244,1,110,0|8,3:0|1:2,0:0:0:0:
340,148,98191,6,0,B|260:164|260:164|232:192,2,110,2|4|4,3:0|3:3|3:2,0:0:0:0:
196,92,99505,2,0,L|128:88,1,55,8|8,1:2|1:2,0:0:0:0:
76,132,99943,6,0,P|64:76|96:24,2,110,4|8|0,3:1|1:2|3:0,0:0:0:0:
200,224,101257,2,0,L|192:292,1,55,8|0,1:2|1:0,0:0:0:0:
140,336,101695,2,0,L|16:348,2,110,0|8|4,3:0|1:2|0:0,0:0:0:0:
292,356,103008,1,8,1:2:0:0:
436,304,103446,6,0,L|420:184,1,110,4|8,3:2|0:1,0:0:0:0:
504,64,104322,2,0,L|508:8,2,55,8|0|8,0:1|3:2|1:2,0:0:0:0:
352,52,105198,2,0,L|296:48,2,55,0|0|0,3:0|3:0|3:0,0:0:0:0:
316,128,105855,2,0,L|261:131,2,55,0|2|0,3:0|1:3|3:0,0:0:0:0:
292,208,106512,1,8,1:2:0:0:
188,96,106950,5,4,3:1:0:0:
256,192,107169,12,2,108702,3:3:0:0:
328,216,110016,5,0,3:0:0:0:
292,64,110454,6,0,B|464:72,2,165,4|4|10,1:0|1:2|1:2,0:0:0:0:
184,176,112205,2,0,P|124:112|136:40,2,165,4|4|8,1:0|1:2|1:2,0:0:0:0:
220,320,113957,6,0,B|48:312,2,165,4|4|10,1:0|1:2|1:2,0:0:0:0:
328,216,115709,2,0,P|388:280|376:352,2,165,4|4|8,1:0|1:2|1:2,0:0:0:0:
172,204,117461,6,0,P|224:205|255:162,1,110,4|8,1:0|1:2,0:0:0:0:
248,84,118118,2,0,B|220:56|176:64|176:64|144:104|99:96,1,165,2|8,3:2|1:2,0:0:0:0:
20,228,119213,6,0,L|32:328,2,82.5,8|8|0,1:2|1:2|3:0,0:0:0:0:
71,168,120089,1,4,1:2:0:0:
71,168,120965,6,0,P|99:167|126:172,2,55,0|0|0,3:2|3:2|3:2,0:0:0:0:
127,91,121622,2,0,P|154:98|179:110,2,55,0|0|0,3:2|3:2|3:2,0:0:0:0:
200,32,122278,2,0,P|227:48|251:70,1,55,8|8,1:2|1:2,0:0:0:0:
252,140,122716,6,0,L|248:248,1,82.5,2|12,1:3|0:0,0:0:0:0:
360,260,123373,2,0,L|364:368,1,82.5,8|12,1:2|0:0,0:0:0:0:
476,352,124030,2,0,L|468:296,2,55,0|8|2,3:0|1:2|3:3,0:0:0:0:
256,192,124687,12,0,127972,0:0:0:0:
444,88,138483,6,0,B|401:81|366:104|366:104|318:96|293:49|293:49|218:39|218:39|178:72|186:132|237:145,1,385,2|0,3:3|3:0,2:0:0:0:
308,172,140235,2,0,B|368:208|424:172|424:172|488:236|440:312|440:312|388:305,1,330,0|0,3:0|0:0,2:0:0:0:
320,272,141768,1,0,3:0:0:0:
320,272,141986,6,0,B|244:269|196:205|224:129|224:129|176:181|108:153|108:153|92:209,1,385,0|0,3:0|3:0,2:0:0:0:
156,248,143738,2,0,B|116:308|16:296|-4:208|28:160|28:160|44:104|6:77,1,330,0|0,3:0|2:0,0:0:0:0:
64,24,145271,1,0,3:0:0:0:
64,24,145490,6,0,B|108:56|112:116|112:116|168:88|220:100|220:100|236:41|288:16|288:16|344:24,1,385,2|0,3:0|3:0,2:0:0:0:
420,24,147242,2,0,B|420:76|368:116|308:96|308:96|276:148|291:201|291:201|408:215,1,385,0|0,3:0|3:0,2:0:0:0:
444,144,148994,6,0,B|484:164|504:200|496:260|446:285|446:285|376:292|352:334|352:334|372:380,1,330,0|0,3:0|2:0,2:0:0:0:
448,368,150527,2,0,L|504:360,1,55,0|0,3:0|3:0,0:0:0:0:
256,192,150965,12,0,152497,0:0:0:0:
96,80,161257,6,0,P|88:132|104:188,1,110,0|0,3:0|3:0,0:0:0:0:
184,316,162132,2,0,L|180:204,1,110,0|0,3:0|3:0,0:0:0:0:
331,206,163008,2,0,L|328:316,1,110,0|0,3:0|3:0,0:0:0:0:
408,184,163884,2,0,P|433:110|378:54,1,165,12|0,0:0|3:0,0:0:0:0:
304,40,164760,6,0,L|192:48,1,110,2|0,3:3|0:0,0:0:0:0:
92,164,165636,2,0,L|32:160,2,55,0|0|8,0:0|3:0|0:1,0:0:0:0:
116,316,166512,5,2,0:0:0:0:
256,248,166950,1,0,0:0:0:0:
396,316,167388,2,0,L|456:312,2,55,2|0|8,0:0|3:0|1:2,0:0:0:0:
388,240,168045,2,0,L|324:232,1,55,4|2,3:2|0:0,0:0:0:0:
256,192,168483,12,4,170016,1:2:0:0:
476,280,171330,6,0,L|416:272,1,55,8|0,0:0|1:0,0:0:0:0:
352,308,171768,6,0,L|234:321,1,110,4|8,3:1|1:2,0:0:0:0:
120,224,172643,2,0,L|175:228,2,55,0|2|8,3:1|0:0|1:2,0:0:0:0:
164,76,173519,2,0,L|283:64,1,110,2|8,3:2|1:2,0:0:0:0:
356,196,174395,2,0,L|416:200,2,55,2|0|8,3:2|0:0|1:2,0:0:0:0:
256,312,175271,6,0,B|217:324|181:301|146:310,1,110,2|8,3:3|1:2,0:0:0:0:
88,360,175928,1,2,0:2:0:0:
88,360,176147,2,0,P|68:311|87:260,1,110,0|8,3:0|1:2,0:0:0:0:
208,164,177023,6,0,B|288:180|288:180|324:160,2,110,2|4|4,3:3|0:0|0:0,0:0:0:0:
92,264,178337,2,0,L|88:196,1,55,8|8,1:2|1:2,0:0:0:0:
132,144,178775,6,0,P|76:132|24:164,2,110,4|8|0,3:1|1:2|3:0,0:0:0:0:
224,268,180089,2,0,L|292:260,1,55,8|0,1:2|1:0,0:0:0:0:
336,208,180527,2,0,L|348:84,2,110,2|8|4,3:0|1:2|0:0,0:0:0:0:
356,360,181840,1,8,1:2:0:0:
216,300,182278,6,0,L|336:284,1,110,4|8,3:1|1:2,0:0:0:0:
456,368,183154,2,0,L|512:372,2,55,8|0|2,1:2|3:0|1:3,0:0:0:0:
468,216,184030,2,0,L|472:160,2,55,10|10|10,1:2|1:2|1:2,0:0:0:0:
392,180,184687,2,0,L|388:124,2,55,10|4|2,1:2|1:2|0:0,0:0:0:0:
312,156,185344,1,8,1:2:0:0:
424,52,185782,5,4,3:1:0:0:
256,192,186001,12,2,189286,1:3:0:0:
104,328,195855,5,8,1:2:0:0:
192,200,196293,6,0,P|204:252|181:301,1,110,2|8,3:3|1:2,0:0:0:0:
44,232,197169,2,0,P|31:179|54:130,1,110,8|8,1:2|1:2,0:0:0:0:
208,124,198045,2,0,L|320:120,1,110,0|8,1:0|1:2,0:0:0:0:
456,48,198921,2,0,L|344:44,1,110,2|8,1:3|1:2,0:0:0:0:
336,199,199797,6,0,P|297:293|382:348,2,220,4|8|8,0:0|0:1|3:2,0:0:0:0:
480,144,201986,1,8,3:2:0:0:
352,60,202424,2,0,P|297:62|251:91,1,110,4|8,0:0|1:2,0:0:0:0:
96,88,203300,6,0,L|0:80,2,82.5,4|8|12,3:1|1:2|0:0,0:0:0:0:
156,140,204176,2,0,L|148:204,1,55,0|0,3:0|3:0,0:0:0:0:
96,252,204614,2,0,L|0:260,2,82.5,12|8|2,1:2|1:2|1:3,0:0:0:0:
152,308,205490,2,0,L|216:312,1,55,0|0,3:0|3:0,0:0:0:0:
280,288,205928,2,0,L|336:284,2,55,10|0|0,1:2|3:0|3:0,0:0:0:0:
248,136,206804,5,4,0:1:0:0:
256,192,207023,12,12,210089,1:2:0:0:
