osu file format v14

[General]
AudioFilename: sharlo.mp3
AudioLeadIn: 200
PreviewTime: 43337
Countdown: 0
SampleSet: Soft
StackLeniency: 0.7
Mode: 0
LetterboxInBreaks: 0
WidescreenStoryboard: 1

[Editor]
DistanceSpacing: 0.7
BeatDivisor: 4
GridSize: 4
TimelineZoom: 2.599999

[Metadata]
Title:Shinkai Shoujo
TitleUnicode:深海少女
Artist:Sharlo
ArtistUnicode:Sharlo
Creator:yf_bmp
Version:Insane
Source:
Tags:Deep Sea Girl Osuidol SoGa Kencho yealina
BeatmapID:518731
BeatmapSetID:221768

[Difficulty]
HPDrainRate:6.5
CircleSize:4.5
OverallDifficulty:7.5
ApproachRate:8.5
SliderMultiplier:1.4
SliderTickRate:1

[Events]
//Background and Video events
0,0,"43975980.jpg",0,0
//Break Periods
2,138683,152449
//Storyboard Layer 0 (Background)
//Storyboard Layer 1 (Fail)
//Storyboard Layer 2 (Pass)
//Storyboard Layer 3 (Foreground)
//Storyboard Sound Samples

[TimingPoints]
1841,437.956204379562,4,2,1,100,1,0
1841,-133.333333333333,4,2,1,100,0,0
6877,-133.333333333333,4,2,1,40,0,0
6986,-133.333333333333,4,2,1,100,0,0
7972,-133.333333333333,4,2,2,100,0,0
8081,-133.333333333333,4,2,1,100,0,0
9724,-133.333333333333,4,2,2,100,0,0
9833,-133.333333333333,4,2,1,100,0,0
12351,-133.333333333333,4,2,3,40,0,0
12570,-133.333333333333,4,2,3,20,0,0
13008,-133.333333333333,4,2,3,40,0,0
13446,-133.333333333333,4,2,3,20,0,0
13556,-133.333333333333,4,2,3,40,0,0
14049,-133.333333333333,4,2,1,50,0,0
14103,-100,4,2,3,50,0,0
15417,-76.9230769230769,4,2,3,50,0,0
15746,-76.9230769230769,4,2,3,5,0,0
15855,-100,4,2,3,50,0,0
21877,-100,4,2,3,30,0,0
21986,-100,4,2,3,50,0,0
39395,-76.9230769230769,4,2,3,50,0,0
40162,-133.333333333333,4,2,3,50,0,0
40381,-76.9230769230769,4,2,3,50,0,0
42789,-76.9230769230769,4,2,3,80,0,0
43446,-200,4,2,3,50,0,0
43775,-200,4,2,3,5,0,0
43884,-100,4,2,3,60,0,1
49140,-66.6666666666667,4,2,3,60,0,1
49359,-66.6666666666667,4,2,3,50,0,1
50235,-76.9230769230769,4,2,3,30,0,1
50454,-76.9230769230769,4,2,3,40,0,1
50673,-76.9230769230769,4,2,3,50,0,1
50892,-100,4,2,3,60,0,1
54395,-133.333333333333,4,2,3,60,0,1
55709,-100,4,2,3,60,0,1
57461,-133.333333333333,4,2,3,50,0,1
57789,-133.333333333333,4,2,3,5,0,1
57899,-66.6666666666667,4,2,3,50,0,1
61403,-133.333333333333,4,2,3,50,0,0
64906,-100,4,2,3,50,0,0
69943,-66.6666666666667,4,2,3,50,0,0
70381,-100,4,2,3,30,0,0
70545,-100,4,2,3,50,0,0
88446,-76.9230769230769,4,2,3,50,0,0
89213,-133.333333333333,4,2,3,50,0,0
89432,-76.9230769230769,4,2,3,50,0,0
91840,-76.9230769230769,4,2,3,80,0,0
92497,-200,4,2,3,50,0,0
92826,-200,4,2,3,5,0,0
92935,-100,4,2,3,60,0,1
98191,-66.6666666666667,4,2,3,60,0,1
98410,-66.6666666666667,4,2,3,50,0,1
99286,-76.9230769230769,4,2,3,30,0,1
99505,-66.6666666666667,4,2,3,40,0,1
99724,-66.6666666666667,4,2,3,50,0,1
99943,-100,4,2,3,60,0,1
103446,-133.333333333333,4,2,3,60,0,1
104760,-100,4,2,3,60,0,1
106512,-133.333333333333,4,2,3,50,0,1
106950,-66.6666666666667,4,2,3,50,0,1
110016,-133.333333333333,4,2,3,50,0,1
110344,-133.333333333333,4,2,3,5,0,1
110454,-66.6666666666667,4,2,3,50,0,0
113519,-66.6666666666667,4,2,3,30,0,0
113738,-66.6666666666667,4,2,3,40,0,0
113957,-66.6666666666667,4,2,3,50,0,0
117023,-66.6666666666667,4,2,3,30,0,0
117242,-100,4,2,3,50,0,0
120089,-133.333333333333,4,2,3,50,0,0
120964,-100,4,2,3,50,0,0
122716,-66.6666666666667,4,2,3,50,0,0
124468,-100,4,2,3,50,0,0
130600,-76.9230769230769,4,2,3,50,0,0
131476,-100,4,2,3,50,0,0
136074,-100,4,2,3,30,0,0
136293,-100,4,2,3,40,0,0
136512,-100,4,2,3,50,0,0
154249,-200,4,2,2,80,0,0
161256,-133.333333333333,4,2,3,40,0,0
163665,-100,4,2,3,30,0,0
163884,-66.6666666666667,4,2,3,40,0,0
164103,-66.6666666666667,4,2,3,20,0,0
164541,-133.333333333333,4,2,3,40,0,0
169140,-133.333333333333,4,2,3,50,0,0
170016,-66.6666666666667,4,2,3,50,0,0
171768,-83.3333333333333,4,2,3,60,0,1
177461,-66.6666666666667,4,2,3,60,0,1
178118,-83.3333333333333,4,2,3,30,0,1
178337,-66.6666666666667,4,2,3,40,0,0
178556,-66.6666666666667,4,2,3,50,0,0
178775,-83.3333333333333,4,2,3,60,0,1
181403,-58.8235294117647,4,2,3,60,0,1
181841,-66.6666666666667,4,2,3,60,0,1
182278,-83.3333333333333,4,2,3,60,0,1
183592,-66.6666666666667,4,2,3,60,0,1
184030,-83.3333333333333,4,2,3,40,0,1
184468,-83.3333333333333,4,2,3,50,0,1
184906,-100,4,2,3,60,0,1
188300,-100,4,2,3,20,0,1
188355,-100,4,2,3,60,0,1
189286,-100,4,2,3,50,0,0
195636,-100,4,2,3,30,0,0
195855,-100,4,2,3,40,0,0
196074,-100,4,2,3,50,0,0
201548,-100,4,2,3,30,0,0
201986,-100,4,2,3,40,0,0
202424,-100,4,2,3,50,0,0
203300,-66.6666666666667,4,2,3,50,0,0
206366,-133.333333333333,4,2,3,50,0,0
206695,-133.333333333333,4,2,3,20,0,0
206804,-100,4,2,3,50,0,0

[Colours]
Combo1 : 254,90,143
Combo2 : 173,91,255
Combo3 : 60,141,253
Combo4 : 66,255,51

[HitObjects]
52,136,1841,6,0,B|143:80|155:192|249:135,1,210.000008010865,2|8,3:3|1:3,0:0:0:0:
249,135,3154,2,0,L|300:168,1,52.5000020027161,2|2,1:2|1:2,0:0:0:0:
380,224,3592,6,0,L|392:332,2,105.000004005432,4|2|2,1:3|1:2|1:2,0:0:0:0:
380,224,5344,6,0,P|401:217|430:214,1,52.5000020027161,2|8,1:1|1:1,0:0:0:0:
292,280,5782,2,0,B|244:300|240:264|189:283,1,105.000004005432,4|4,1:3|1:1,0:0:0:0:
216,372,6439,1,8,1:0:0:0:
108,236,6658,2,0,P|96:259|95:285,1,52.5000020027161,2|2,1:3|1:3,0:0:0:0:
264,192,7096,6,0,L|260:120,1,52.5000020027161,8|4,1:2|1:3,0:0:0:0:
189,23,7534,2,0,L|185:95,1,52.5000020027161,2|4,1:3|1:2,0:0:0:0:
177,95,7862,2,0,L|181:115,2,13.125000500679,2|2|2,1:2|1:2|1:3,0:0:0:0:
93,51,8191,5,4,1:3:0:0:
177,95,8410,1,4,1:1:0:0:
4,320,8848,6,0,P|-3:292|4:264,1,52.5000020027161,4|2,1:3|1:2,0:0:0:0:
92,240,9286,2,0,P|99:268|92:296,1,52.5000020027161,2|2,1:3|1:2,0:0:0:0:
164,352,9724,2,0,B|212:340|220:372|267:361,1,105.000004005432,8|4,1:3|1:3,0:0:0:0:
348,312,10381,1,2,1:2:0:0:
436,348,10600,6,0,L|440:288,1,52.5000020027161,4|2,1:1|1:2,0:0:0:0:
392,216,11038,2,0,L|388:156,1,52.5000020027161,4|2,1:3|1:2,0:0:0:0:
340,40,11476,2,0,P|376:72|428:56,1,105.000004005432,4|2,1:1|1:2,0:0:0:0:
260,28,12132,1,2,1:2:0:0:
224,48,12242,1,2,1:2:0:0:
184,48,12351,6,0,P|156:37|140:20,1,52.5000020027161,2|0,0:0|0:0,0:0:0:0:
288,108,12789,2,0,L|280:160,1,52.5000020027161,0|2,0:0|0:0,0:0:0:0:
240,232,13118,1,2,0:0:0:0:
240,232,13227,2,0,P|232:260|244:292,1,52.5000020027161
392,316,13665,2,0,P|365:318|342:329,1,52.5000020027161
264,364,13994,2,0,L|246:372,2,13.125000500679,2|0|2,0:0|3:0|0:0,0:0:0:0:
256,192,14213,12,0,15198,3:0:0:0:
176,200,15417,6,0,P|220:160|168:124,1,136.499993751526,8|0,1:2|0:0,0:0:0:0:
92,172,15855,6,0,B|88:208|88:208|95:240,1,70,2|0,3:3|0:0,0:0:0:0:
240,296,16293,2,0,L|144:288,1,70,8|2,0:0|3:2,0:0:0:0:
311,172,16731,2,0,P|346:167|379:179,1,70,2|0,0:0|3:2,0:0:0:0:
460,276,17169,2,0,B|436:224|484:200|456:140,1,140,8|2,0:0|3:2,0:0:0:0:
356,40,17826,5,0,0:0:0:0:
379,179,18045,2,0,P|347:168|312:172,1,70,8|2,0:0|3:2,0:0:0:0:
204,292,18483,2,0,P|192:324|196:359,1,70,2|0,0:0|3:0,0:0:0:0:
212,192,18921,2,0,L|142:180,1,70,8|0,0:0|3:0,0:0:0:0:
76,28,19359,6,0,P|96:102|52:140,1,140,2|8,3:2|0:0,0:0:0:0:
54,139,20016,1,2,3:2:0:0:
55,287,20235,2,0,P|50:253|65:222,1,70,2|0,0:2|3:0,0:0:0:0:
212,192,20673,1,8,0:0:0:0:
208,352,20892,1,0,3:0:0:0:
192,312,21001,1,0,3:2:0:0:
204,272,21111,6,0,L|273:265,1,70,2|0,3:2|0:0,0:0:0:0:
364,352,21549,1,8,0:2:0:0:
324,200,21768,1,2,0:0:0:0:
332,184,21877,2,0,P|343:171|352:164,2,17.5,8|0|0,0:3|1:0|3:0,0:0:0:0:
364,352,22205,1,0,3:0:0:0:
472,240,22424,1,8,0:0:0:0:
384,268,22643,1,2,3:0:0:0:
512,364,22862,5,2,3:2:0:0:
508,344,22972,1,8,0:0:0:0:
504,324,23081,1,0,3:0:0:0:
488,152,23300,1,8,0:0:0:0:
384,268,23519,1,2,0:0:0:0:
392,40,23738,2,0,L|403:179,1,140,2|8,0:0|0:0,0:0:0:0:
316,208,24395,1,2,3:2:0:0:
239,86,24614,6,0,L|236:156,1,70,2|0,3:2|0:0,0:0:0:0:
248,311,25052,2,0,P|250:277|234:246,1,70,8|2,0:0|3:2,0:0:0:0:
92,184,25490,2,0,P|120:203|155:205,1,70,2|0,0:2|3:0,0:0:0:0:
296,28,25928,1,8,0:0:0:0:
256,8,26038,1,8,0:0:0:0:
212,12,26147,1,0,3:0:0:0:
176,36,26257,1,8,0:0:0:0:
156,76,26366,6,0,L|88:56,1,70,2|0,3:2|0:0,0:0:0:0:
236,156,26804,2,0,L|304:136,1,70,8|2,0:0|3:2,0:0:0:0:
368,188,27132,1,8,0:0:0:0:
367,188,27242,2,0,P|402:187|428:209,1,70,2|8,0:2|0:3,0:0:0:0:
268,336,27680,1,8,0:0:0:0:
252,292,27789,1,0,3:0:0:0:
276,252,27899,1,0,3:0:0:0:
500,352,28118,5,4,3:1:0:0:
384,372,28337,1,8,3:3:0:0:
268,336,28556,1,8,3:0:0:0:
184,248,28775,1,4,3:0:0:0:
164,132,28994,2,0,P|166:113|172:96,2,35,0|8|0,3:0|1:2|3:0,0:0:0:0:
184,248,29432,1,8,3:2:0:0:
48,192,29651,1,0,3:0:0:0:
48,192,29760,1,0,3:2:0:0:
48,192,29870,6,0,B|24:220|16:248|16:248|36:280|32:332|32:332|68:337|92:328,1,210,2|0,0:3|3:0,0:0:0:0:
160,232,30746,2,0,P|192:156|156:100,1,140,8|0,1:2|0:0,0:0:0:0:
104,52,31403,1,0,3:0:0:0:
268,112,31622,6,0,L|407:98,1,140,0|0,3:0|0:0,0:0:0:0:
456,16,32278,1,0,3:0:0:0:
448,28,32716,1,0,3:0:0:0:
463,236,32935,2,0,P|467:201|453:169,1,70,8|0,1:2|0:0,0:0:0:0:
340,292,33373,6,0,L|336:372,1,70,0|0,3:0|0:0,0:0:0:0:
336,361,34030,1,0,3:0:0:0:
384,221,34249,2,0,P|318:207|268:252,1,140,8|0,1:2|0:0,0:0:0:0:
200,304,34906,1,0,3:0:0:0:
116,316,35125,5,8,3:3:0:0:
80,196,35344,1,8,1:2:0:0:
200,304,35563,1,4,3:0:0:0:
194,140,35782,1,8,1:2:0:0:
268,252,36001,5,0,3:0:0:0:
273,227,36111,1,8,1:2:0:0:
279,202,36220,1,8,1:2:0:0:
315,44,36439,1,8,1:2:0:0:
300,76,36549,1,4,3:3:0:0:
308,112,36658,1,8,1:2:0:0:
336,132,36768,1,8,1:2:0:0:
372,128,36877,5,2,3:0:0:0:
440,232,37096,1,2,0:0:0:0:
440,232,37205,1,2,0:0:0:0:
440,232,37315,2,0,L|509:238,1,70,0|2,3:0|0:0,0:0:0:0:
260,264,37753,6,0,P|291:249|326:251,1,70,0|2,3:2|0:0,0:0:0:0:
349,378,38191,2,0,P|320:360|304:328,1,70,8|2,1:2|0:0,0:0:0:0:
192,224,38629,6,0,P|161:239|126:237,1,70,4|2,3:2|0:0,0:0:0:0:
103,110,39067,2,0,P|131:127|147:159,1,70,0|2,3:0|0:0,0:0:0:0:
72,180,39395,5,8,0:0:0:0:
72,180,39505,2,0,P|68:136|102:109,1,90.9999958343508,8|10,3:2|0:0,0:0:0:0:
256,172,39943,1,8,3:2:0:0:
304,172,40052,1,8,1:2:0:0:
328,155,40162,2,0,P|334:143|337:130,1,26.2500010013581,8|0,3:0|3:0,0:0:0:0:
280,0,40381,6,0,L|268:92,1,90.9999958343508,4|0,3:2|0:0,0:0:0:0:
256,172,40709,1,8,1:2:0:0:
256,172,40819,1,8,1:2:0:0:
324,380,41038,2,0,L|296:244,1,136.499993751526,4|0,3:2|0:0,0:0:0:0:
256,172,41476,1,8,1:2:0:0:
280,0,41695,1,0,3:0:0:0:
85,162,41913,6,0,L|176:168,1,90.9999958343508,4|8,0:1|1:2,0:0:0:0:
393,125,42351,1,0,3:0:0:0:
353,113,42461,1,8,1:2:0:0:
313,117,42570,1,8,1:2:0:0:
277,137,42680,1,0,3:0:0:0:
256,172,42789,2,0,P|256:192|264:216,1,45.4999979171754,0|0,3:0|3:0,0:0:0:0:
328,320,43008,1,0,3:0:0:0:
312,332,43446,6,0,L|244:336,1,52.5
196,296,43884,6,0,P|161:292|128:304,1,70,4|0,3:1|0:0,0:0:0:0:
308,200,44322,2,0,P|340:211|375:207,1,70,8|2,1:2|0:0,0:0:0:0:
272,64,44760,1,0,3:0:0:0:
235,232,44979,1,2,0:0:0:0:
372,340,45198,2,0,L|444:352,1,70,8|0,1:2|0:0,0:0:0:0:
441,351,45527,1,8,1:2:0:0:
441,351,45636,5,0,3:0:0:0:
272,300,45855,1,2,0:0:0:0:
108,364,46074,2,0,P|73:365|40:352,1,70,8|2,1:2|0:0,0:0:0:0:
100,188,46512,2,0,P|116:236|92:284,1,105,0|0,3:0|3:0,0:0:0:0:
0,240,46950,2,0,P|16:234|34:233,1,35,8|8,1:2|1:2,0:0:0:0:
176,308,47169,1,2,3:2:0:0:
39,127,47388,6,0,P|23:79|43:31,1,105,4|0,3:2|0:0,0:0:0:0:
59,20,47826,2,0,L|136:24,1,70,8|2,1:2|0:0,0:0:0:0:
236,136,48264,1,0,3:0:0:0:
92,184,48483,1,2,0:2:0:0:
192,71,48702,2,0,P|224:60|258:65,1,70,8|2,1:2|0:0,0:0:0:0:
384,192,49140,6,0,B|376:276|376:276|365:257,1,105.000004005432,2|8,3:0|3:3,0:0:0:0:
304,208,49468,1,8,3:3:0:0:
304,208,49578,2,0,B|312:124|312:124|322:142,1,105.000004005432,4|4,3:0|3:3,0:0:0:0:
365,257,49906,1,0,3:0:0:0:
292,284,50016,2,0,P|266:277|247:259,1,52.5000020027161,4|0,3:2|0:0,0:0:0:0:
228,112,50235,6,0,L|232:148,2,22.7499989585877,8|8|8,1:2|1:2|1:2,0:0:0:0:
268,88,50454,1,8,0:2:0:0:
312,96,50563,1,8,1:2:0:0:
340,132,50673,1,8,1:2:0:0:
336,176,50782,1,8,1:2:0:0:
304,208,50892,6,0,B|240:196|264:216|199:204,1,105,4|0,3:1|0:0,0:0:0:0:
137,249,51330,2,0,P|121:213|133:169,1,70,8|2,1:2|0:0,0:0:0:0:
240,46,51768,2,0,P|243:80|227:111,1,70,0|2,3:2|0:0,0:0:0:0:
71,127,52205,2,0,L|2:116,1,70,8|0,1:2|0:0,0:0:0:0:
2,116,52534,1,8,1:2:0:0:
2,116,52643,5,0,3:0:0:0:
168,64,52862,1,2,0:0:0:0:
332,120,53081,2,0,L|401:123,1,70,8|2,1:2|0:0,0:0:0:0:
256,8,53519,2,0,L|248:160,1,140,4|10,0:0|1:2,0:0:0:0:
245,226,54067,1,8,1:2:0:0:
208,240,54176,2,0,L|144:224,1,35,2|8,3:2|1:2,0:0:0:0:
264,336,54395,6,0,B|332:324|300:344|368:332,1,105.000004005432,4|8,3:2|0:1,0:0:0:0:
368,331,55271,2,0,L|420:339,1,52.5000020027161,8|0,0:1|3:0,0:0:0:0:
500,200,55709,6,0,L|508:276,1,70,8|0,1:0|0:0,0:0:0:0:
324,100,56147,5,0,3:0:0:0:
439,83,56366,1,0,3:0:0:0:
164,124,56585,5,0,3:0:0:0:
147,9,56804,1,0,3:0:0:0:
188,284,57023,5,2,1:3:0:0:
73,301,57242,1,0,3:0:0:0:
348,260,57461,6,0,L|360:348,1,78.7500030040742,8|0,1:2|0:0,0:0:0:0:
292,380,57899,5,4,3:1:0:0:
292,168,58118,1,0,0:0:0:0:
292,168,58227,2,0,L|276:240,1,52.5000020027161,8|0,1:2|0:0,0:0:0:0:
180,152,58446,1,8,1:2:0:0:
164,124,58556,2,0,B|152:84|180:60|180:60|196:72|212:72,1,105.000004005432,12|0,0:0|3:0,0:0:0:0:
392,60,58884,2,0,B|360:20|316:44|316:44|322:55|319:62,1,105.000004005432,8|0,1:2|3:0,0:0:0:0:
211,71,59213,2,0,B|184:64|184:64|164:40,1,52.5000020027161,12|0,1:2|3:0,0:0:0:0:
52,16,59432,1,0,1:0:0:0:
52,16,59541,1,8,1:2:0:0:
52,16,59651,6,0,B|40:72|72:60|58:118,1,105.000004005432,0|2,0:0|1:3,0:0:0:0:
4,228,59979,2,0,P|2:254|13:278,1,52.5000020027161,8|0,1:2|3:0,0:0:0:0:
128,320,60198,2,0,P|168:316|184:260,1,105.000004005432,8|0,1:2|3:0,0:0:0:0:
160,188,60527,2,0,L|163:83,1,105.000004005432,10|0,1:2|3:0,0:0:0:0:
312,245,60965,5,0,3:0:0:0:
277,262,61074,1,8,1:2:0:0:
258,296,61184,1,8,1:2:0:0:
261,334,61293,1,8,1:2:0:0:
287,363,61403,6,0,P|344:328|408:384,1,157.500006008148,2|0,3:3|3:0,2:0:0:0:
368,224,62388,2,0,P|362:190|372:144,2,78.7500030040742,0|0|0,3:0|3:0|3:0,0:0:0:0:
196,356,63373,5,2,3:2:0:0:
197,359,63592,1,0,0:0:0:0:
198,363,63811,1,2,0:0:0:0:
199,367,64030,1,0,3:0:0:0:
200,371,64249,1,2,0:0:0:0:
199,367,64468,1,0,3:0:0:0:
272,224,64687,1,10,1:2:0:0:
200,371,64906,6,0,L|128:367,1,70,2|0,3:3|0:0,0:0:0:0:
176,199,65344,2,0,B|184:235|184:235|172:268,1,70,8|8,0:0|3:1,0:0:0:0:
60,180,65782,2,0,L|56:110,1,70,2|0,2:2|3:0,0:0:0:0:
168,24,66220,2,0,B|220:48|244:0|304:28,1,140,8|2,0:0|3:2,0:0:0:0:
404,128,66877,5,0,0:0:0:0:
265,105,67096,2,0,P|276:137|272:172,1,70,8|8,0:0|3:1,0:0:0:0:
152,280,67534,2,0,P|120:292|85:288,1,70,2|8,0:0|3:1,0:0:0:0:
252,272,67972,2,0,L|264:342,1,70,8|0,0:0|3:0,0:0:0:0:
435,355,68410,6,0,P|412:293|457:244,1,140,2|8,3:2|0:0,0:0:0:0:
372,92,69067,1,8,3:1:0:0:
416,76,69176,1,2,3:2:0:0:
457,97,69286,2,0,P|462:131|447:162,1,70,2|8,0:2|3:1,0:0:0:0:
300,192,69724,1,8,0:0:0:0:
232,0,69943,6,0,L|242:105,1,105.000004005432,4|0,3:2|0:0,0:0:0:0:
236,276,70381,2,0,L|232:304,4,17.5,0|0|0|0|0,1:0|1:0|1:0|3:0|1:0,0:0:0:0:
192,192,70819,1,0,0:0:0:0:
156,340,71038,2,0,L|168:384,1,46.6666666666667,0|8,0:0|0:0,0:0:0:0:
48,232,71330,2,0,L|2:220,1,46.6666666666667,8|0,0:3|0:3,0:0:0:0:
132,256,71695,1,2,3:0:0:0:
0,364,71913,5,2,3:2:0:0:
4,344,72023,1,8,0:0:0:0:
8,324,72132,1,0,3:0:0:0:
20,152,72351,1,8,0:0:0:0:
132,256,72570,1,8,0:1:0:0:
120,32,72789,2,0,L|109:171,1,140,2|8,0:0|0:0,0:0:0:0:
196,196,73446,1,0,3:0:0:0:
273,86,73665,6,0,L|276:156,1,70,2|0,3:2|0:0,0:0:0:0:
264,311,74103,2,0,P|262:277|278:246,1,70,8|8,0:0|3:1,0:0:0:0:
420,184,74541,2,0,P|392:203|357:205,1,70,2|8,0:0|3:1,0:0:0:0:
112,156,74979,1,8,0:0:0:0:
92,196,75089,1,8,0:0:0:0:
96,240,75198,1,0,3:0:0:0:
120,276,75308,1,8,0:0:0:0:
160,296,75417,6,0,L|140:364,1,70,2|0,3:2|0:0,0:0:0:0:
240,216,75855,2,0,L|220:148,1,70,8|10,0:0|3:2,0:0:0:0:
272,84,76184,1,8,0:0:0:0:
272,84,76293,2,0,P|271:49|293:23,1,70,2|8,0:2|3:1,0:0:0:0:
220,148,76731,5,8,1:2:0:0:
176,164,76840,1,0,3:0:0:0:
136,140,76950,1,2,3:2:0:0:
128,92,77059,1,0,3:0:0:0:
160,56,77169,5,4,3:1:0:0:
64,180,77388,1,8,3:3:0:0:
48,72,77607,1,8,3:0:0:0:
176,164,77826,1,4,3:3:0:0:
34,324,78045,6,0,L|0:328,1,35,0|8,3:0|1:2,0:0:0:0:
204,252,78373,2,0,L|169:248,1,35,4|8,3:3|1:2,0:0:0:0:
308,360,78702,1,0,3:0:0:0:
352,344,78811,1,0,3:0:0:0:
396,352,78921,6,0,P|432:364|496:340,2,105,2|0|0,3:0|3:0|3:0,0:0:0:0:
436,272,79797,2,0,P|468:196|432:140,1,140,8|0,1:2|3:0,0:0:0:0:
372,92,80454,1,0,3:0:0:0:
296,140,80673,6,0,L|304:212,1,70,0|0,3:0|3:0,0:0:0:0:
220,96,81111,1,0,0:0:0:0:
220,96,81220,1,0,3:0:0:0:
220,96,81330,1,0,3:0:0:0:
132,216,81549,1,0,3:0:0:0:
52,84,81768,1,0,0:0:0:0:
49,236,81986,2,0,P|45:201|59:169,1,70,8|0,1:2|0:0,0:0:0:0:
172,292,82424,6,0,P|166:339|112:360,2,105,0|0|0,3:0|3:0|3:0,0:0:0:0:
132,216,83300,2,0,P|200:208|252:256,1,140,8|0,1:2|3:0,0:0:0:0:
312,304,83957,1,0,3:0:0:0:
396,316,84176,5,0,3:0:0:0:
432,196,84395,1,8,1:2:0:0:
329,91,84614,1,8,0:3:0:0:
324,116,84724,1,8,0:0:0:0:
318,141,84833,1,8,0:0:0:0:
244,252,85052,1,0,3:0:0:0:
239,227,85162,1,8,0:0:0:0:
233,202,85271,1,8,0:0:0:0:
197,44,85490,1,8,1:2:0:0:
212,76,85600,1,4,0:3:0:0:
204,112,85709,1,8,0:0:0:0:
176,132,85819,1,8,0:0:0:0:
140,128,85928,5,2,3:3:0:0:
140,128,86038,1,2,0:0:0:0:
140,128,86147,2,0,L|104:124,1,35
17,70,86366,2,0,L|21:106,1,35,0|2,0:0|0:0,0:0:0:0:
44,224,86585,2,0,L|48:188,1,35,0|2,0:0|0:0,0:0:0:0:
120,272,86804,6,0,L|132:352,1,70,0|2,3:2|0:0,0:0:0:0:
217,358,87132,1,0,0:0:0:0:
217,358,87242,2,0,L|297:370,1,70,0|2,1:2|0:0,0:0:0:0:
320,160,87680,6,0,P|351:145|386:147,1,70,4|2,3:2|0:0,0:0:0:0:
409,274,88008,1,2,0:0:0:0:
409,274,88118,2,0,P|380:256|364:224,1,70,0|2,3:0|0:0,0:0:0:0:
439,203,88446,5,8,0:0:0:0:
439,203,88556,2,0,P|443:247|409:274,1,90.9999958343508,8|10,3:2|0:0,0:0:0:0:
256,212,88994,1,8,3:2:0:0:
208,212,89103,1,8,1:2:0:0:
184,229,89213,2,0,P|177:240|174:253,1,26.2500010013581,8|0,3:0|3:0,0:0:0:0:
232,384,89432,6,0,L|244:292,1,90.9999958343508,4|0,3:2|0:0,0:0:0:0:
256,212,89760,1,8,1:2:0:0:
256,212,89870,1,8,1:2:0:0:
188,4,90089,2,0,L|216:140,1,136.499993751526,4|0,3:2|0:0,0:0:0:0:
256,212,90527,1,8,1:2:0:0:
232,384,90746,1,0,3:0:0:0:
426,221,90965,6,0,L|336:216,1,90.9999958343508,4|8,0:1|1:2,0:0:0:0:
76,96,91402,1,0,3:0:0:0:
64,136,91512,1,8,1:2:0:0:
68,176,91621,1,8,1:2:0:0:
88,212,91731,1,0,3:0:0:0:
123,233,91840,2,0,P|143:233|167:224,1,45.4999979171754,0|0,3:0|3:0,0:0:0:0:
271,161,92059,1,0,3:0:0:0:
280,180,92497,6,0,L|276:248,1,52.5
248,300,92935,6,0,P|244:334|254:367,1,70,4|2,3:1|0:0,0:0:0:0:
184,196,93373,2,0,P|156:175|122:167,1,70,8|2,1:2|0:0,0:0:0:0:
336,324,93811,2,0,P|386:333|430:306,1,105,0|0,3:0|0:0,0:0:0:0:
436,288,94249,2,0,L|424:216,1,70,8|0,1:2|0:0,0:0:0:0:
368,176,94578,1,8,1:2:0:0:
368,176,94687,5,0,3:0:0:0:
512,232,94906,1,2,0:0:0:0:
288,220,95125,2,0,P|278:183|282:151,1,70,8|2,1:2|0:0,0:0:0:0:
491,59,95563,2,0,B|441:38|435:79|390:58,1,105,0|0,3:0|0:2,0:0:0:0:
312,36,96001,2,0,L|304:1,1,35,8|8,1:2|1:2,0:0:0:0:
281,151,96220,1,2,3:2:0:0:
88,44,96439,6,0,P|132:18|181:33,1,105,2|0,3:0|0:0,0:0:0:0:
192,48,96877,2,0,L|200:128,1,70,0|2,1:2|0:0,0:0:0:0:
16,100,97315,2,0,P|0:68|0:32,1,70,0|2,3:0|0:0,0:0:0:0:
244,200,97753,2,0,L|174:207,1,70,8|2,1:2|0:0,0:0:0:0:
0,252,98191,6,0,B|31:224|71:244|71:244|84:268,1,105.000004005432,2|8,3:0|3:3,0:0:0:0:
116,332,98519,1,8,3:3:0:0:
116,332,98629,2,0,B|85:360|45:340|45:340|31:315,1,105.000004005432,4|4,3:3|3:3,0:0:0:0:
156,272,98957,1,0,3:0:0:0:
188,336,99067,2,0,P|185:361|166:383,1,52.5000020027161,4|0,3:2|0:0,0:0:0:0:
31,315,99286,6,0,L|19:343,2,22.7499989585877,8|8|8,1:2|1:2|1:2,0:0:0:0:
32,300,99505,2,0,P|11:285|2:257,1,52.5000020027161,8|8,1:2|1:2,0:0:0:0:
136,180,99724,2,0,P|159:169|187:175,1,52.5000020027161,8|8,1:2|1:2,0:0:0:0:
187,336,99943,6,0,P|140:346|116:303,1,105,4|0,3:1|0:0,0:0:0:0:
168,248,100381,2,0,L|244:244,1,70,8|2,1:2|0:0,0:0:0:0:
252,24,100819,2,0,B|260:56|260:56|252:92,1,70,0|2,3:0|0:0,0:0:0:0:
136,180,101257,2,0,L|60:176,1,70,8|0,1:2|1:0,0:0:0:0:
4,132,101585,1,8,1:2:0:0:
4,132,101695,5,0,3:0:0:0:
184,56,101913,1,2,0:0:0:0:
344,160,102132,2,0,P|378:161|405:140,1,70,8|2,1:2|0:0,0:0:0:0:
252,24,102570,2,0,B|216:64|240:120|240:120|260:120|276:128,1,140,4|8,0:0|1:2,0:0:0:0:
280,204,103118,1,8,1:2:0:0:
308,232,103227,2,0,L|360:236,1,35,2|8,3:2|1:2,0:0:0:0:
220,304,103446,6,0,B|152:292|184:312|116:300,1,105.000004005432,4|8,3:2|0:1,0:0:0:0:
115,299,104322,2,0,L|104:368,1,52.5000020027161,8|0,0:1|3:2,0:0:0:0:
8,248,104760,6,0,L|0:172,1,70,8|0,1:2|0:0,0:0:0:0:
73,83,105198,5,0,3:0:0:0:
188,100,105417,1,0,3:0:0:0:
365,9,105636,5,0,3:0:0:0:
348,124,105855,1,0,3:0:0:0:
439,301,106074,5,2,1:3:0:0:
324,284,106293,1,0,3:0:0:0:
148,376,106512,6,0,L|158:297,1,78.7500030040742,8|0,1:2|0:0,0:0:0:0:
76,324,106950,5,4,3:1:0:0:
220,168,107169,1,0,0:0:0:0:
220,168,107278,2,0,L|236:240,1,52.5000020027161,8|0,1:2|0:0,0:0:0:0:
332,152,107497,1,8,1:2:0:0:
348,124,107607,2,0,B|360:84|332:60|332:60|316:72|300:72,1,105.000004005432,12|0,0:0|3:0,0:0:0:0:
120,60,107935,2,0,B|152:20|196:44|196:44|190:55|193:62,1,105.000004005432,8|0,1:2|3:0,0:0:0:0:
301,71,108264,2,0,B|328:64|328:64|348:40,1,52.5000020027161,12|0,1:2|3:0,0:0:0:0:
460,16,108483,1,0,1:0:0:0:
460,16,108592,1,8,1:2:0:0:
460,16,108702,6,0,B|472:72|440:60|454:118,1,105.000004005432,0|2,0:0|1:3,0:0:0:0:
508,228,109030,2,0,P|510:254|499:278,1,52.5000020027161,8|0,1:2|3:0,0:0:0:0:
380,336,109249,2,0,P|340:332|324:276,1,105.000004005432,12|0,1:2|3:0,0:0:0:0:
348,204,109578,2,0,L|344:99,1,105.000004005432,10|0,1:2|3:0,0:0:0:0:
380,336,110016,6,0,P|343:323|309:341,1,78.7500030040742,0|0,3:0|0:0,0:0:0:0:
240,383,110454,6,0,B|272:360|264:320|264:320|243:295,1,105.000004005432,4|0,1:0|0:0,0:0:0:0:
176,236,110782,2,0,B|180:275|219:288|219:288|250:283,1,105.000004005432,2|0,1:3|0:0,0:0:0:0:
320,228,111111,2,0,B|336:208|334:179,1,52.5000020027161,4|0,0:0|3:0,0:0:0:0:
328,24,111330,2,0,B|300:20|279:35,1,52.5000020027161,2|8,3:2|1:2,0:0:0:0:
152,124,111549,1,0,3:0:0:0:
152,124,111658,1,0,1:0:0:0:
152,124,111768,2,0,B|160:152|186:160,1,52.5000020027161,10|8,1:2|1:2,0:0:0:0:
56,48,111986,1,2,3:2:0:0:
56,48,112096,1,8,1:2:0:0:
56,48,112205,6,0,B|8:8|8:8|15:49,1,105.000004005432,4|0,1:0|0:0,0:0:0:0:
8,208,112534,1,2,1:3:0:0:
24,176,112643,2,0,P|56:164|104:220,1,105.000004005432,0|4,3:0|1:2,0:0:0:0:
88,308,112972,1,0,3:0:0:0:
56,324,113081,2,0,P|40:328|8:316,1,52.5000020027161,0|8,3:0|1:2,0:0:0:0:
160,268,113300,2,0,P|182:256|208:259,1,52.5000020027161,8|8,1:2|1:2,0:0:0:0:
340,348,113519,6,0,P|347:358|349:371,2,26.2500010013581,8|8|8,1:2|1:2|1:2,0:0:0:0:
248,348,113738,2,0,P|222:351|199:339,1,52.5000020027161,8|8,1:2|1:2,0:0:0:0:
400,271,113957,6,0,P|424:232|404:175,1,105.000004005432,4|0,1:0|0:0,0:0:0:0:
368,40,114286,2,0,P|390:80|449:91,1,105.000004005432,2|0,1:3|0:0,0:0:0:0:
328,144,114614,2,0,P|302:143|280:158,1,52.5000020027161,4|0,1:2|3:0,0:0:0:0:
224,348,114833,1,0,3:0:0:0:
224,348,114943,1,12,1:2:0:0:
224,348,115052,2,0,P|236:370|259:382,1,52.5000020027161,8|0,1:2|3:0,0:0:0:0:
400,272,115271,2,0,L|347:269,1,52.5000020027161,10|0,1:2|1:0,0:0:0:0:
136,252,115490,1,2,3:2:0:0:
136,252,115600,1,8,1:2:0:0:
136,252,115709,6,0,B|80:188|52:256|0:188,1,157.500006008148,4|2,1:0|1:3,0:0:0:0:
92,56,116147,2,0,P|100:106|66:144,1,105.000004005432,0|4,3:0|1:2,0:0:0:0:
0,344,116476,1,0,3:0:0:0:
22,316,116585,2,0,P|44:304|76:301,1,52.5000020027161,0|4,3:0|1:1,0:0:0:0:
212,256,116804,2,0,P|237:256|266:270,1,52.5000020027161,0|8,3:0|1:2,0:0:0:0:
372,360,117023,6,0,P|384:358|397:353,2,26.2500010013581,8|8|8,1:2|1:2|1:2,0:0:0:0:
220,332,117242,1,8,1:2:0:0:
180,324,117351,1,8,1:2:0:0:
140,316,117461,6,0,L|71:301,1,70,4|0,1:0|3:0,0:0:0:0:
0,140,117899,1,8,1:2:0:0:
143,241,118118,2,0,L|212:256,2,70,2|0|0,3:2|3:0|3:0,0:0:0:0:
0,272,118775,2,0,P|-4:306|7:341,1,70,8|0,1:2|3:0,0:0:0:0:
284,284,119213,2,0,P|288:249|276:214,1,70,8|0,1:2|3:0,0:0:0:0:
232,152,119541,1,8,1:2:0:0:
232,152,119651,2,0,L|240:72,1,70,8|0,1:2|3:0,0:0:0:0:
7,48,120089,6,0,L|112:52,1,105.000004005432,4|2,1:2|0:0,0:0:0:0:
112,51,120965,5,0,3:2:0:0:
76,184,121184,1,0,3:2:0:0:
232,372,121403,1,0,3:2:0:0:
208,236,121622,1,0,3:2:0:0:
88,332,121840,5,0,3:2:0:0:
312,320,122059,1,0,3:2:0:0:
460,168,122278,1,8,1:2:0:0:
300,28,122497,1,8,1:2:0:0:
396,280,122716,6,0,P|402:331|381:378,1,105.000004005432,2|0,1:3|3:0,0:0:0:0:
312,320,123045,2,0,L|304:212,1,105.000004005432,12|0,0:0|3:0,0:0:0:0:
376,160,123373,2,0,P|426:166|463:132,1,105.000004005432,8|0,1:2|3:0,0:0:0:0:
344,24,123702,1,12,0:0:0:0:
276,80,123811,2,0,L|300:140,1,52.5000020027161,0|0,3:0|0:0,0:0:0:0:
220,176,124030,1,0,3:0:0:0:
180,192,124140,1,8,1:2:0:0:
140,180,124249,1,8,1:2:0:0:
116,144,124359,1,8,1:2:0:0:
120,100,124468,6,0,L|123:30,1,70,2|0,3:3|0:0,0:0:0:0:
0,232,124906,2,0,L|3:301,1,70,8|0,1:2|0:0,0:0:0:0:
220,88,125344,2,0,L|223:18,1,70,2|0,3:2|0:0,0:0:0:0:
100,248,125782,2,0,L|103:317,1,70,8|0,1:2|0:0,0:0:0:0:
103,317,126111,1,8,0:0:0:0:
103,317,126220,5,2,3:2:0:0:
256,192,126439,1,0,0:0:0:0:
188,360,126658,1,8,1:2:0:0:
168,196,126877,1,0,0:0:0:0:
312,364,127096,1,2,3:2:0:0:
340,200,127315,1,0,0:0:0:0:
360,284,127534,1,10,1:2:0:0:
404,264,127643,1,8,0:0:0:0:
428,220,127753,1,2,0:0:0:0:
428,172,127862,1,0,0:0:0:0:
400,132,127972,5,4,3:2:0:0:
208,120,128191,1,2,0:0:0:0:
256,192,128410,1,8,1:2:0:0:
408,40,128629,1,2,3:2:0:0:
408,40,129067,1,2,3:2:0:0:
340,200,129286,1,8,1:2:0:0:
324,16,129505,1,2,0:0:0:0:
208,119,129724,6,0,P|173:123|144:105,1,70,2|0,3:2|3:0,0:0:0:0:
4,84,130162,2,0,P|26:58|29:23,1,70,8|2,1:2|3:2,0:0:0:0:
64,160,130600,2,0,L|72:300,1,136.499993751526,2|0,3:2|3:0,0:0:0:0:
152,340,131038,1,8,1:2:0:0:
192,320,131147,1,8,0:0:0:0:
236,316,131257,1,8,1:2:0:0:
280,328,131366,1,8,1:2:0:0:
315,355,131476,6,0,P|348:367|383:366,1,70,2|0,3:3|0:0,0:0:0:0:
364,248,131913,2,0,P|398:241|427:223,1,70,10|0,1:2|0:0,0:0:0:0:
356,128,132351,2,0,P|382:105|398:74,1,70,2|0,3:2|0:0,0:0:0:0:
292,24,132789,2,0,B|248:36|268:12|224:24,1,70,10|0,1:2|0:0,0:0:0:0:
128,48,133118,1,8,0:0:0:0:
113,74,133227,6,0,P|129:105|156:128,1,70,2|0,3:2|0:0,0:0:0:0:
84,223,133665,2,0,P|113:241|148:248,1,70,10|0,1:2|0:0,0:0:0:0:
128,366,134103,2,0,P|163:367|196:355,1,70,2|2,3:2|0:0,0:0:0:0:
288,244,134541,1,8,1:2:0:0:
276,288,134651,1,8,0:0:0:0:
296,328,134760,1,2,0:0:0:0:
488,316,134979,6,0,P|453:313|422:329,1,70,4|8,3:2|0:3,0:0:0:0:
360,376,135308,1,8,3:0:0:0:
360,376,135417,1,4,0:0:0:0:
448,120,135636,2,0,L|444:160,2,35,4|4|2,3:3|3:3|3:3,0:0:0:0:
184,24,136074,2,0,L|188:48,2,17.5,8|8|8,3:2|0:0|0:0,0:0:0:0:
108,44,136293,2,0,L|116:92,1,35,8|8,0:0|0:0,0:0:0:0:
240,128,136512,2,0,L|248:80,1,35,8|8,0:0|0:0,0:0:0:0:
80,148,136731,6,0,P|75:182|88:214,1,70,4|8,0:0|0:0,0:0:0:0:
200,240,137059,2,0,L|165:242,1,35,0|0,3:0|3:0,0:0:0:0:
100,336,137278,2,0,L|103:302,1,35,8|0,0:0|3:0,0:0:0:0:
103,301,137607,6,0,L|40:296,2,46.6666666666667,0|8|0,3:0|0:0|3:0,0:0:0:0:
268,336,138045,1,8,0:0:0:0:
165,241,138191,1,8,0:0:0:0:
136,380,138337,1,8,0:0:0:0:
188,320,138483,1,2,3:3:0:0:
8,184,154249,6,0,L|2:149,1,35,2|2,1:2|1:1,0:0:0:0:
92,192,154687,2,0,L|104:159,1,35,8|2,1:3|1:1,0:0:0:0:
160,240,155125,2,0,L|187:217,1,35,2|2,1:2|1:1,0:0:0:0:
191,318,155563,2,0,L|225:312,1,35,8|2,1:3|1:1,0:0:0:0:
348,333,156001,6,0,L|342:298,1,35,2|2,1:2|1:1,0:0:0:0:
440,289,156439,2,0,L|417:261,1,35,8|2,1:3|1:1,0:0:0:0:
499,206,156877,2,0,L|466:193,1,35,2|2,1:2|1:1,0:0:0:0:
512,104,157315,2,0,L|477:109,1,35,8|2,1:3|1:1,0:0:0:0:
360,64,157753,6,0,B|352:48|352:48|352:28,1,35,2|2,1:2|1:1,0:0:0:0:
300,152,158191,2,0,L|296:108,1,35,8|2,1:3|1:1,0:0:0:0:
212,152,158629,2,0,L|216:108,1,35,2|2,1:2|1:1,0:0:0:0:
152,64,159067,2,0,B|160:48|160:48|160:28,1,35,8|2,1:3|1:1,0:0:0:0:
152,320,159505,6,0,B|152:340|152:340|160:356,1,35,2|2,1:2|1:1,0:0:0:0:
215,266,159943,2,0,L|212:232,1,35,8|2,1:3|1:1,0:0:0:0:
296,266,160381,2,0,L|300:232,1,35,2|2,1:2|1:1,0:0:0:0:
360,320,160819,2,0,B|360:340|360:340|352:356,1,35,8|2,1:3|1:1,0:0:0:0:
512,248,161257,6,0,L|504:144,1,105.000004005432,0|0,3:0|3:0,0:0:0:0:
503,143,161913,1,0,0:0:0:0:
408,8,162132,2,0,L|400:112,1,105.000004005432,0|0,3:0|3:0,0:0:0:0:
384,124,162680,1,0,0:0:0:0:
384,124,162789,1,0,0:0:0:0:
304,56,163008,6,0,L|192:48,1,105.000004005432,0|0,3:0|3:0,0:0:0:0:
192,156,163665,2,0,L|212:140,2,17.5,0|0|0,1:0|1:0|1:0,0:0:0:0:
172,148,163884,6,0,B|180:252,1,105.000004005432,12|0,0:0|2:0,0:0:0:0:
198,268,164541,5,0,0:0:0:0:
198,268,164760,2,0,B|140:296|140:296|48:281,1,157.500006008148,2|0,3:3|0:0,0:0:0:0:
196,188,165636,2,0,L|256:204,1,52.5000020027161,0|0,0:0|3:0,0:0:0:0:
320,356,166074,1,8,0:1:0:0:
304,344,166512,5,2,0:0:0:0:
396,332,166731,1,0,0:0:0:0:
448,256,166950,1,0,0:0:0:0:
428,164,167169,1,0,0:0:0:0:
316,96,167388,5,2,0:0:0:0:
228,156,167607,1,0,3:0:0:0:
124,148,167826,1,8,1:2:0:0:
48,76,168045,1,4,3:2:0:0:
304,80,168264,5,2,0:0:0:0:
296,112,168483,1,0,0:0:0:0:
304,152,168702,1,0,0:0:0:0:
344,188,168921,1,0,0:0:0:0:
304,80,169140,5,0,0:0:0:0:
236,172,169359,1,0,0:0:0:0:
244,288,169578,1,0,0:0:0:0:
332,364,169797,1,0,0:0:0:0:
444,368,170016,6,0,P|449:317|415:279,1,105.000004005432,2|8,1:3|0:0,0:0:0:0:
340,288,170344,1,4,0:0:0:0:
296,300,170454,1,0,0:0:0:0:
256,280,170563,1,8,0:0:0:0:
236,236,170673,2,0,L|260:184,1,52.5000020027161,4|0,0:0|0:0,0:0:0:0:
248,100,170892,5,2,3:2:0:0:
296,104,171001,1,0,3:0:0:0:
340,84,171111,1,8,0:0:0:0:
364,44,171220,1,8,0:0:0:0:
372,64,171330,5,8,0:0:0:0:
376,84,171439,1,8,0:0:0:0:
376,104,171549,1,0,1:0:0:0:
372,124,171658,1,0,1:0:0:0:
363,140,171768,6,0,P|424:136|458:186,1,125.999996154785,4|0,3:1|0:0,0:0:0:0:
476,180,172205,2,0,L|464:268,1,83.9999974365235,8|2,1:2|0:0,0:0:0:0:
276,356,172643,2,0,P|215:359|181:309,1,125.999996154785,0|0,3:1|0:0,0:0:0:0:
163,316,173081,2,0,L|175:228,1,83.9999974365235,8|2,1:2|0:0,0:0:0:0:
184,164,173410,1,0,1:2:0:0:
184,164,173519,5,2,3:2:0:0:
248,296,173738,1,0,0:0:0:0:
100,280,173957,1,8,1:2:0:0:
244,128,174176,1,2,0:0:0:0:
72,8,174395,2,0,B|32:44|60:96|60:96|76:96|87:102,1,125.999996154785,2|0,3:2|0:0,0:0:0:0:
60,168,174833,2,0,L|64:216,1,41.9999987182618,8|8,1:2|1:2,0:0:0:0:
76,348,175052,1,0,0:0:0:0:
212,236,175271,6,0,B|282:208|262:260|332:236,1,125.999996154785,2|0,3:3|0:0,0:0:0:0:
348,252,175709,2,0,P|379:225|386:184,1,83.9999974365235,8|2,1:2|0:2,0:0:0:0:
316,12,176147,1,0,3:0:0:0:
208,164,176366,1,2,0:2:0:0:
424,124,176585,1,8,1:2:0:0:
388,112,176695,1,8,1:2:0:0:
352,120,176804,1,0,1:0:0:0:
320,316,177023,6,0,B|388:340|372:292|442:315,1,125.999996154785,2|0,3:3|3:0,0:0:0:0:
500,236,177461,6,0,P|444:240|428:192,1,105.000004005432,4|8,0:0|3:3,0:0:0:0:
448,40,177789,1,8,3:3:0:0:
496,100,177899,2,0,P|491:129|468:152,1,52.5000020027161,4|4,0:0|0:3,0:0:0:0:
352,220,178118,6,0,L|348:240,3,20.9999993591309,8|8|8|8,1:2|1:2|1:2|1:2,0:2:0:0:
348,208,178337,2,0,P|325:189|316:157,1,52.5000020027161,8|8,1:2|1:2,0:0:0:0:
328,28,178556,2,0,P|355:17|387:26,1,52.5000020027161,8|8,1:2|1:2,0:0:0:0:
495,99,178775,6,0,P|476:144|408:124,1,125.999996154785,4|0,3:1|0:0,0:0:0:0:
348,100,179213,2,0,L|264:96,1,83.9999974365235,8|2,1:2|0:0,0:0:0:0:
56,192,179651,2,0,B|122:164|106:216|177:187,1,125.999996154785,0|0,3:0|0:0,0:0:0:0:
144,124,180089,1,8,1:2:0:0:
100,324,180308,1,0,1:0:0:0:
84,292,180417,1,8,1:2:0:0:
88,256,180527,5,2,3:0:0:0:
216,132,180746,1,2,0:0:0:0:
188,304,180965,1,8,1:2:0:0:
20,252,181184,1,2,0:0:0:0:
248,200,181403,6,0,B|288:192|288:192|325:210|325:210|368:204,1,119.000002269745,4|0,0:0|0:0,0:0:0:0:
361,204,181841,6,0,L|379:141,1,52.5000020027161,8|8,1:2|1:2,0:0:0:0:
280,288,182059,2,0,L|298:351,1,52.5000020027161,4|8,1:3|3:2,0:0:0:0:
156,216,182278,5,4,3:1:0:0:
152,200,182716,1,8,1:2:0:0:
284,304,182935,1,0,3:0:0:0:
116,296,183154,1,8,1:2:0:0:
356,224,183373,1,0,3:0:0:0:
96,112,183592,6,0,B|108:0|108:0|118:43,1,157.500006008148,2|0,1:3|0:0,0:0:0:0:
152,200,184030,5,10,1:2:0:0:
360,200,184249,1,10,1:2:0:0:
96,288,184468,1,10,1:2:0:0:
416,288,184687,1,10,1:2:0:0:
256,40,184906,6,0,B|248:88|248:88|264:128|264:128|257:175,1,140,4|8,1:2|1:2,0:0:0:0:
257,175,185782,5,4,3:1:0:0:
328,240,186001,1,0,0:2:0:0:
368,244,186111,1,8,1:2:0:0:
404,220,186220,1,0,3:2:0:0:
328,12,186439,1,4,0:2:0:0:
257,77,186658,1,0,3:2:0:0:
217,81,186768,1,8,1:2:0:0:
181,57,186877,1,0,3:2:0:0:
60,296,187096,1,4,0:0:0:0:
144,344,187315,1,8,1:2:0:0:
144,344,187424,1,8,1:2:0:0:
144,344,187534,6,0,L|152:272,1,70,4|8,0:0|1:2,0:0:0:0:
128,200,187862,1,8,1:2:0:0:
128,200,187972,2,0,P|123:184|124:160,1,35,0|0,3:0|3:0,0:0:0:0:
232,148,188191,2,0,P|220:160|199:171,1,35,0|0,3:0|3:0,0:0:0:0:
60,112,188410,2,0,L|48:72,1,35,0|8,3:0|1:2,0:0:0:0:
136,4,188629,5,8,1:2:0:0:
172,16,188738,1,8,0:0:0:0:
208,12,188848,1,2,3:2:0:0:
200,84,188957,5,8,1:2:0:0:
232,148,189067,1,8,1:2:0:0:
300,176,189176,1,8,1:2:0:0:
368,148,189286,6,0,P|402:141|436:150,1,70,2|2,3:0|0:0,0:0:0:0:
472,344,189724,2,0,P|449:318|440:284,1,70,8|2,1:2|0:0,0:0:0:0:
512,160,190162,2,0,P|501:192|476:216,1,70,2|0,3:2|0:0,0:0:0:0:
428,12,190600,2,0,P|450:37|459:71,1,70,8|0,1:2|0:0,0:0:0:0:
372,80,190928,1,8,0:0:0:0:
375,106,191038,6,0,P|341:97|307:104,1,70,2|0,3:2|0:0,0:0:0:0:
124,24,191476,2,0,P|132:57|155:83,1,70,8|2,1:2|0:0,0:0:0:0:
176,284,191913,2,0,P|201:259|211:227,1,70,0|0,3:0|0:0,0:0:0:0:
28,300,192351,1,10,1:2:0:0:
32,328,192461,1,8,0:0:0:0:
44,352,192570,1,0,0:0:0:0:
372,348,192789,6,0,B|316:324|292:380|235:353,1,140,2|8,3:3|1:2,0:0:0:0:
268,268,193446,1,2,0:0:0:0:
468,256,193665,2,0,L|460:328,1,70,0|2,3:0|0:0,0:0:0:0:
360,168,194103,2,0,P|346:135|352:96,1,70,8|2,1:2|0:0,0:0:0:0:
400,32,194432,1,2,0:0:0:0:
400,32,194541,1,6,0:0:0:0:
180,80,194760,5,8,1:3:0:0:
140,76,194870,1,8,0:3:0:0:
108,52,194979,1,4,0:0:0:0:
196,184,195198,1,8,3:0:0:0:
156,200,195308,1,8,3:0:0:0:
124,236,195417,1,4,1:2:0:0:
12,384,195636,2,0,L|9:366,2,17.5,8|8|8,0:0|0:0|0:0,0:0:0:0:
60,296,195855,1,8,0:0:0:0:
92,320,195965,1,8,0:0:0:0:
136,324,196074,1,8,0:0:0:0:
176,308,196184,1,8,0:0:0:0:
206,274,196293,6,0,B|272:244|276:300|342:272,1,140,2|8,3:3|1:2,0:0:0:0:
400,176,196950,1,0,3:0:0:0:
324,120,197169,2,0,P|309:151|310:186,1,70,8|0,1:2|3:0,0:0:0:0:
435,356,197607,2,0,P|451:307|432:260,1,105,8|8,1:2|1:2,0:0:0:0:
343,271,198045,6,0,P|378:273|410:259,1,70,0|0,0:0|3:0,0:0:0:0:
512,108,198483,2,0,P|477:109|445:95,1,70,8|2,1:2|3:2,0:0:0:0:
268,38,198921,2,0,P|317:29|349:68,1,105,2|8,1:3|1:2,0:0:0:0:
349,68,199359,1,8,1:2:0:0:
60,124,199578,2,0,L|63:89,1,35,8|8,0:0|0:0,0:0:0:0:
136,28,199797,6,0,P|102:84|145:135,2,140,4|8|8,0:0|0:1|0:1,0:0:0:0:
168,144,200892,1,0,3:0:0:0:
48,280,201111,2,0,P|42:246|59:216,1,70,8|0,1:2|0:0,0:0:0:0:
200,352,201549,5,8,3:2:0:0:
284,340,201768,1,8,3:2:0:0:
368,328,201986,1,8,3:2:0:0:
452,316,202205,1,8,3:2:0:0:
352,132,202424,2,0,P|303:176|246:145,1,140,4|8,0:0|1:2,0:0:0:0:
452,152,203081,1,2,0:2:0:0:
452,152,203191,1,2,0:2:0:0:
452,152,203300,5,4,3:1:0:0:
245,144,203519,1,0,3:0:0:0:
245,144,203628,2,0,L|173:160,1,52.5000020027161,8|0,1:2|0:0,0:0:0:0:
268,272,203847,1,8,1:2:0:0:
296,288,203957,2,0,B|336:300|360:272|360:272|348:256|348:240,1,105.000004005432,12|0,0:0|3:0,0:0:0:0:
354,58,204286,2,0,B|394:90|370:134|370:134|359:128|352:131,1,105.000004005432,8|0,1:2|3:0,0:0:0:0:
349,241,204614,2,0,B|356:268|356:268|380:288,1,52.5000020027161,12|0,1:2|3:0,0:0:0:0:
480,372,204833,1,0,1:0:0:0:
480,372,204942,1,8,1:2:0:0:
480,372,205052,6,0,B|424:360|436:392|378:378,1,105.000004005432,0|2,0:0|1:3,0:0:0:0:
259,321,205380,2,0,P|257:295|268:271,1,52.5000020027161,8|0,1:2|3:0,0:0:0:0:
440,136,205600,2,0,P|462:180|430:218,1,105.000004005432,12|0,1:2|3:0,0:0:0:0:
292,188,205928,2,0,B|228:168|256:204|189:182,1,105.000004005432,10|0,1:2|3:0,0:0:0:0:
20,124,206366,6,0,P|4:160|16:200,1,78.7500030040742,0|0,3:0|0:0,0:0:0:0:
63,247,206804,5,4,0:1:0:0:
172,336,207023,1,8,1:2:0:0:
256,116,207242,1,8,1:2:0:0:
256,320,207461,1,12,0:0:0:0:
448,247,207680,2,0,L|416:272,1,35,8|8,0:0|1:2,0:0:0:0:
340,336,207899,1,8,0:0:0:0:
180,148,208118,1,4,1:2:0:0:
332,148,208337,1,0,3:0:0:0:
92,24,208556,5,4,1:2:0:0:
400,192,208775,1,8,1:2:0:0:
420,24,208994,1,4,1:2:0:0:
112,192,209213,1,8,1:2:0:0:
332,148,209432,5,4,1:2:0:0:
152,364,209651,1,8,1:2:0:0:
180,148,209870,1,4,1:2:0:0:
360,364,210089,1,4,1:2:0:0:
