osu file format v14

[General]
AudioFilename: sharlo.mp3
AudioLeadIn: 200
PreviewTime: 43337
Countdown: 0
SampleSet: Soft
StackLeniency: 0.7
Mode: 0
LetterboxInBreaks: 0
WidescreenStoryboard: 1

[Editor]
Bookmarks: 1841,8848,15855,22862,29870,36877,43884,50892,57899,64906,71913,78921,85928,92935,99943,106950,110454,117461,124468,131476,138483,145490,152497,154249,161257,168264,171768,178775,185782,189286,196293,203300,210308
DistanceSpacing: 0.4
BeatDivisor: 4
GridSize: 4
TimelineZoom: 1.8

[Metadata]
Title:Shinkai Shoujo
TitleUnicode:深海少女
Artist:Sharlo
ArtistUnicode:Sharlo
Creator:Uber
Version:Light Insane
Source:
Tags:d
BeatmapID:1330999
BeatmapSetID:630488

[Difficulty]
HPDrainRate:6
CircleSize:4
OverallDifficulty:7
ApproachRate:8
SliderMultiplier:1.6
SliderTickRate:1

[Events]
//Background and Video events
0,0,"underwtaer.png",0,0
//Break Periods
//Storyboard Layer 0 (Background)
//Storyboard Layer 1 (Fail)
//Storyboard Layer 2 (Pass)
//Storyboard Layer 3 (Foreground)
//Storyboard Sound Samples

[TimingPoints]
1841,437.956204379562,4,2,1,100,1,0
1841,-133.333333333333,4,2,1,100,0,0
2059,-133.333333333333,4,2,1,100,0,0
6877,-133.333333333333,4,2,1,40,0,0
6986,-133.333333333333,4,2,1,100,0,0
7972,-133.333333333333,4,2,2,100,0,0
8081,-133.333333333333,4,2,1,100,0,0
9724,-133.333333333333,4,2,2,100,0,0
9833,-133.333333333333,4,2,1,100,0,0
12351,-133.333333333333,4,2,3,40,0,0
12570,-133.333333333333,4,2,3,20,0,0
13008,-133.333333333333,4,2,3,40,0,0
13446,-133.333333333333,4,2,3,20,0,0
13556,-133.333333333333,4,2,3,40,0,0
14049,-133.333333333333,4,2,1,50,0,0
14158,-133.333333333333,4,2,3,50,0,0
15746,-133.333333333333,4,2,3,5,0,0
15855,-100,4,2,3,50,0,0
21877,-100,4,2,3,30,0,0
21986,-100,4,2,3,50,0,0
29870,-133.333333333333,4,2,3,50,0,0
36877,-100,4,2,3,50,0,0
42789,-100,4,2,3,80,0,0
43446,-100,4,2,3,50,0,0
43775,-100,4,2,3,5,0,0
43884,-83.3333333333333,4,2,3,60,0,1
49359,-83.3333333333333,4,2,3,50,0,1
50235,-83.3333333333333,4,2,3,30,0,1
50454,-83.3333333333333,4,2,3,40,0,1
50673,-83.3333333333333,4,2,3,50,0,1
50892,-83.3333333333333,4,2,3,60,0,1
57461,-83.3333333333333,4,2,3,50,0,1
57789,-83.3333333333333,4,2,3,5,0,1
57899,-83.3333333333333,4,2,3,50,0,1
61403,-100,4,2,3,50,0,0
70381,-100,4,2,3,30,0,0
70545,-100,4,2,3,50,0,0
70600,-100,4,2,3,50,0,0
78921,-133.333333333333,4,2,3,50,0,0
85928,-100,4,2,3,50,0,0
91840,-100,4,2,3,80,0,0
92497,-100,4,2,3,50,0,0
92826,-100,4,2,3,5,0,0
92935,-83.3333333333333,4,2,3,60,0,1
98410,-83.3333333333333,4,2,3,50,0,1
99286,-83.3333333333333,4,2,3,30,0,1
99505,-83.3333333333333,4,2,3,40,0,1
99724,-83.3333333333333,4,2,3,50,0,1
99943,-83.3333333333333,4,2,3,60,0,1
106512,-83.3333333333333,4,2,3,50,0,1
110344,-83.3333333333333,4,2,3,5,0,1
110454,-100,4,2,3,50,0,0
113519,-100,4,2,3,30,0,0
113738,-100,4,2,3,40,0,0
113957,-100,4,2,3,50,0,0
117023,-100,4,2,3,30,0,0
117242,-100,4,2,3,50,0,0
136074,-100,4,2,3,30,0,0
136293,-100,4,2,3,40,0,0
136512,-100,4,2,3,50,0,0
154249,-133.333333333333,4,2,2,80,0,0
161256,-100,4,2,3,40,0,0
163665,-100,4,2,3,30,0,0
163884,-100,4,2,3,40,0,0
168264,-100,4,2,3,40,0,0
168702,-100,4,2,3,40,0,0
169140,-100,4,2,3,50,0,0
169578,-100,4,2,3,50,0,0
170016,-100,4,2,3,50,0,0
171768,-83.3333333333333,4,2,3,60,0,1
178118,-83.3333333333333,4,2,3,30,0,1
178337,-83.3333333333333,4,2,3,40,0,1
178556,-83.3333333333333,4,2,3,50,0,1
178775,-83.3333333333333,4,2,3,60,0,1
184030,-83.3333333333333,4,2,3,40,0,1
184468,-83.3333333333333,4,2,3,50,0,1
184906,-83.3333333333333,4,2,3,60,0,1
188300,-83.3333333333333,4,2,3,20,0,1
188355,-83.3333333333333,4,2,3,60,0,1
189286,-100,4,2,3,50,0,0
195636,-100,4,2,3,30,0,0
195855,-100,4,2,3,40,0,0
196074,-100,4,2,3,50,0,0
201548,-100,4,2,3,30,0,0
201986,-100,4,2,3,40,0,0
202424,-100,4,2,3,50,0,0
206695,-100,4,2,3,20,0,0
206804,-100,4,2,3,50,0,0

[Colours]
Combo1 : 254,90,143
Combo2 : 173,91,255
Combo3 : 60,141,253
Combo4 : 66,255,51

[HitObjects]
96,150,1841,6,0,L|176:140,1,60.0000022888184
238,228,2278,2,0,L|158:238,1,60.0000022888184
153,67,2716,2,0,P|209:83|239:133,1,120.000004577637
94,232,3373,1,0,0:0:0:0:
94,232,3592,6,0,P|113:287|166:313,1,120.000004577637
269,314,4249,1,0,0:0:0:0:
194,147,4468,2,0,P|180:204|211:253,1,120.000004577637
343,268,5125,1,0,0:0:0:0:
343,268,5344,6,0,P|357:324|327:375,1,120.000004577637
224,378,6001,1,0,0:0:0:0:
255,194,6220,2,0,L|314:198,1,60.0000022888184
281,309,6658,2,0,L|199:303,1,60.0000022888184
191,133,7096,6,0,P|160:183|174:240,1,120.000004577637
289,317,7753,1,0,0:0:0:0:
289,317,7862,1,0,0:0:0:0:
289,317,7972,1,0,0:0:0:0:
265,142,8410,2,0,P|266:112|255:85,1,60.0000022888184
87,144,8848,6,0,P|86:114|97:86,1,60.0000022888184
150,36,9286,1,0,0:0:0:0:
224,12,9505,1,0,0:0:0:0:
171,207,9724,2,0,P|161:178|164:149,1,60.0000022888184
201,85,10162,1,0,0:0:0:0:
277,70,10381,1,0,0:0:0:0:
428,199,10600,6,0,P|430:169|420:141,1,60.0000022888184
295,200,11038,2,0,P|292:229|302:257,1,60.0000022888184
245,136,11476,2,0,P|214:186|221:249,1,120.000004577637
352,341,12132,1,0,0:0:0:0:
387,146,12351,6,0,P|402:171|406:200,1,60.0000022888184
389,274,12789,1,0,0:0:0:0:
254,313,13008,1,0,0:0:0:0:
254,313,13118,1,0,0:0:0:0:
254,313,13227,2,0,P|276:352|305:363,1,60.0000022888184
326,228,13665,2,0,L|319:307,1,60.0000022888184
167,225,14103,6,0,P|155:291|96:314,1,120.000004577637,0|0,2:0|2:0,2:0:0:0:
3,315,14760,2,0,P|9:286|34:263,1,60.0000022888184
172,94,15198,1,0,0:0:0:0:
8,93,15417,1,0,0:0:0:0:
97,241,15636,1,0,0:0:0:0:
97,241,15855,6,0,L|96:145,1,80
176,202,16293,1,0,0:0:0:0:
14,201,16512,1,0,0:0:0:0:
95,81,16731,2,0,L|95:160,1,80
265,161,17169,2,0,L|265:81,1,80
402,231,17607,6,0,P|374:277|337:294,1,80
260,276,18045,1,0,0:0:0:0:
321,211,18264,1,0,0:0:0:0:
369,368,18483,2,0,P|316:380|216:334,1,160
176,265,19140,1,0,0:0:0:0:
160,27,19359,6,0,P|121:80|123:103,1,80
294,152,19797,1,0,0:0:0:0:
151,192,20016,1,0,0:0:0:0:
242,256,20235,1,0,0:0:0:0:
222,174,20454,1,0,0:0:0:0:
207,94,20673,2,0,P|243:57|289:60,1,80
429,126,21111,5,0,0:0:0:0:
300,234,21330,1,0,0:0:0:0:
463,281,21549,1,0,0:0:0:0:
401,322,21768,1,0,0:0:0:0:
337,358,21986,2,0,P|289:355|229:321,1,80
362,177,22424,1,0,0:0:0:0:
191,294,22643,1,0,0:0:0:0:
321,284,22862,5,0,0:0:0:0:
395,246,23081,1,0,0:0:0:0:
470,210,23300,2,0,P|501:172|505:137,1,80
297,208,23738,2,0,P|347:149|433:147,1,160
463,291,24395,1,0,0:0:0:0:
415,68,24614,6,0,P|354:69|306:94,1,80
381,225,25052,1,0,0:0:0:0:
218,198,25271,1,0,0:0:0:0:
218,198,25490,2,0,L|323:164,1,80
425,142,25928,1,0,0:0:0:0:
440,153,26037,1,0,0:0:0:0:
453,167,26146,1,0,0:0:0:0:
463,183,26256,1,0,0:0:0:0:
464,198,26366,6,0,P|445:257|400:279,1,80
269,343,26804,2,0,L|377:341,1,80
384,208,27242,2,0,L|276:206,1,80
151,208,27680,1,0,0:0:0:0:
134,222,27789,1,0,0:0:0:0:
122,240,27898,1,0,0:0:0:0:
117,262,28008,1,0,0:0:0:0:
116,285,28118,6,0,P|146:323|186:335,1,80
336,279,28556,1,0,0:0:0:0:
214,192,28775,1,0,0:0:0:0:
256,328,28994,1,0,0:0:0:0:
256,328,29103,1,0,0:0:0:0:
256,328,29213,1,0,0:0:0:0:
274,238,29432,1,0,0:0:0:0:
197,264,29651,1,0,0:0:0:0:
322,111,29870,6,0,P|360:119|386:140,1,60.0000022888184
464,188,30308,1,0,0:0:0:0:
325,185,30527,1,0,0:0:0:0:
380,304,30746,2,0,P|340:304|312:288,1,60.0000022888184
200,144,31184,2,0,P|240:144|268:160,1,60.0000022888184
464,320,31622,6,0,P|447:250|398:230,1,120.000004577637
264,256,32278,1,0,0:0:0:0:
445,162,32497,2,0,P|417:151|388:153,1,60.0000022888184
192,300,32935,1,0,0:0:0:0:
328,212,33154,1,0,0:0:0:0:
224,112,33373,6,0,P|243:134|251:163,1,60.0000022888184
140,352,33811,2,0,P|120:329|112:300,1,60.0000022888184
250,33,34249,2,0,P|294:74|320:128,1,120.000004577637
344,208,34906,1,0,0:0:0:0:
184,168,35125,5,0,0:0:0:0:
184,296,35344,1,0,0:0:0:0:
336,288,35563,1,0,0:0:0:0:
256,240,35782,1,0,0:0:0:0:
392,204,36001,1,0,0:0:0:0:
392,204,36111,1,0,0:0:0:0:
392,204,36220,1,0,0:0:0:0:
276,352,36439,1,0,0:0:0:0:
303,363,36548,1,0,0:0:0:0:
333,368,36657,1,0,0:0:0:0:
362,364,36767,1,0,0:0:0:0:
390,352,36877,6,0,P|415:311|400:256,1,80
264,264,37315,2,0,L|352:292,1,80
344,96,37753,2,0,P|310:61|253:61,1,80
226,194,38191,2,0,L|275:116,1,80
48,204,38629,6,0,P|60:166|92:143,1,80
184,80,39067,1,0,0:0:0:0:
192,272,39286,1,0,0:0:0:0:
192,272,39395,1,0,0:0:0:0:
192,272,39505,1,0,0:0:0:0:
120,208,39724,1,0,0:0:0:0:
248,40,39943,1,0,0:0:0:0:
248,40,40052,1,0,0:0:0:0:
248,40,40162,1,0,0:0:0:0:
368,216,40381,5,0,0:0:0:0:
240,140,40600,1,0,0:0:0:0:
240,140,40709,1,0,0:0:0:0:
240,140,40819,1,0,0:0:0:0:
372,40,41038,2,0,P|420:72|436:112,1,80
448,216,41476,1,0,0:0:0:0:
320,128,41695,1,0,0:0:0:0:
308,272,41913,1,0,0:0:0:0:
176,176,42132,5,0,0:0:0:0:
212,44,42352,1,0,0:0:0:0:
249,29,42461,1,0,0:0:0:0:
288,29,42570,1,0,0:0:0:0:
326,42,42680,1,0,0:0:0:0:
356,68,42789,1,0,0:0:0:0:
312,200,43008,1,0,0:0:0:0:
104,52,43446,2,0,L|104:148,1,80
208,56,43884,6,0,P|256:104|264:144,1,95.9999970703126
188,224,44322,1,0,0:0:0:0:
368,228,44541,1,0,0:0:0:0:
296,360,44760,2,0,P|275:295|286:256,1,95.9999970703126
340,144,45198,1,0,0:0:0:0:
368,312,45417,1,0,0:0:0:0:
184,148,45636,5,0,0:0:0:0:
152,312,45855,1,0,0:0:0:0:
260,192,46074,1,0,0:0:0:0:
260,116,46293,1,0,0:0:0:0:
260,32,46512,2,0,P|310:50|339:100,1,95.9999970703126
344,228,46950,1,0,0:0:0:0:
344,228,47059,1,0,0:0:0:0:
344,228,47169,1,0,0:0:0:0:
408,108,47388,6,0,P|406:60|379:21,1,95.9999970703126
240,108,47826,2,0,P|241:155|268:194,1,95.9999970703126
312,128,48264,1,0,0:0:0:0:
392,284,48483,1,0,0:0:0:0:
156,156,48702,1,0,0:0:0:0:
108,316,48921,1,0,0:0:0:0:
280,240,49140,5,0,0:0:0:0:
400,88,49359,1,0,0:0:0:0:
362,58,49468,1,0,0:0:0:0:
316,48,49577,1,0,0:0:0:0:
270,59,49687,1,0,0:0:0:0:
233,89,49796,1,0,0:0:0:0:
180,236,50016,1,0,0:0:0:0:
328,128,50235,1,0,0:0:0:0:
328,128,50344,1,0,0:0:0:0:
328,128,50454,2,0,L|348:184,1,47.9999985351563
468,256,50673,2,0,L|451:210,1,47.9999985351563
412,80,50892,5,0,0:0:0:0:
244,192,51111,1,0,0:0:0:0:
404,264,51330,1,0,0:0:0:0:
332,300,51549,1,0,0:0:0:0:
264,336,51768,2,0,P|199:331|172:301,1,95.9999970703126
104,184,52205,1,0,0:0:0:0:
232,264,52424,1,0,0:0:0:0:
312,40,52643,5,0,0:0:0:0:
220,164,52862,1,0,0:0:0:0:
380,196,53081,1,0,0:0:0:0:
384,272,53300,1,0,0:0:0:0:
324,324,53519,2,0,P|273:340|217:340,1,95.9999970703126
120,292,53957,1,0,0:0:0:0:
200,128,54176,1,0,0:0:0:0:
216,260,54395,6,0,P|263:257|309:242,1,95.9999970703126
440,120,54833,2,0,P|437:72|400:36,1,95.9999970703126
268,36,55271,2,0,P|270:83|308:120,1,95.9999970703126
372,180,55709,1,0,0:0:0:0:
344,16,55928,1,0,0:0:0:0:
188,120,56147,5,0,0:0:0:0:
256,272,56366,1,0,0:0:0:0:
88,256,56585,1,0,0:0:0:0:
268,160,56804,1,0,0:0:0:0:
320,16,57023,1,0,0:0:0:0:
440,128,57242,1,0,0:0:0:0:
408,208,57461,1,0,0:0:0:0:
328,232,57680,1,0,0:0:0:0:
248,64,57899,6,0,P|188:88|144:172,1,143.999995605469
146,153,58337,1,0,0:0:0:0:
216,312,58556,1,0,0:0:0:0:
244,148,58775,1,0,0:0:0:0:
244,148,58884,1,0,0:0:0:0:
244,148,58994,2,0,P|213:198|205:241,1,95.9999970703126
368,228,59432,1,0,0:0:0:0:
272,64,59651,5,0,0:0:0:0:
420,32,59870,1,0,0:0:0:0:
448,47,59979,1,0,0:0:0:0:
468,72,60088,1,0,0:0:0:0:
476,102,60198,1,0,0:0:0:0:
472,134,60308,1,0,0:0:0:0:
304,156,60527,1,0,0:0:0:0:
352,24,60746,1,0,0:0:0:0:
208,36,60965,1,0,0:0:0:0:
179,51,61074,1,0,0:0:0:0:
159,76,61183,1,0,0:0:0:0:
151,106,61293,1,0,0:0:0:0:
155,138,61403,1,0,0:0:0:0:
