osu file format v14

[General]
AudioFilename: vocal.mp3
AudioLeadIn: 0
PreviewTime: 75450
Countdown: 0
SampleSet: Normal
StackLeniency: 0.7
Mode: 3
LetterboxInBreaks: 0
SpecialStyle: 0
WidescreenStoryboard: 0

[Editor]
Bookmarks: 2000,18400,31200,43200,56800,76000,88800,102000,114400,127200,146400,159200,172000,181600,199443,207791,218304,233664,249024
DistanceSpacing: 1.2
BeatDivisor: 6
GridSize: 4
TimelineZoom: 1.6

[Metadata]
Title:Owari no Sekai kara
TitleUnicode:終わりの世界から
Artist:Sharlo
ArtistUnicode:夏萝
Creator:dudehacker
Version:7K HD
Source:
Tags:LordRaika Kami-Senpai Protastic101 Yanagi Nagi やなぎなぎ Jun Maeda 麻枝 准 Animenz Automap-Chan Keysound Owari no Hoshi no Love Song 終わりの惑星のLove Song SHOGO FJMC-0002
BeatmapID:1134306
BeatmapSetID:457392

[Difficulty]
HPDrainRate:8
CircleSize:7
OverallDifficulty:7.5
ApproachRate:5
SliderMultiplier:1.4
SliderTickRate:1

[Events]
//Background and Video events
0,0,"Owari no Sekai Kara.jpg",0,0
//Break Periods
//Storyboard Layer 0 (Background)
//Storyboard Layer 1 (Fail)
//Storyboard Layer 2 (Pass)
//Storyboard Layer 3 (Foreground)
//Storyboard Sound Samples
Sample,1500,0,"54_D#4_96.wav",34
Sample,1750,0,"54_F#4_96.wav",34
Sample,2000,0,"54_D#4_96.wav",35
Sample,2000,0,"54_F#4_96.wav",35
Sample,2000,0,"54_B3_96.wav",35
Sample,2500,0,"54_B4_96.wav",42
Sample,2500,0,"54_D#4_96.wav",42
Sample,2750,0,"54_A#4_96.wav",37
Sample,2750,0,"54_C#4_96.wav",37
Sample,3250,0,"54_G#4_96.wav",36
Sample,3250,0,"54_B3_96.wav",36
Sample,3750,0,"54_D#4_96.wav",32
Sample,3750,0,"54_F#3_96.wav",32
Sample,4500,0,"54_D#4_96.wav",41
Sample,4500,0,"54_F#3_96.wav",41
Sample,4750,0,"54_C#4_96.wav",40
Sample,4750,0,"54_E3_96.wav",40
Sample,5250,0,"54_D#3_96.wav",35
Sample,5250,0,"54_B3_96.wav",35
Sample,5750,0,"54_B3_96.wav",35
Sample,6000,0,"54_A#3_96.wav",44
Sample,6000,0,"54_C#4_96.wav",44
Sample,6500,0,"54_A#3_96.wav",37
Sample,6500,0,"54_C#4_96.wav",37
Sample,6750,0,"54_G#3_96.wav",35
Sample,6750,0,"54_B3_96.wav",35
Sample,7000,0,"54_A#3_96.wav",43
Sample,7000,0,"54_C#4_96.wav",43
Sample,7250,0,"54_B3_96.wav",45
Sample,7250,0,"54_D#4_96.wav",45
Sample,7750,0,"54_B3_288.wav",39
Sample,7750,0,"54_D#4_288.wav",39
Sample,9500,0,"54_D#4_96.wav",38
Sample,9750,0,"54_F#4_96.wav",43
Sample,10000,0,"54_D#4_96.wav",39
Sample,10000,0,"54_B3_96.wav",39
Sample,10000,0,"54_F#4_96.wav",39
Sample,10500,0,"54_B4_96.wav",46
Sample,10500,0,"54_D#4_96.wav",46
Sample,10750,0,"54_A#4_96.wav",37
Sample,10750,0,"54_C#4_96.wav",37
Sample,11250,0,"54_G#4_96.wav",33
Sample,11250,0,"54_B3_96.wav",33
Sample,11750,0,"54_D#4_96.wav",34
Sample,11750,0,"54_F#3_96.wav",34
Sample,12500,0,"54_D#4_96.wav",44
Sample,12500,0,"54_F#3_96.wav",44
Sample,12750,0,"54_C#4_96.wav",43
Sample,12750,0,"54_E3_96.wav",43
Sample,13250,0,"54_B3_96.wav",33
Sample,13250,0,"54_D#3_96.wav",33
Sample,13750,0,"54_C#4_96.wav",36
Sample,14000,0,"54_C#4_96.wav",38
Sample,14000,0,"54_C#5_96.wav",38
Sample,14000,0,"54_A#4_96.wav",38
Sample,14500,0,"54_C#5_96.wav",44
Sample,14500,0,"54_C#4_96.wav",44
Sample,14750,0,"54_B3_96.wav",42
Sample,14750,0,"54_B4_96.wav",42
Sample,15000,0,"54_C#4_96.wav",40
Sample,15000,0,"54_C#5_96.wav",40
Sample,15250,0,"54_B3_96.wav",39
Sample,15250,0,"54_B4_96.wav",39
Sample,15625,0,"54_A#3_96.wav",37
Sample,15625,0,"54_A#4_96.wav",37
Sample,15875,0,"54_B4_480.wav",34
Sample,15875,0,"54_B3_480.wav",34
Sample,18400,0,"10_B2_288.wav",88
Sample,19800,0,"10_E3_96.wav",74
Sample,21600,0,"0_F#2_288.wav",87
Sample,24800,0,"10_B3_96.wav",79
Sample,24800,0,"0_G#0_288.wav",73
Sample,26200,0,"0_E3_96.wav",92
Sample,26200,0,"0_E0_384.wav",75
Sample,28000,0,"0_B1_96.wav",97
Sample,28000,0,"0_B0_288.wav",97
Sample,29400,0,"10_A#3_96.wav",62
Sample,29400,0,"0_F#0_384.wav",81
Sample,31200,0,"54_D#4_96.wav",41
Sample,31600,0,"54_C#4_96.wav",35
Sample,31800,0,"54_B3_96.wav",48
Sample,32200,0,"54_B3_96.wav",48
Sample,32600,0,"54_B3_96.wav",51
Sample,32800,0,"54_B3_96.wav",51
Sample,33200,0,"54_A#3_96.wav",51
Sample,33600,0,"54_B3_96.wav",55
Sample,34000,0,"54_C#4_96.wav",59
Sample,34400,0,"54_B3_96.wav",48
Sample,34600,0,"54_C#4_96.wav",53
Sample,34800,0,"54_D#4_96.wav",51
Sample,35000,0,"54_E4_96.wav",56
Sample,35400,0,"54_D#4_96.wav",46
Sample,35600,0,"54_C#4_96.wav",39
Sample,35800,0,"54_B3_192.wav",47
Sample,36800,0,"54_B3_96.wav",48
Sample,37000,0,"54_B3_96.wav",52
Sample,37200,0,"54_B3_96.wav",52
Sample,37400,0,"54_B3_96.wav",51
Sample,37800,0,"54_F#4_96.wav",57
Sample,38400,0,"54_B3_96.wav",42
Sample,38600,0,"54_B3_96.wav",50
Sample,38800,0,"54_B3_96.wav",49
Sample,39000,0,"54_A#3_96.wav",48
Sample,39400,0,"54_B3_96.wav",51
Sample,39600,0,"54_E4_96.wav",58
Sample,40200,0,"54_D#4_96.wav",50
Sample,40400,0,"54_C#4_96.wav",47
Sample,40600,0,"54_B3_96.wav",45
Sample,41200,0,"54_B3_96.wav",48
Sample,41400,0,"54_A#3_96.wav",43
Sample,41800,0,"54_F#3_96.wav",44
Sample,42000,0,"54_A#3_96.wav",52
Sample,42200,0,"54_B3_288.wav",54
Sample,44000,0,"54_D#4_96.wav",41
Sample,44000,0,"0_G#2_96.wav",57
Sample,44000,0,"0_G#1_96.wav",57
Sample,44200,0,"54_C#4_96.wav",35
Sample,44400,0,"0_D#3_96.wav",72
Sample,44400,0,"54_B3_96.wav",35
Sample,44600,0,"54_B3_96.wav",48
Sample,44600,0,"0_G#3_96.wav",69
Sample,44600,0,"0_G#2_96.wav",57
Sample,45000,0,"0_D#3_96.wav",54
Sample,45000,0,"54_B3_96.wav",48
Sample,45200,0,"0_G#3_96.wav",70
Sample,45200,0,"0_G#2_96.wav",57
Sample,45400,0,"54_B3_96.wav",51
Sample,45600,0,"54_B3_96.wav",51
Sample,45600,0,"0_D#2_96.wav",48
Sample,45600,0,"0_D#1_96.wav",57
Sample,46000,0,"0_A#2_96.wav",67
Sample,46000,0,"54_A#3_96.wav",51
Sample,46200,0,"0_F#3_96.wav",75
Sample,46200,0,"0_F#3_96.wav",75
Sample,46200,0,"0_F#2_96.wav",57
Sample,46400,0,"54_B3_96.wav",55
Sample,46600,0,"0_A#2_96.wav",61
Sample,46800,0,"0_F#2_96.wav",57
Sample,46800,0,"10_F#3_96.wav",75
Sample,46800,0,"54_C#4_96.wav",59
Sample,47200,0,"54_B3_96.wav",48
Sample,47200,0,"0_E2_96.wav",55
Sample,47200,0,"0_D#1_96.wav",57
Sample,47400,0,"54_C#4_96.wav",53
Sample,47400,0,"0_B2_96.wav",65
Sample,47600,0,"0_E2_96.wav",57
Sample,47600,0,"0_E3_96.wav",66
Sample,47600,0,"54_D#4_96.wav",51
Sample,47800,0,"54_E4_96.wav",56
Sample,48000,0,"0_F#2_96.wav",58
Sample,48000,0,"0_F#2_96.wav",58
Sample,48000,0,"0_F#1_96.wav",57
Sample,48200,0,"54_D#4_96.wav",46
Sample,48200,0,"0_C#3_96.wav",64
Sample,48400,0,"0_F#2_96.wav",57
Sample,48400,0,"0_F#3_96.wav",73
Sample,48400,0,"54_C#4_96.wav",39
Sample,48600,0,"54_B3_192.wav",47
Sample,49400,0,"54_A#3_96.wav",40
Sample,49600,0,"54_B3_96.wav",48
Sample,49800,0,"0_B3_96.wav",61
Sample,50000,0,"54_B3_96.wav",52
Sample,50000,0,"0_F#3_96.wav",51
Sample,50000,0,"0_F#2_96.wav",57
Sample,50200,0,"54_B3_96.wav",51
Sample,50400,0,"0_G#2_96.wav",58
Sample,50400,0,"0_G#1_96.wav",58
Sample,50600,0,"0_D#3_96.wav",71
Sample,50600,0,"54_F#4_96.wav",57
Sample,50800,0,"0_G#3_96.wav",69
Sample,51000,0,"0_B3_96.wav",66
Sample,51000,0,"0_B2_96.wav",58
Sample,51200,0,"54_B3_96.wav",42
Sample,51400,0,"54_B3_96.wav",50
Sample,51400,0,"0_G#3_96.wav",57
Sample,51600,0,"0_D#2_96.wav",58
Sample,51600,0,"0_D#3_96.wav",51
Sample,51800,0,"54_A#3_96.wav",48
Sample,52000,0,"0_C#2_96.wav",48
Sample,52000,0,"0_C#1_96.wav",58
Sample,52200,0,"0_G#2_96.wav",64
Sample,52200,0,"54_B3_96.wav",51
Sample,52400,0,"0_B2_96.wav",64
Sample,52400,0,"54_E4_96.wav",58
Sample,52600,0,"0_E3_96.wav",71
Sample,52600,0,"0_E2_96.wav",58
Sample,53000,0,"0_B2_96.wav",56
Sample,53000,0,"54_D#4_96.wav",50
Sample,53200,0,"0_G#1_96.wav",58
Sample,53200,0,"54_C#4_96.wav",47
Sample,53200,0,"0_G#2_96.wav",59
Sample,53400,0,"54_B3_96.wav",45
Sample,53600,0,"0_E2_96.wav",59
Sample,53600,0,"0_E1_96.wav",58
Sample,53800,0,"0_B2_96.wav",65
Sample,54000,0,"0_G#2_96.wav",58
Sample,54000,0,"0_G#3_96.wav",76
Sample,54200,0,"54_A#3_96.wav",43
Sample,54400,0,"0_F#2_96.wav",54
Sample,54400,0,"0_F#1_96.wav",58
Sample,54600,0,"0_C#3_96.wav",72
Sample,54600,0,"54_F#3_96.wav",44
Sample,54800,0,"0_A#2_96.wav",58
Sample,54800,0,"54_A#3_96.wav",52
Sample,54800,0,"0_A#3_96.wav",77
Sample,55000,0,"54_B3_192.wav",54
Sample,56000,0,"54_C#5_96.wav",48
Sample,56400,0,"54_B4_96.wav",46
Sample,56600,0,"54_A4_96.wav",40
Sample,57000,0,"54_E5_96.wav",48
Sample,57200,0,"54_E5_96.wav",53
Sample,58000,0,"54_E5_96.wav",44
Sample,58200,0,"54_B4_96.wav",39
Sample,58600,0,"54_B4_96.wav",48
Sample,59000,0,"54_C#5_96.wav",50
Sample,59200,0,"54_B4_96.wav",44
Sample,59600,0,"54_A4_96.wav",40
Sample,59800,0,"0_E3_96.wav",90
Sample,59800,0,"54_A4_96.wav",46
Sample,60200,0,"54_E5_96.wav",53
Sample,60400,0,"54_E5_96.wav",53
Sample,61200,0,"54_E5_96.wav",44
Sample,61400,0,"54_B4_96.wav",37
Sample,61800,0,"54_B4_96.wav",49
Sample,62200,0,"54_C#5_96.wav",53
Sample,62400,0,"54_B4_96.wav",43
Sample,62800,0,"54_A4_96.wav",40
Sample,63000,0,"54_A4_96.wav",44
Sample,63000,0,"0_E3_96.wav",90
Sample,63400,0,"54_E5_96.wav",53
Sample,63600,0,"54_E5_96.wav",55
Sample,64400,0,"54_E5_96.wav",46
Sample,64600,0,"54_B4_96.wav",37
Sample,65000,0,"54_B4_96.wav",46
Sample,65400,0,"54_C#5_96.wav",52
Sample,65600,0,"54_A4_96.wav",41
Sample,66000,0,"54_E5_96.wav",55
Sample,66400,0,"54_D5_96.wav",53
Sample,66400,0,"54_B4_96.wav",53
Sample,66800,0,"54_C#5_96.wav",44
Sample,67200,0,"54_B4_96.wav",51
Sample,67600,0,"54_A4_96.wav",43
Sample,68000,0,"54_A4_96.wav",52
Sample,68000,0,"54_E5_96.wav",52
Sample,68400,0,"54_D5_96.wav",46
Sample,68800,0,"54_C#5_96.wav",48
Sample,69200,0,"54_B4_96.wav",43
Sample,69600,0,"54_A4_576.wav",48
Sample,72400,0,"0_F#3_96.wav",55
Sample,72800,0,"54_C#4_288.wav",56
Sample,72800,0,"10_F#5_288.wav",62
Sample,72800,0,"0_F#1_96.wav",46
Sample,72800,0,"54_C#5_288.wav",56
Sample,72800,0,"54_C#6_288.wav",22
Sample,74400,0,"0_G#4_96.wav",90
Sample,74400,0,"0_D#1_192.wav",67
Sample,74400,0,"0_D#2_192.wav",67
Sample,75200,0,"0_D#0_96.wav",72
Sample,75200,0,"0_G3_96.wav",85
Sample,75200,0,"0_A#3_96.wav",85
Sample,75600,0,"54_D#4_96.wav",47
Sample,75800,0,"54_F#4_96.wav",50
Sample,76000,0,"54_D#4_96.wav",58
Sample,76000,0,"54_F#4_96.wav",58
Sample,76400,0,"54_D#4_96.wav",68
Sample,76400,0,"54_B4_96.wav",68
Sample,76600,0,"54_C#4_96.wav",58
Sample,76600,0,"54_A#4_96.wav",58
Sample,77000,0,"54_G#4_96.wav",54
Sample,77000,0,"54_B3_96.wav",54
Sample,77400,0,"54_B3_96.wav",50
Sample,77400,0,"54_G#3_96.wav",50
Sample,77400,0,"54_D#4_96.wav",50
Sample,78000,0,"54_D#4_96.wav",57
Sample,78200,0,"54_C#4_96.wav",55
Sample,78600,0,"54_B3_96.wav",52
Sample,79000,0,"54_B3_96.wav",59
Sample,79200,0,"54_A#3_96.wav",60
Sample,79200,0,"54_C#4_96.wav",60
Sample,79600,0,"54_C#4_96.wav",60
Sample,79600,0,"54_A#3_96.wav",60
Sample,79800,0,"54_B3_96.wav",55
Sample,79800,0,"54_G#3_96.wav",55
Sample,80000,0,"54_A#3_96.wav",62
Sample,80000,0,"54_C#4_96.wav",62
Sample,80200,0,"54_D#4_96.wav",68
Sample,80200,0,"54_B3_96.wav",68
Sample,80600,0,"54_B3_288.wav",60
Sample,80600,0,"54_D#4_288.wav",60
Sample,81800,0,"0_A#0_96.wav",80
Sample,82000,0,"54_D#4_96.wav",60
Sample,82200,0,"54_F#4_96.wav",66
Sample,82400,0,"54_F#4_96.wav",61
Sample,82400,0,"54_D#4_96.wav",61
Sample,82400,0,"0_G#0_384.wav",87
Sample,82800,0,"54_B4_96.wav",68
Sample,82800,0,"54_D#4_96.wav",68
Sample,83000,0,"54_C#4_96.wav",55
Sample,83000,0,"54_A#4_96.wav",55
Sample,83400,0,"54_G#4_96.wav",52
Sample,83400,0,"54_B3_96.wav",52
Sample,83800,0,"54_B3_96.wav",55
Sample,83800,0,"54_D#4_96.wav",55
Sample,83800,0,"54_G#3_96.wav",55
Sample,84400,0,"54_D#4_96.wav",62
Sample,84600,0,"54_C#4_96.wav",56
Sample,85000,0,"54_B3_96.wav",54
Sample,85400,0,"54_C#4_96.wav",64
Sample,85600,0,"54_A#4_96.wav",62
Sample,85600,0,"54_C#4_96.wav",46
Sample,85600,0,"54_F#4_96.wav",46
Sample,85600,0,"54_C#5_96.wav",62
Sample,86000,0,"54_C#5_96.wav",68
Sample,86000,0,"54_C#4_96.wav",68
Sample,86200,0,"54_B3_96.wav",55
Sample,86200,0,"54_B4_96.wav",55
Sample,86400,0,"54_C#5_96.wav",58
Sample,86400,0,"54_C#4_96.wav",58
Sample,86600,0,"54_B3_96.wav",58
Sample,86600,0,"54_B4_96.wav",58
Sample,86800,0,"54_A#4_96.wav",57
Sample,86800,0,"54_A#3_96.wav",57
Sample,87000,0,"54_B3_384.wav",61
Sample,87000,0,"54_B4_384.wav",61
Sample,88800,0,"0_G#0_96.wav",88
Sample,88800,0,"0_G#1_96.wav",88
Sample,89200,0,"54_F#4_96.wav",58
Sample,89200,0,"54_D#4_96.wav",58
Sample,89200,0,"0_G#1_96.wav",88
Sample,89200,0,"0_G#0_96.wav",88
Sample,89400,0,"0_B2_96.wav",75
Sample,89600,0,"0_G#1_192.wav",86
Sample,89600,0,"0_G#0_192.wav",88
Sample,89600,0,"54_D#4_96.wav",70
Sample,89600,0,"54_F#4_96.wav",70
Sample,89600,0,"54_A#4_96.wav",62
Sample,89800,0,"0_B2_96.wav",85
Sample,90000,0,"54_F#4_96.wav",70
Sample,90000,0,"54_D#4_96.wav",70
Sample,90000,0,"54_B4_96.wav",67
Sample,90400,0,"0_E0_96.wav",85
Sample,90400,0,"0_E1_96.wav",85
Sample,90800,0,"0_E1_96.wav",85
Sample,90800,0,"0_E0_96.wav",85
Sample,90800,0,"54_F#4_96.wav",55
Sample,90800,0,"54_A#4_96.wav",53
Sample,90800,0,"54_E4_96.wav",55
Sample,91000,0,"0_B2_96.wav",77
Sample,91200,0,"0_E1_192.wav",83
Sample,91200,0,"0_E0_192.wav",85
Sample,91200,0,"54_F#4_96.wav",70
Sample,91200,0,"54_B4_96.wav",56
Sample,91200,0,"54_E4_96.wav",70
Sample,91400,0,"0_B2_96.wav",85
Sample,91600,0,"54_E4_96.wav",70
Sample,91600,0,"54_C#5_96.wav",66
Sample,91600,0,"54_F#4_96.wav",70
Sample,92000,0,"0_B0_96.wav",97
Sample,92000,0,"0_B1_96.wav",97
Sample,92400,0,"0_B1_96.wav",97
Sample,92400,0,"0_B0_96.wav",97
Sample,92400,0,"54_D#4_96.wav",55
Sample,92400,0,"54_F#4_96.wav",55
Sample,92400,0,"54_B4_96.wav",58
Sample,92600,0,"0_B2_96.wav",74
Sample,92800,0,"0_B1_96.wav",97
Sample,92800,0,"0_B0_192.wav",97
Sample,92800,0,"54_D#4_96.wav",70
Sample,92800,0,"54_C#5_96.wav",60
Sample,92800,0,"54_F#4_96.wav",70
Sample,93000,0,"0_B2_96.wav",85
Sample,93200,0,"54_D#5_96.wav",70
Sample,93200,0,"54_F#4_96.wav",70
Sample,93200,0,"54_D#4_96.wav",68
Sample,93600,0,"0_F#2_96.wav",80
Sample,93600,0,"10_B3_96.wav",74
Sample,93600,0,"54_F#4_96.wav",69
Sample,93600,0,"10_B3_96.wav",74
Sample,93600,0,"54_B4_96.wav",69
Sample,93600,0,"10_C#4_96.wav",74
Sample,93600,0,"0_F#1_96.wav",80
Sample,93600,0,"0_C#4_96.wav",90
Sample,94200,0,"54_A#4_96.wav",73
Sample,94400,0,"54_A#4_96.wav",65
Sample,94400,0,"54_G4_96.wav",65
Sample,94800,0,"54_D#4_96.wav",57
Sample,95000,0,"54_F#4_96.wav",59
Sample,95200,0,"54_B3_96.wav",59
Sample,95200,0,"54_F#4_96.wav",59
Sample,95200,0,"54_D#4_96.wav",59
Sample,95600,0,"54_D#4_96.wav",66
Sample,95600,0,"54_B4_96.wav",66
Sample,95800,0,"54_A#4_96.wav",58
Sample,95800,0,"54_C#4_96.wav",58
Sample,96200,0,"54_G#4_96.wav",55
Sample,96200,0,"54_B3_96.wav",55
Sample,96600,0,"54_B3_96.wav",51
Sample,96600,0,"54_G#3_96.wav",51
Sample,96600,0,"54_D#4_96.wav",51
Sample,97200,0,"54_D#4_96.wav",57
Sample,97400,0,"54_C#4_96.wav",56
Sample,97800,0,"54_B3_96.wav",52
Sample,98200,0,"54_B3_96.wav",59
Sample,98200,0,"54_B4_96.wav",59
Sample,98400,0,"54_C#4_384.wav",45
Sample,98400,0,"54_C#5_480.wav",59
Sample,98400,0,"54_A4_384.wav",59
Sample,98400,0,"54_E4_384.wav",45
Sample,99200,0,"0_C#2_96.wav",80
Sample,100600,0,"54_B3_96.wav",57
Sample,100600,0,"54_B4_96.wav",57
Sample,101000,0,"54_A#4_96.wav",55
Sample,101000,0,"54_A#3_96.wav",55
Sample,101000,0,"0_A1_96.wav",80
Sample,101200,0,"54_G#3_96.wav",55
Sample,101200,0,"54_G#4_96.wav",55
Sample,101400,0,"54_C#5_96.wav",66
Sample,101400,0,"54_C#4_96.wav",66
Sample,101600,0,"0_G#0_288.wav",98
Sample,101600,0,"10_E2_96.wav",52
Sample,101650,0,"10_A2_96.wav",52
Sample,101700,0,"10_C#3_96.wav",52
Sample,101750,0,"10_E3_96.wav",51
Sample,101800,0,"10_A3_96.wav",52
Sample,101800,0,"54_D#4_96.wav",67
Sample,101800,0,"54_D#5_96.wav",67
Sample,101850,0,"10_C#4_96.wav",52
Sample,101900,0,"10_E4_96.wav",57
Sample,101950,0,"10_A4_96.wav",62
Sample,102000,0,"10_B4_96.wav",78
Sample,102000,0,"54_B3_576.wav",55
Sample,102000,0,"54_B4_576.wav",55
Sample,102000,0,"0_G#1_96.wav",80
Sample,114400,0,"54_D#5_96.wav",48
Sample,114800,0,"54_C#5_96.wav",48
Sample,115000,0,"54_B4_96.wav",44
Sample,115400,0,"54_B4_96.wav",44
Sample,115800,0,"54_B4_96.wav",40
Sample,116000,0,"54_B4_96.wav",42
Sample,116400,0,"54_A#4_96.wav",42
Sample,116800,0,"54_B4_96.wav",42
Sample,117200,0,"54_C#5_96.wav",47
Sample,117600,0,"54_B4_96.wav",40
Sample,117800,0,"54_C#5_96.wav",42
Sample,118000,0,"54_D#5_96.wav",47
Sample,118200,0,"54_E5_96.wav",48
Sample,118600,0,"54_D#5_96.wav",38
Sample,118800,0,"54_C#5_96.wav",35
Sample,119000,0,"54_B4_192.wav",40
Sample,120000,0,"54_B4_96.wav",40
Sample,120200,0,"54_B4_96.wav",42
Sample,120400,0,"54_B4_96.wav",41
Sample,120600,0,"54_B4_96.wav",44
Sample,121000,0,"54_F#5_96.wav",32
Sample,121000,0,"54_F#4_96.wav",29
Sample,121600,0,"54_B4_96.wav",33
Sample,121800,0,"54_B4_96.wav",39
Sample,122000,0,"54_B4_96.wav",43
Sample,122200,0,"54_A#4_96.wav",40
Sample,122600,0,"54_B4_96.wav",44
Sample,122800,0,"54_E5_96.wav",50
Sample,123400,0,"54_D#5_96.wav",40
Sample,123600,0,"54_C#5_96.wav",36
Sample,123800,0,"54_B4_96.wav",40
Sample,124400,0,"54_B4_96.wav",42
Sample,124600,0,"54_A#4_96.wav",40
Sample,125000,0,"54_F#4_96.wav",39
Sample,125200,0,"54_A#4_96.wav",39
Sample,125400,0,"54_B4_192.wav",43
Sample,126400,0,"54_C#5_96.wav",47
Sample,126800,0,"54_B4_96.wav",42
Sample,127000,0,"54_A4_96.wav",39
Sample,127400,0,"54_E5_96.wav",61
Sample,127600,0,"54_E5_192.wav",50
Sample,128400,0,"54_E5_96.wav",51
Sample,128600,0,"54_B4_96.wav",44
Sample,129000,0,"54_B4_96.wav",49
Sample,129400,0,"54_C#5_96.wav",51
Sample,129600,0,"54_B4_96.wav",47
Sample,130000,0,"54_A4_96.wav",40
Sample,130200,0,"54_A4_96.wav",48
Sample,130600,0,"54_E5_96.wav",56
Sample,130800,0,"54_E5_192.wav",50
Sample,131600,0,"54_E5_96.wav",49
Sample,131800,0,"54_B4_96.wav",40
Sample,132200,0,"54_B4_96.wav",48
Sample,132600,0,"54_C#5_96.wav",53
Sample,132800,0,"54_B4_96.wav",48
Sample,133200,0,"54_A4_96.wav",46
Sample,133400,0,"54_A4_96.wav",49
Sample,133800,0,"54_E5_96.wav",56
Sample,134000,0,"54_E5_192.wav",51
Sample,134800,0,"54_E5_96.wav",51
Sample,135000,0,"54_B4_96.wav",46
Sample,135400,0,"54_B4_96.wav",48
Sample,135800,0,"54_C#5_96.wav",51
Sample,136000,0,"54_A4_96.wav",41
Sample,136400,0,"54_E5_96.wav",59
Sample,136800,0,"54_D5_96.wav",55
Sample,136900,0,"0_F#4_96.wav",64
Sample,137000,0,"0_B1_96.wav",87
Sample,137000,0,"0_B2_96.wav",69
Sample,137000,0,"0_B0_96.wav",87
Sample,137100,0,"0_F#4_96.wav",90
Sample,137200,0,"54_C#5_96.wav",51
Sample,137300,0,"0_F#4_96.wav",68
Sample,137400,0,"0_D2_96.wav",73
Sample,137500,0,"0_F#4_96.wav",86
Sample,137600,0,"54_B4_96.wav",55
Sample,137600,0,"0_C#1_96.wav",93
Sample,137700,0,"0_E4_96.wav",70
Sample,137800,0,"0_C#2_96.wav",93
Sample,137800,0,"0_C#3_96.wav",69
Sample,137800,0,"0_C#1_96.wav",93
Sample,137900,0,"0_E4_96.wav",90
Sample,138000,0,"54_A4_96.wav",51
Sample,138100,0,"0_E4_96.wav",72
Sample,138200,0,"0_C#3_96.wav",77
Sample,138300,0,"0_E4_96.wav",90
Sample,138400,0,"0_D1_96.wav",91
Sample,138400,0,"54_E5_96.wav",70
Sample,138500,0,"0_F#4_96.wav",70
Sample,138600,0,"0_D1_96.wav",91
Sample,138600,0,"0_D2_96.wav",91
Sample,138600,0,"0_F#2_96.wav",70
Sample,138700,0,"0_F#4_96.wav",82
Sample,138800,0,"54_D5_96.wav",69
Sample,138900,0,"0_F#4_96.wav",69
Sample,139000,0,"0_F#2_96.wav",77
Sample,139100,0,"0_F#4_96.wav",88
Sample,139200,0,"0_E1_96.wav",90
Sample,139200,0,"54_C#5_96.wav",55
Sample,139300,0,"0_E4_96.wav",66
Sample,139400,0,"0_E2_96.wav",91
Sample,139400,0,"0_E3_96.wav",67
Sample,139400,0,"0_E1_96.wav",91
Sample,139500,0,"0_E4_96.wav",86
Sample,139600,0,"54_B4_96.wav",51
Sample,139700,0,"0_E4_96.wav",70
Sample,139800,0,"0_B3_96.wav",59
Sample,139900,0,"0_E4_96.wav",90
Sample,140000,0,"54_A4_576.wav",52
Sample,143200,0,"0_F#1_96.wav",66
Sample,143200,0,"54_C#6_288.wav",17
Sample,143200,0,"54_C#4_288.wav",53
Sample,143200,0,"54_C#5_288.wav",36
Sample,144800,0,"0_D#2_192.wav",73
Sample,144800,0,"0_D#1_192.wav",73
Sample,145600,0,"0_D#1_96.wav",65
Sample,145600,0,"0_D#0_96.wav",66
Sample,146000,0,"54_D#4_96.wav",43
Sample,146200,0,"54_F#4_96.wav",48
Sample,146400,0,"54_F#4_96.wav",56
Sample,146400,0,"54_D#4_96.wav",56
Sample,146800,0,"54_D#4_96.wav",66
Sample,146800,0,"54_B4_96.wav",66
Sample,147000,0,"54_A#4_96.wav",59
Sample,147000,0,"54_C#4_96.wav",59
Sample,147400,0,"54_G#4_96.wav",55
Sample,147400,0,"54_B3_96.wav",55
Sample,147800,0,"54_G#3_96.wav",48
Sample,147800,0,"54_B3_96.wav",48
Sample,147800,0,"54_D#4_96.wav",48
Sample,148400,0,"54_D#4_96.wav",55
Sample,148600,0,"54_C#4_96.wav",54
Sample,149000,0,"54_B3_96.wav",50
Sample,149400,0,"54_B3_96.wav",58
Sample,149600,0,"54_A#3_96.wav",62
Sample,149600,0,"54_C#4_96.wav",62
Sample,150000,0,"54_A#3_96.wav",57
Sample,150000,0,"54_C#4_96.wav",57
Sample,150200,0,"54_B3_96.wav",55
Sample,150200,0,"54_G#3_96.wav",55
Sample,150400,0,"54_C#4_96.wav",60
Sample,150400,0,"54_A#3_96.wav",60
Sample,150600,0,"54_B3_96.wav",62
Sample,150600,0,"54_D#4_96.wav",62
Sample,151000,0,"54_D#4_288.wav",58
Sample,151000,0,"54_B3_288.wav",58
Sample,152400,0,"54_D#4_96.wav",58
Sample,152600,0,"54_F#4_96.wav",63
Sample,152800,0,"54_D#4_96.wav",57
Sample,152800,0,"54_F#4_96.wav",57
Sample,152800,0,"0_G#0_384.wav",88
Sample,153200,0,"54_B4_96.wav",64
Sample,153200,0,"54_D#4_96.wav",64
Sample,153400,0,"54_A#4_96.wav",57
Sample,153400,0,"54_C#4_96.wav",57
Sample,153800,0,"54_B3_96.wav",52
Sample,153800,0,"54_G#4_96.wav",52
Sample,154200,0,"54_D#4_96.wav",51
Sample,154200,0,"54_B3_96.wav",51
Sample,154200,0,"54_G#3_96.wav",51
Sample,154800,0,"54_D#4_96.wav",56
Sample,155000,0,"54_C#4_96.wav",55
Sample,155400,0,"54_B3_96.wav",51
Sample,155800,0,"54_C#4_96.wav",60
Sample,156000,0,"54_C#4_96.wav",55
Sample,156000,0,"54_F#4_96.wav",55
Sample,156000,0,"54_C#5_96.wav",55
Sample,156000,0,"54_A#4_96.wav",55
Sample,156400,0,"54_C#4_96.wav",61
Sample,156400,0,"54_C#5_96.wav",61
Sample,156600,0,"54_B3_96.wav",52
Sample,156600,0,"54_B4_96.wav",52
Sample,156800,0,"54_C#5_96.wav",55
Sample,156800,0,"54_C#4_96.wav",55
Sample,157000,0,"54_B3_96.wav",54
Sample,157000,0,"54_B4_96.wav",54
Sample,157200,0,"54_A#4_96.wav",51
Sample,157200,0,"54_A#3_96.wav",51
Sample,157400,0,"54_B3_384.wav",61
Sample,157400,0,"54_B4_384.wav",61
Sample,159200,0,"0_G#0_96.wav",84
Sample,159200,0,"0_G#1_96.wav",84
Sample,159600,0,"0_G#0_96.wav",84
Sample,159600,0,"54_F#4_96.wav",55
Sample,159600,0,"0_G#1_96.wav",84
Sample,159600,0,"54_D#4_96.wav",55
Sample,159800,0,"0_B2_96.wav",71
Sample,160000,0,"0_G#1_192.wav",88
Sample,160000,0,"54_D#4_96.wav",72
Sample,160000,0,"54_F#4_96.wav",72
Sample,160000,0,"54_A#4_96.wav",61
Sample,160000,0,"0_G#0_192.wav",88
Sample,160200,0,"0_B2_96.wav",91
Sample,160400,0,"54_B4_96.wav",64
Sample,160400,0,"54_D#4_96.wav",72
Sample,160400,0,"54_F#4_96.wav",72
Sample,160800,0,"0_E0_96.wav",81
Sample,160800,0,"0_E1_96.wav",81
Sample,161200,0,"54_A#4_96.wav",59
Sample,161200,0,"0_E1_96.wav",81
Sample,161200,0,"54_E4_96.wav",55
Sample,161200,0,"0_E0_96.wav",81
Sample,161200,0,"54_F#4_96.wav",55
Sample,161400,0,"0_B2_96.wav",82
Sample,161600,0,"54_F#4_96.wav",72
Sample,161600,0,"0_E1_192.wav",81
Sample,161600,0,"54_B4_96.wav",62
Sample,161600,0,"0_E0_192.wav",81
Sample,161600,0,"54_E4_96.wav",72
Sample,161800,0,"0_B2_96.wav",87
Sample,162000,0,"54_C#5_96.wav",67
Sample,162000,0,"54_E4_96.wav",72
Sample,162000,0,"54_F#4_96.wav",72
Sample,162400,0,"0_B1_96.wav",94
Sample,162400,0,"0_B0_96.wav",94
Sample,162800,0,"0_B0_96.wav",94
Sample,162800,0,"54_F#4_96.wav",55
Sample,162800,0,"54_B4_96.wav",55
Sample,162800,0,"54_D#4_96.wav",55
Sample,162800,0,"0_B1_96.wav",94
Sample,163000,0,"0_B2_96.wav",87
Sample,163200,0,"0_B1_192.wav",94
Sample,163200,0,"54_C#5_96.wav",57
Sample,163200,0,"54_F#4_96.wav",72
Sample,163200,0,"54_D#4_96.wav",72
Sample,163200,0,"0_B0_192.wav",94
Sample,163400,0,"0_B2_96.wav",88
Sample,163600,0,"54_D#5_96.wav",66
Sample,163600,0,"54_D#4_96.wav",72
Sample,163600,0,"54_F#4_96.wav",72
Sample,164000,0,"10_B3_96.wav",65
Sample,164000,0,"54_F#4_96.wav",72
Sample,164000,0,"10_C#4_96.wav",65
Sample,164000,0,"54_B4_96.wav",72
Sample,164600,0,"54_A#4_96.wav",70
Sample,164800,0,"54_G4_96.wav",63
Sample,164800,0,"54_D#4_96.wav",63
Sample,164800,0,"54_A#4_96.wav",63
Sample,165200,0,"54_D#4_96.wav",47
Sample,165400,0,"54_F#4_96.wav",51
Sample,165600,0,"54_F#4_96.wav",59
Sample,165600,0,"54_B3_96.wav",59
Sample,165600,0,"54_D#4_96.wav",59
Sample,166000,0,"54_D#4_96.wav",66
Sample,166000,0,"54_B4_96.wav",66
Sample,166200,0,"54_A#4_96.wav",55
Sample,166200,0,"54_C#4_96.wav",55
Sample,166600,0,"54_G#4_96.wav",55
Sample,166600,0,"54_B3_96.wav",55
Sample,167000,0,"54_G#3_96.wav",50
Sample,167000,0,"54_D#4_96.wav",50
Sample,167000,0,"54_B3_96.wav",50
Sample,167600,0,"54_D#4_96.wav",57
Sample,167800,0,"54_C#4_96.wav",55
Sample,168200,0,"54_B3_96.wav",56
Sample,168600,0,"54_B3_96.wav",61
Sample,168600,0,"54_B4_96.wav",61
Sample,168800,0,"54_C#4_480.wav",51
Sample,168800,0,"54_C#5_480.wav",51
Sample,168800,0,"54_A4_480.wav",51
Sample,168800,0,"54_E4_480.wav",51
Sample,170800,0,"0_C#4_96.wav",100
Sample,171200,0,"10_E3_96.wav",70
Sample,171200,0,"54_E4_96.wav",58
Sample,171600,0,"54_A4_96.wav",66
Sample,172000,0,"54_B4_96.wav",51
Sample,172000,0,"10_D4_96.wav",44
Sample,172200,0,"10_D4_96.wav",47
Sample,172400,0,"10_D4_96.wav",47
Sample,172400,0,"54_A4_96.wav",47
Sample,172600,0,"10_D4_96.wav",48
Sample,172600,0,"54_B4_96.wav",51
Sample,172800,0,"10_D4_96.wav",47
Sample,173000,0,"54_C#5_96.wav",52
Sample,173000,0,"10_D4_96.wav",47
Sample,173200,0,"10_D4_96.wav",48
Sample,173400,0,"10_D4_96.wav",47
Sample,173400,0,"54_A4_192.wav",45
Sample,173600,0,"10_D4_96.wav",48
Sample,173800,0,"10_D4_96.wav",47
Sample,174000,0,"10_D4_96.wav",49
Sample,174200,0,"10_D4_96.wav",48
Sample,174400,0,"54_E4_96.wav",42
Sample,174800,0,"54_A4_96.wav",47
Sample,175200,0,"10_C#4_96.wav",53
Sample,175200,0,"54_B4_96.wav",55
Sample,175400,0,"10_C#4_96.wav",47
Sample,175600,0,"54_A4_96.wav",51
Sample,175600,0,"10_C#4_96.wav",48
Sample,175800,0,"54_B4_96.wav",51
Sample,175800,0,"10_C#4_96.wav",48
Sample,176000,0,"10_C#4_96.wav",49
Sample,176200,0,"10_C#4_96.wav",49
Sample,176200,0,"54_C#5_96.wav",55
Sample,176400,0,"10_C#4_96.wav",48
Sample,176600,0,"54_A4_192.wav",45
Sample,176600,0,"10_C#4_96.wav",48
Sample,176800,0,"10_C#4_96.wav",48
Sample,177000,0,"10_C#4_96.wav",47
Sample,177200,0,"10_C#4_96.wav",49
Sample,177400,0,"10_C#4_96.wav",48
Sample,177600,0,"54_E4_96.wav",42
Sample,177800,0,"54_E4_96.wav",42
Sample,178200,0,"54_G#4_96.wav",47
Sample,178400,0,"10_B3_96.wav",53
Sample,178400,0,"54_A4_288.wav",51
Sample,178600,0,"10_B3_96.wav",49
Sample,178800,0,"10_B3_96.wav",48
Sample,179000,0,"10_B3_96.wav",50
Sample,179200,0,"10_B3_96.wav",48
Sample,179400,0,"10_B3_96.wav",47
Sample,179600,0,"10_B3_96.wav",51
Sample,179800,0,"10_B3_96.wav",48
Sample,180000,0,"10_B3_96.wav",49
Sample,180200,0,"10_B3_96.wav",49
Sample,180400,0,"10_B3_96.wav",49
Sample,180600,0,"10_B3_96.wav",48
Sample,180800,0,"54_E4_96.wav",49
Sample,181200,0,"54_A4_96.wav",55
Sample,181600,0,"0_D2_96.wav",51
Sample,181600,0,"54_B4_96.wav",55
Sample,181800,0,"0_A2_96.wav",58
Sample,182000,0,"0_E3_96.wav",66
Sample,182000,0,"54_A4_96.wav",51
Sample,182200,0,"0_F#3_96.wav",66
Sample,182200,0,"54_B4_96.wav",51
Sample,182400,0,"0_D3_96.wav",49
Sample,182600,0,"0_A3_96.wav",64
Sample,182600,0,"54_C#5_96.wav",56
Sample,182800,0,"0_D3_96.wav",49
Sample,183000,0,"0_E4_96.wav",70
Sample,183000,0,"54_A4_192.wav",42
Sample,183200,0,"0_F#4_96.wav",61
Sample,183400,0,"0_D4_96.wav",52
Sample,183600,0,"0_A3_96.wav",45
Sample,183800,0,"0_D3_96.wav",41
Sample,184000,0,"0_A3_96.wav",66
Sample,184000,0,"54_E4_96.wav",42
Sample,184200,0,"0_D3_96.wav",47
Sample,184400,0,"0_D2_96.wav",48
Sample,184400,0,"54_A4_96.wav",51
Sample,184600,0,"0_A2_96.wav",58
Sample,184800,0,"0_C#2_96.wav",51
Sample,184800,0,"54_B4_96.wav",51
Sample,185000,0,"0_A2_96.wav",57
Sample,185200,0,"0_C#3_96.wav",61
Sample,185200,0,"54_A4_96.wav",50
Sample,185400,0,"0_E3_96.wav",62
Sample,185400,0,"54_B4_96.wav",52
Sample,185600,0,"0_C#3_96.wav",51
Sample,185600,0,"54_B4_96.wav",52
Sample,185800,0,"0_A3_96.wav",66
Sample,185800,0,"54_C#5_96.wav",52
Sample,186000,0,"0_C#3_96.wav",46
Sample,186000,0,"54_B4_96.wav",52
Sample,186175,0,"54_A4_192.wav",45
Sample,186200,0,"0_C#4_96.wav",74
Sample,186400,0,"0_E4_96.wav",61
Sample,186600,0,"0_C#4_96.wav",51
Sample,186800,0,"0_A3_96.wav",51
Sample,187000,0,"0_E3_96.wav",51
Sample,187100,0,"54_E4_96.wav",40
Sample,187200,0,"0_A3_96.wav",64
Sample,187200,0,"54_E4_96.wav",40
Sample,187300,0,"54_E4_96.wav",40
Sample,187400,0,"0_E3_96.wav",52
Sample,187600,0,"54_A4_96.wav",42
Sample,188000,0,"54_A#4_672.wav",62
Sample,188000,0,"0_F#1_96.wav",68
Sample,188400,0,"0_F#2_96.wav",82
Sample,188600,0,"0_C#2_96.wav",71
Sample,188800,0,"0_F#2_96.wav",78
Sample,189000,0,"0_C#3_96.wav",89
Sample,189200,0,"0_F#3_96.wav",90
Sample,189600,0,"0_E1_96.wav",66
Sample,190000,0,"0_E2_96.wav",81
Sample,190200,0,"0_C#2_96.wav",75
Sample,190400,0,"0_E2_96.wav",82
Sample,190600,0,"0_C#3_96.wav",92
Sample,190800,0,"0_F#3_96.wav",91
Sample,191000,0,"54_A#4_96.wav",58
Sample,191200,0,"54_C#5_288.wav",62
Sample,191200,0,"0_D#1_96.wav",69
Sample,191600,0,"0_D#2_96.wav",81
Sample,191800,0,"0_A#1_96.wav",72
Sample,192000,0,"0_D#2_96.wav",81
Sample,192200,0,"0_A#2_96.wav",83
Sample,192400,0,"0_D#3_96.wav",82
Sample,192600,0,"0_A#3_96.wav",93
Sample,192800,0,"54_C4_288.wav",50
Sample,192800,0,"0_D#4_384.wav",88
Sample,192800,0,"54_C5_288.wav",70
Sample,198922,0,"54_D#4_96.wav",30
Sample,199183,0,"54_F#4_96.wav",31
Sample,199443,0,"54_F#4_96.wav",34
Sample,199965,0,"54_B4_96.wav",40
Sample,200226,0,"54_A#4_96.wav",31
Sample,200748,0,"54_G#4_96.wav",27
Sample,201399,0,"54_D#4_96.wav",29
Sample,202182,0,"54_D#4_96.wav",33
Sample,202508,0,"54_C#4_96.wav",33
Sample,203030,0,"54_B3_96.wav",29
Sample,203616,0,"54_B3_96.wav",29
Sample,203878,0,"54_C#4_96.wav",35
Sample,203878,0,"54_A#3_96.wav",35
Sample,204399,0,"54_C#4_96.wav",33
Sample,204399,0,"54_A#3_96.wav",33
Sample,204660,0,"54_B3_96.wav",37
Sample,204660,0,"54_G#3_96.wav",37
Sample,204921,0,"54_A#3_96.wav",34
Sample,204921,0,"54_C#4_96.wav",34
Sample,205182,0,"54_B3_96.wav",37
Sample,205182,0,"54_D#4_96.wav",37
Sample,205442,0,"54_D#4_96.wav",37
Sample,205769,0,"54_D#4_288.wav",33
Sample,205769,0,"54_B3_288.wav",33
Sample,207270,0,"54_D#4_96.wav",31
Sample,207530,0,"54_F#4_96.wav",33
Sample,207790,0,"54_B3_288.wav",25
Sample,207790,0,"54_F#4_96.wav",36
Sample,208312,0,"54_B4_96.wav",41
Sample,208574,0,"54_A#4_96.wav",32
Sample,209096,0,"54_G#4_96.wav",29
Sample,209682,0,"54_D#4_96.wav",34
Sample,210465,0,"54_D#4_96.wav",30
Sample,210791,0,"54_C#4_96.wav",29
Sample,211313,0,"54_B3_96.wav",33
Sample,211834,0,"54_C#4_96.wav",33
Sample,212160,0,"54_C#5_96.wav",40
Sample,212160,0,"54_C#4_288.wav",22
Sample,212682,0,"54_C#5_96.wav",40
Sample,213008,0,"54_B4_96.wav",40
Sample,213334,0,"54_C#5_96.wav",40
Sample,213726,0,"54_B4_96.wav",40
Sample,214051,0,"54_A#4_96.wav",40
Sample,214573,0,"54_B3_384.wav",37
Sample,214573,0,"54_B4_384.wav",37
Sample,218304,0,"54_B3_576.wav",51
Sample,218304,0,"54_B4_576.wav",35
Sample,218904,0,"54_B4_576.wav",30
Sample,218904,0,"54_B3_576.wav",30
Sample,222144,0,"54_G#4_576.wav",35
Sample,222144,0,"54_G#3_576.wav",51
Sample,225984,0,"54_E4_576.wav",35
Sample,225984,0,"54_E3_576.wav",51
Sample,229824,0,"54_F#4_576.wav",35
Sample,229824,0,"54_F#3_576.wav",51
Sample,237504,0,"0_G#1_96.wav",58
Sample,237664,0,"0_D#2_96.wav",69
Sample,237824,0,"0_G#2_96.wav",70
Sample,237984,0,"0_B2_96.wav",77
Sample,238144,0,"0_C#3_96.wav",70
Sample,238304,0,"0_D#3_96.wav",77
Sample,238464,0,"0_G#1_96.wav",59
Sample,238464,0,"0_G#1_96.wav",59
Sample,238624,0,"0_D#2_96.wav",63
Sample,238784,0,"0_G#2_96.wav",71
Sample,238944,0,"0_B2_96.wav",73
Sample,239104,0,"0_C#3_96.wav",72
Sample,239264,0,"0_D#3_96.wav",75
Sample,242464,0,"0_B_1_96.wav",64
Sample,242624,0,"0_E2_96.wav",70
Sample,242784,0,"0_F#2_96.wav",76
Sample,242944,0,"0_G#2_96.wav",66
Sample,243104,0,"0_B2_96.wav",69
Sample,243424,0,"0_B1_96.wav",51
Sample,243584,0,"0_E2_96.wav",72
Sample,243744,0,"0_F#2_96.wav",75
Sample,243904,0,"0_G#2_96.wav",69
Sample,244064,0,"0_B2_96.wav",70
Sample,244224,0,"0_E1_96.wav",59
Sample,244384,0,"0_B1_96.wav",61
Sample,244544,0,"0_E2_96.wav",70
Sample,244704,0,"0_F#2_96.wav",73
Sample,244864,0,"0_G#2_96.wav",68
Sample,245024,0,"0_B2_96.wav",70
Sample,245344,0,"0_C#2_96.wav",60
Sample,245504,0,"0_E2_96.wav",66
Sample,245664,0,"0_F#2_96.wav",71
Sample,245824,0,"0_B2_96.wav",70
Sample,245984,0,"0_C#3_96.wav",75
Sample,246304,0,"0_C#2_96.wav",59
Sample,246464,0,"0_E2_96.wav",68
Sample,246624,0,"0_F#2_96.wav",72
Sample,246784,0,"0_B2_96.wav",65
Sample,246944,0,"0_C#3_96.wav",68
Sample,247104,0,"10_F#4_96.wav",78
Sample,247184,0,"10_E4_96.wav",55
Sample,247264,0,"10_D#4_96.wav",55
Sample,247344,0,"10_C#4_96.wav",55
Sample,247404,0,"10_D#4_96.wav",63
Sample,247464,0,"10_E4_96.wav",60
Sample,247524,0,"10_F#4_96.wav",65
Sample,247584,0,"10_G#4_96.wav",75
Sample,247644,0,"10_F#4_96.wav",57
Sample,247704,0,"10_E4_96.wav",58
Sample,247764,0,"10_D#4_96.wav",57
Sample,247824,0,"10_E4_96.wav",63
Sample,247904,0,"10_F#4_96.wav",60
Sample,247984,0,"10_G#4_96.wav",62
Sample,248064,0,"10_A#4_96.wav",77
Sample,248144,0,"10_G#4_96.wav",58
Sample,248224,0,"10_F#4_96.wav",54
Sample,248304,0,"10_E4_96.wav",56
Sample,248364,0,"10_E4_96.wav",40
Sample,248424,0,"10_F#4_96.wav",64
Sample,248484,0,"10_G#4_96.wav",62
Sample,248544,0,"10_A#4_96.wav",65
Sample,248604,0,"10_B4_96.wav",55
Sample,248664,0,"10_C#5_96.wav",60
Sample,248724,0,"10_D#5_96.wav",60
Sample,248784,0,"10_E5_96.wav",60
Sample,248844,0,"10_F#5_96.wav",64
Sample,248904,0,"10_G#5_96.wav",63
Sample,248964,0,"10_A#5_96.wav",63
Sample,249024,0,"0_G#0_384.wav",89
Sample,249504,0,"54_F#4_96.wav",55
Sample,249504,0,"54_D#4_96.wav",55
Sample,249504,0,"0_B2_96.wav",89
Sample,249504,0,"10_F#4_96.wav",70
Sample,249504,0,"0_B1_96.wav",89
Sample,249984,0,"0_G#2_96.wav",79
Sample,249984,0,"0_G#1_192.wav",79
Sample,249984,0,"54_F#4_96.wav",63
Sample,249984,0,"10_F#4_96.wav",81
Sample,249984,0,"54_A#4_96.wav",63
Sample,250464,0,"54_B4_96.wav",63
Sample,250464,0,"0_D#2_96.wav",80
Sample,250464,0,"0_D#1_96.wav",80
Sample,250464,0,"10_B4_96.wav",81
Sample,250464,0,"54_F#4_96.wav",63
Sample,251424,0,"54_A#4_96.wav",58
Sample,251424,0,"0_C#2_96.wav",85
Sample,251424,0,"0_C#3_96.wav",85
Sample,251424,0,"10_E4_96.wav",75
Sample,251424,0,"54_F#4_96.wav",58
Sample,251904,0,"54_B4_96.wav",60
Sample,251904,0,"0_A#1_96.wav",86
Sample,251904,0,"0_A#2_96.wav",86
Sample,251904,0,"10_E4_96.wav",77
Sample,251904,0,"54_F#4_96.wav",60
Sample,252384,0,"0_E2_96.wav",82
Sample,252384,0,"54_C#5_96.wav",66
Sample,252384,0,"0_E1_96.wav",82
Sample,252384,0,"10_C#5_96.wav",86
Sample,252384,0,"54_F#4_96.wav",66
Sample,253344,0,"0_B2_96.wav",85
Sample,253344,0,"54_B4_96.wav",57
Sample,253344,0,"54_F#4_96.wav",57
Sample,253344,0,"10_B4_96.wav",73
Sample,253344,0,"0_B1_96.wav",85
Sample,253824,0,"54_C#5_96.wav",58
Sample,253824,0,"0_G#1_96.wav",86
Sample,253824,0,"54_F#4_96.wav",58
Sample,253824,0,"10_D#4_96.wav",74
Sample,253824,0,"0_G#2_96.wav",86
Sample,254304,0,"10_F#4_96.wav",88
Sample,254304,0,"54_D#5_96.wav",69
Sample,254304,0,"54_F#4_96.wav",69
Sample,254304,0,"0_D#1_96.wav",81
Sample,254784,0,"54_F#4_96.wav",57
Sample,254784,0,"54_B4_96.wav",78
Sample,255264,0,"0_A#2_96.wav",88
Sample,255264,0,"10_F#4_96.wav",76
Sample,255264,0,"0_A#1_96.wav",88
Sample,255504,0,"54_A#4_96.wav",78
Sample,255744,0,"54_G4_96.wav",66
Sample,255744,0,"0_G0_192.wav",91
Sample,255744,0,"0_G1_96.wav",91
Sample,255744,0,"10_D#4_96.wav",70
Sample,255744,0,"54_A#4_96.wav",85
Sample,256224,0,"10_G4_96.wav",74
Sample,256224,0,"0_G2_96.wav",88
Sample,256224,0,"0_G1_96.wav",88
Sample,256224,0,"54_D#4_96.wav",78
Sample,256464,0,"54_F#4_96.wav",82
Sample,256704,0,"0_G#0_384.wav",88
Sample,256704,0,"54_F#4_96.wav",87
Sample,256704,0,"10_B3_96.wav",74
Sample,256704,0,"0_G#1_96.wav",88
Sample,256704,0,"54_B3_96.wav",66
Sample,256704,0,"54_D#4_96.wav",66
Sample,257184,0,"54_B4_96.wav",82
Sample,257184,0,"54_D#4_96.wav",66
Sample,257424,0,"54_C#4_96.wav",66
Sample,257424,0,"54_A#4_96.wav",87
Sample,257904,0,"54_G#4_96.wav",87
Sample,257904,0,"54_B3_96.wav",66
Sample,258384,0,"54_G#3_96.wav",66
Sample,258384,0,"54_D#4_96.wav",87
Sample,258624,0,"0_C#1_384.wav",97
Sample,258624,0,"0_C#2_96.wav",97
Sample,258624,0,"10_F5_384.wav",90
Sample,258784,0,"0_C#2_96.wav",80
Sample,259104,0,"54_D#4_96.wav",88
Sample,259464,0,"54_C#4_96.wav",91
Sample,259584,0,"10_A#4_96.wav",89
Sample,259899,0,"54_B3_96.wav",93
Sample,260064,0,"10_F4_96.wav",85
Sample,260379,0,"54_B4_96.wav",97
Sample,260544,0,"0_F#0_192.wav",81
Sample,260544,0,"10_C#5_192.wav",90
Sample,260544,0,"10_E5_192.wav",90
Sample,260544,0,"0_F#1_192.wav",81
Sample,260699,0,"0_C#3_96.wav",70
Sample,260699,0,"54_A4_672.wav",67
Sample,260699,0,"0_A#2_96.wav",70
Sample,260699,0,"54_C#5_672.wav",98
Sample,260699,0,"54_E4_672.wav",61
Sample,260704,0,"0_F#3_96.wav",72
Sample,260704,0,"0_A#3_96.wav",72
Sample,260859,0,"0_C#3_96.wav",78
Sample,260859,0,"0_F#2_96.wav",78
Sample,260859,0,"0_A#2_96.wav",78
Sample,260864,0,"0_A#3_96.wav",81
Sample,260864,0,"0_F#3_96.wav",81
Sample,261024,0,"0_A#3_96.wav",80
Sample,261024,0,"0_F#2_96.wav",79
Sample,261024,0,"0_C#3_96.wav",79
Sample,261024,0,"0_F#3_96.wav",80
Sample,261024,0,"0_A#2_96.wav",79
Sample,261179,0,"0_C#3_96.wav",81
Sample,261179,0,"0_F#2_96.wav",81
Sample,261179,0,"0_A#2_96.wav",81
Sample,261184,0,"0_F#3_96.wav",81
Sample,261184,0,"0_A#3_96.wav",81
Sample,261339,0,"0_C#3_96.wav",82
Sample,261339,0,"0_F#2_96.wav",82
Sample,261339,0,"0_A#2_96.wav",82
Sample,261344,0,"0_F#3_96.wav",82
Sample,261344,0,"0_A#3_96.wav",82
Sample,261504,0,"10_C#5_192.wav",70
Sample,261504,0,"0_G1_192.wav",89
Sample,261504,0,"0_G0_192.wav",89
Sample,261504,0,"10_C#4_192.wav",70
Sample,261664,0,"0_B2_96.wav",70
Sample,261664,0,"0_C#4_96.wav",74
Sample,261664,0,"0_G2_96.wav",70
Sample,261664,0,"0_C#3_96.wav",70
Sample,261819,0,"0_G2_96.wav",80
Sample,261819,0,"0_B2_96.wav",80
Sample,261819,0,"0_C#3_96.wav",80
Sample,261824,0,"0_E3_96.wav",79
Sample,261824,0,"0_C#4_96.wav",79
Sample,261984,0,"0_E3_96.wav",83
Sample,261984,0,"0_C#3_96.wav",81
Sample,261984,0,"0_G2_96.wav",81
Sample,261984,0,"0_C#4_96.wav",83
Sample,261984,0,"0_B2_96.wav",81
Sample,262139,0,"0_G2_96.wav",84
Sample,262139,0,"0_C#3_96.wav",84
Sample,262139,0,"0_B2_96.wav",84
Sample,262144,0,"0_E3_96.wav",80
Sample,262144,0,"0_C#4_96.wav",80
Sample,262299,0,"0_B2_96.wav",76
Sample,262299,0,"0_C#3_96.wav",76
Sample,262299,0,"0_G2_96.wav",76
Sample,262304,0,"0_E3_96.wav",79
Sample,262304,0,"0_C#4_96.wav",79
Sample,262464,0,"0_F#1_96.wav",87
Sample,262464,0,"10_E5_96.wav",90
Sample,262464,0,"0_F#0_96.wav",87
Sample,262624,0,"0_C#3_96.wav",100
Sample,262784,0,"0_A#3_96.wav",100
Sample,262944,0,"0_F#1_96.wav",80
Sample,262944,0,"10_F#4_96.wav",90
Sample,262944,0,"0_F#0_96.wav",80
Sample,263104,0,"0_C#3_96.wav",100
Sample,263264,0,"0_A#3_96.wav",100
Sample,263424,0,"0_F#0_96.wav",83
Sample,263424,0,"10_F#5_96.wav",90
Sample,263584,0,"0_C#3_96.wav",100
Sample,263744,0,"0_A#3_96.wav",100
Sample,263904,0,"0_F#0_96.wav",82
Sample,263904,0,"10_A#5_96.wav",90
Sample,264064,0,"0_C#3_96.wav",100
Sample,264224,0,"0_A#3_96.wav",100
Sample,264464,0,"10_E6_96.wav",79
Sample,264544,0,"10_D#6_96.wav",71
Sample,264624,0,"10_B5_96.wav",65
Sample,264704,0,"10_A#5_96.wav",70
Sample,264784,0,"10_C#6_96.wav",74
Sample,264944,0,"10_G#5_96.wav",63
Sample,265024,0,"10_F#5_96.wav",67
Sample,265104,0,"10_A#5_96.wav",79
Sample,265184,0,"10_G#5_96.wav",70
Sample,265264,0,"10_E5_96.wav",63
Sample,265344,0,"0_D#3_96.wav",94
Sample,265424,0,"10_G#5_96.wav",81
Sample,265504,0,"10_F#5_96.wav",70
Sample,265584,0,"10_C#5_96.wav",63
Sample,265664,0,"10_B4_96.wav",63
Sample,265744,0,"10_E5_96.wav",81
Sample,265824,0,"0_D#3_96.wav",95
Sample,265904,0,"10_A#4_96.wav",61
Sample,265984,0,"10_G#4_96.wav",64
Sample,266064,0,"10_C#5_96.wav",78
Sample,266144,0,"10_B4_96.wav",66
Sample,266224,0,"10_F#4_96.wav",62
Sample,266304,0,"0_B0_384.wav",86
Sample,266384,0,"10_B4_96.wav",81
Sample,266464,0,"10_A#4_96.wav",70
Sample,266544,0,"10_G4_96.wav",65
Sample,266624,0,"10_F#4_96.wav",65
Sample,266704,0,"10_A4_96.wav",78
Sample,266784,0,"0_E3_96.wav",85
Sample,266864,0,"10_F4_96.wav",64
Sample,266944,0,"10_E4_96.wav",67
Sample,267024,0,"10_G4_96.wav",78
Sample,267104,0,"10_F#4_96.wav",69
Sample,267184,0,"10_D#4_96.wav",66
Sample,267264,0,"0_E3_96.wav",87
Sample,267344,0,"10_D#4_96.wav",84
Sample,267424,0,"10_E4_96.wav",84
Sample,267504,0,"10_F4_96.wav",86
Sample,267584,0,"10_F#4_96.wav",85
Sample,267664,0,"10_G4_96.wav",86
Sample,267744,0,"10_G#4_96.wav",86
Sample,267824,0,"10_A4_96.wav",80
Sample,267904,0,"10_A#4_96.wav",85
Sample,267984,0,"10_B4_96.wav",86
Sample,268064,0,"10_C5_96.wav",85
Sample,268144,0,"10_C#5_96.wav",87
Sample,268304,0,"10_E5_96.wav",90
Sample,268384,0,"10_D#5_96.wav",76
Sample,268464,0,"10_B4_96.wav",67
Sample,268544,0,"10_A#4_96.wav",72
Sample,268624,0,"10_C#5_96.wav",86
Sample,268784,0,"10_G#4_96.wav",73
Sample,268864,0,"10_F#4_96.wav",74
Sample,268944,0,"10_A#4_96.wav",88
Sample,269024,0,"10_G#4_96.wav",80
Sample,269104,0,"10_E4_96.wav",70
Sample,269184,0,"0_D#2_96.wav",88
Sample,269264,0,"10_G#4_96.wav",90
Sample,269344,0,"10_F#4_96.wav",74
Sample,269424,0,"10_C#4_96.wav",70
Sample,269504,0,"10_B3_96.wav",74
Sample,269584,0,"10_E4_96.wav",90
Sample,269664,0,"0_D#2_96.wav",93
Sample,269744,0,"10_A#3_96.wav",71
Sample,269824,0,"10_G#3_96.wav",77
Sample,269904,0,"10_C#4_96.wav",88
Sample,269984,0,"10_B3_96.wav",77
Sample,270064,0,"10_F#3_96.wav",67
Sample,270144,0,"0_B0_384.wav",89
Sample,270224,0,"10_B3_96.wav",87
Sample,270304,0,"10_A#3_96.wav",77
Sample,270384,0,"10_G3_96.wav",73
Sample,270464,0,"10_F#3_96.wav",76
Sample,270544,0,"10_A3_96.wav",86
Sample,270624,0,"0_E2_96.wav",85
Sample,270704,0,"10_F3_96.wav",70
Sample,270784,0,"10_E3_96.wav",77
Sample,270864,0,"10_G3_96.wav",85
Sample,270944,0,"10_F#3_96.wav",76
Sample,271024,0,"10_D#3_96.wav",74
Sample,271104,0,"0_E2_96.wav",88
Sample,271184,0,"10_D#3_96.wav",85
Sample,271264,0,"10_E3_96.wav",83
Sample,271344,0,"10_F3_96.wav",85
Sample,271424,0,"10_F#3_96.wav",85
Sample,271504,0,"10_G3_96.wav",81
Sample,271584,0,"0_E2_96.wav",93
Sample,271664,0,"10_A3_96.wav",83
Sample,271744,0,"10_A#3_96.wav",84
Sample,271824,0,"10_B3_96.wav",85
Sample,271904,0,"10_C4_96.wav",84
Sample,271984,0,"10_C#4_96.wav",85
Sample,272424,0,"0_F#1_96.wav",80
Sample,272544,0,"0_B0_96.wav",78
Sample,272664,0,"0_F#1_96.wav",97
Sample,272784,0,"0_D#2_96.wav",99
Sample,272904,0,"0_F#1_96.wav",79
Sample,273024,0,"0_B0_96.wav",78
Sample,273144,0,"0_F#1_96.wav",90
Sample,273264,0,"0_D#2_96.wav",99
Sample,273384,0,"0_F#1_96.wav",75
Sample,273504,0,"0_B0_96.wav",81
Sample,273624,0,"0_F#1_96.wav",95
Sample,273744,0,"0_D#2_96.wav",100
Sample,273864,0,"0_F#1_96.wav",76
Sample,273984,0,"10_F#4_96.wav",86
Sample,274064,0,"10_D#4_96.wav",75
Sample,274144,0,"10_C#4_96.wav",76
Sample,274224,0,"10_B3_96.wav",78
Sample,274304,0,"10_D#4_96.wav",87
Sample,274384,0,"10_F#4_96.wav",89
Sample,274464,0,"10_B4_96.wav",90
Sample,274544,0,"10_F#4_96.wav",70
Sample,274624,0,"10_D#4_96.wav",71
Sample,274704,0,"10_C#4_96.wav",76
Sample,274784,0,"10_F#4_96.wav",90
Sample,274864,0,"10_B4_96.wav",90
Sample,274944,0,"10_D#5_96.wav",90
Sample,275024,0,"10_C#5_96.wav",77
Sample,275104,0,"10_B4_96.wav",77
Sample,275184,0,"10_F#4_96.wav",71
Sample,275264,0,"10_B4_96.wav",87
Sample,275344,0,"10_D#5_96.wav",90
Sample,275424,0,"10_F#5_96.wav",88
Sample,275504,0,"10_D#5_96.wav",73
Sample,275584,0,"10_C#5_96.wav",76
Sample,275664,0,"10_B4_96.wav",77
Sample,275744,0,"10_D#5_96.wav",90
Sample,275824,0,"10_F#5_96.wav",88
Sample,275904,0,"0_B0_288.wav",88
Sample,275904,0,"0_B1_288.wav",88
Sample,276384,0,"0_D#3_96.wav",79
Sample,276384,0,"54_F#3_96.wav",67
Sample,276384,0,"54_D#3_96.wav",67
Sample,276384,0,"54_B2_96.wav",67
Sample,276864,0,"10_F#4_96.wav",74
Sample,276864,0,"0_B2_96.wav",97
Sample,276864,0,"54_F#3_96.wav",83
Sample,276864,0,"54_B2_96.wav",83
Sample,276864,0,"54_D#3_96.wav",83
Sample,276864,0,"54_A#3_96.wav",83
Sample,276864,0,"0_D#3_96.wav",97
Sample,277344,0,"0_B2_96.wav",94
Sample,277344,0,"54_F#3_96.wav",81
Sample,277344,0,"54_B2_96.wav",81
Sample,277344,0,"54_D#3_96.wav",81
Sample,277344,0,"54_B3_96.wav",81
Sample,277344,0,"10_F#4_96.wav",77
Sample,277344,0,"0_D#3_96.wav",94
Sample,277824,0,"10_E4_96.wav",75
Sample,277824,0,"54_C#4_384.wav",81
Sample,277824,0,"54_F#3_384.wav",54
Sample,277824,0,"0_B1_384.wav",94
Sample,277824,0,"54_D#3_384.wav",65
Sample,277824,0,"54_B2_384.wav",54
Sample,278459,0,"0_B2_96.wav",80
Sample,278459,0,"0_E3_96.wav",80
Sample,278464,0,"10_G4_96.wav",65
Sample,278464,0,"0_G3_96.wav",80
Sample,278619,0,"0_B2_96.wav",97
Sample,278619,0,"0_G3_96.wav",97
Sample,278619,0,"0_E3_96.wav",97
Sample,278624,0,"10_C#5_96.wav",72
Sample,278624,0,"0_C#4_96.wav",97
Sample,278784,0,"0_B2_96.wav",88
Sample,278784,0,"0_C#4_96.wav",88
Sample,278784,0,"0_E3_96.wav",88
Sample,278784,0,"10_C#5_96.wav",70
Sample,278784,0,"0_G3_96.wav",88
Sample,278939,0,"0_G3_96.wav",85
Sample,278939,0,"0_B2_96.wav",85
Sample,278939,0,"0_E3_96.wav",85
Sample,278944,0,"10_G4_96.wav",65
Sample,279099,0,"0_E3_96.wav",88
Sample,279099,0,"0_G3_96.wav",88
Sample,279099,0,"0_B2_96.wav",88
Sample,279104,0,"10_C#5_96.wav",72
Sample,279104,0,"0_C#4_96.wav",88
Sample,279264,0,"0_B2_96.wav",91
Sample,279264,0,"0_C#4_96.wav",91
Sample,279264,0,"0_G3_96.wav",91
Sample,279264,0,"10_C#5_96.wav",68
Sample,279264,0,"0_E3_96.wav",91
Sample,279419,0,"0_E3_96.wav",83
Sample,279419,0,"0_G3_96.wav",83
Sample,279419,0,"0_B2_96.wav",83
Sample,279424,0,"10_G4_96.wav",65
Sample,279579,0,"0_E3_96.wav",94
Sample,279579,0,"0_G3_96.wav",94
Sample,279579,0,"0_B2_96.wav",94
Sample,279584,0,"10_C#5_96.wav",74
Sample,279584,0,"0_C#4_96.wav",94
Sample,279744,0,"10_D#4_288.wav",77
Sample,279744,0,"0_B1_384.wav",85
Sample,281664,0,"10_D#4_192.wav",68
Sample,282624,0,"10_D#4_192.wav",68
Sample,283584,0,"10_D#4_384.wav",66
Sample,283584,0,"0_B1_384.wav",95

[TimingPoints]
2000,500,4,1,1,100,1,0
2000,-80,4,1,1,100,0,0
14000,631.578947368421,4,1,1,100,1,0
14000,-63.2911392405063,4,1,1,100,0,0
14315,750,4,1,1,100,1,0
14315,-53.3333333333333,4,1,1,100,0,0
14690,869.565217391304,4,1,1,100,1,0
14690,-46.0829493087558,4,1,1,100,0,0
15994,759.493670886076,4,1,1,100,1,0
15994,-52.6315789473684,4,1,1,100,0,0
16753,869.565217391304,4,1,1,100,1,0
16753,-46.0829493087558,4,1,1,100,0,0
18000,400,4,1,1,100,1,0
18000,-100,4,1,1,100,0,0
18400,400,4,1,1,100,1,0
18400,-100,4,1,1,100,0,0
76000,-100,4,1,1,100,0,1
102000,-100,4,1,1,100,0,0
146400,-100,4,1,1,100,0,1
168800,-100,4,1,1,100,0,0
195000,500,4,1,1,100,1,0
195000,-80,4,1,1,100,0,0
195500,600,4,1,1,100,1,0
195500,-66.6666666666667,4,1,1,100,0,0
195800,705.882352941176,4,1,1,100,1,0
195800,-56.4971751412429,4,1,1,100,0,0
196152,800,4,1,1,100,1,0
196152,-50,4,1,1,100,0,0
196552,722.89156626506,4,1,1,100,1,0
196552,-55.2486187845304,4,1,1,100,0,0
199443,521.739,4,1,1,100,1,0
199443,-76.9230769230769,4,1,1,100,0,0
216921,652.173913043478,4,1,1,100,1,0
216921,-61.3496932515337,4,1,1,100,0,0
218304,480,4,1,1,100,1,0
218304,-83.3333333333333,4,1,1,100,0,0
249024,-83.3333333333333,4,1,1,100,0,1
264384,-83.3333333333333,4,1,1,100,0,0

[HitObjects]
109,192,2000,5,0,0:0:0:48:0_G#1_96.wav
256,192,2250,1,0,0:0:0:58:0_D#2_96.wav
402,192,2500,1,0,0:0:0:61:0_G#2_96.wav
475,192,2750,1,0,0:0:0:59:0_B2_192.wav
36,192,4000,1,0,0:0:0:48:0_E1_96.wav
182,192,4250,1,0,0:0:0:60:0_B1_96.wav
329,192,4500,1,0,0:0:0:60:0_E2_96.wav
402,192,4750,1,0,0:0:0:58:0_G#2_192.wav
109,192,6000,1,0,0:0:0:46:0_F#1_96.wav
256,192,6250,1,0,0:0:0:59:0_C#2_96.wav
402,192,6500,1,0,0:0:0:62:0_F#2_96.wav
475,192,6750,1,0,0:0:0:60:0_A#2_192.wav
36,192,8000,1,0,0:0:0:48:0_B1_96.wav
182,192,8250,1,0,0:0:0:55:0_F#2_96.wav
329,192,8500,1,0,0:0:0:56:0_B2_96.wav
475,192,8750,1,0,0:0:0:66:0_D#3_96.wav
36,192,9000,1,0,0:0:0:50:0_A#1_96.wav
402,192,9000,1,0,0:0:0:51:0_C#3_96.wav
182,192,9250,1,0,0:0:0:62:0_F#2_96.wav
109,192,9500,1,0,0:0:0:59:0_A#2_96.wav
402,192,9750,1,0,0:0:0:62:0_C#3_96.wav
36,192,10000,1,0,0:0:0:45:0_G#1_96.wav
329,192,10000,1,0,0:0:0:51:0_B2_96.wav
109,192,10250,1,0,0:0:0:63:0_D#2_96.wav
256,192,10500,1,0,0:0:0:60:0_G#2_96.wav
475,192,10750,1,0,0:0:0:61:0_B2_192.wav
36,192,12000,1,0,0:0:0:50:0_E1_96.wav
182,192,12250,1,0,0:0:0:59:0_B1_96.wav
256,192,12500,1,0,0:0:0:55:0_E2_96.wav
329,192,12750,1,0,0:0:0:59:0_G#2_192.wav
109,192,14000,1,0,0:0:0:52:0_F#1_96.wav
256,192,14315,1,0,0:0:0:58:0_C#2_96.wav
329,192,14690,1,0,0:0:0:61:0_F#2_96.wav
402,192,15124,1,0,0:0:0:65:0_C#3_192.wav
36,192,15994,1,0,0:0:0:50:0_B1_192.wav
182,192,16373,1,0,0:0:0:57:0_F#2_192.wav
329,192,16753,1,0,0:0:0:59:0_B2_288.wav
475,192,17187,1,0,0:0:0:71:0_B3_288.wav
36,192,18300,1,0,0:0:0:88:0_G#0_96.wav
109,192,18350,1,0,0:0:0:88:0_G#1_96.wav
182,192,18400,1,0,0:0:0:88:0_G#2_288.wav
402,192,18400,1,0,0:0:0:88:0_D#2_288.wav
329,192,18400,1,0,0:0:0:62:10_D#3_96.wav
475,192,18800,1,0,0:0:0:73:10_B3_96.wav
182,192,19200,1,0,0:0:0:62:10_F#3_96.wav
475,192,19600,1,0,0:0:0:68:10_B3_96.wav
36,192,19700,1,0,0:0:0:84:0_E1_96.wav
109,192,19750,1,0,0:0:0:84:0_B1_96.wav
402,192,19800,1,0,0:0:0:84:0_E2_384.wav
182,192,19800,1,0,0:0:0:84:0_G#2_384.wav
329,192,19800,1,0,0:0:0:88:10_B2_384.wav
475,192,20200,1,0,0:0:0:82:10_B3_96.wav
182,192,20600,1,0,0:0:0:64:10_F#3_96.wav
475,192,21000,1,0,0:0:0:74:10_B3_96.wav
36,192,21500,1,0,0:0:0:87:0_B0_96.wav
109,192,21550,1,0,0:0:0:87:0_B1_96.wav
329,192,21600,1,0,0:0:0:87:0_D#2_288.wav
375,192,21600,1,0,0:0:0:87:10_B2_288.wav
156,192,21600,1,0,0:0:0:69:10_D#3_96.wav
448,192,22000,1,0,0:0:0:78:10_B3_96.wav
182,192,22400,1,0,0:0:0:66:10_F#3_96.wav
475,192,22800,1,0,0:0:0:73:10_B3_96.wav
36,192,22866,1,0,0:0:0:86:0_F#1_96.wav
109,192,22933,1,0,0:0:0:86:0_C#2_96.wav
256,192,23000,1,0,0:0:0:86:0_F#2_288.wav
182,192,23000,1,0,0:0:0:86:0_A#2_288.wav
329,192,23000,1,0,0:0:0:67:10_C#3_96.wav
329,192,23400,1,0,0:0:0:81:10_B3_96.wav
402,192,23800,1,0,0:0:0:76:10_C#4_96.wav
475,192,24200,1,0,0:0:0:81:10_D#4_96.wav
109,192,24400,1,0,0:0:0:75:0_F#2_96.wav
36,192,24400,1,0,0:0:0:75:0_F#1_96.wav
36,192,24800,1,0,0:0:0:73:0_G#1_96.wav
182,192,24800,1,0,0:0:0:93:0_D#3_96.wav
256,192,24800,1,0,0:0:0:93:0_G#3_96.wav
475,192,24800,1,0,0:0:0:89:10_D#4_96.wav
329,192,25000,1,0,0:0:0:75:0_G#2_96.wav
256,192,25100,1,0,0:0:0:82:0_D#2_96.wav
36,192,25200,1,0,0:0:0:78:0_G#1_96.wav
182,192,25200,1,0,0:0:0:79:10_B3_96.wav
475,192,25200,1,0,0:0:0:89:10_B4_96.wav
329,192,25400,1,0,0:0:0:100:0_G#2_96.wav
182,192,25500,1,0,0:0:0:83:0_D#2_96.wav
36,192,25600,1,0,0:0:0:83:0_G#1_96.wav
402,192,25600,1,0,0:0:0:82:0_F#3_96.wav
475,192,25600,1,0,0:0:0:73:10_F#4_96.wav
329,192,25800,1,0,0:0:0:98:0_G#2_96.wav
256,192,25900,1,0,0:0:0:82:0_D#2_96.wav
156,192,26000,1,0,0:0:0:74:10_B3_96.wav
36,192,26000,1,0,0:0:0:77:0_G#1_96.wav
475,192,26000,1,0,0:0:0:84:10_B4_96.wav
36,192,26200,1,0,0:0:0:75:0_E1_192.wav
109,192,26200,1,0,0:0:0:92:0_G#3_96.wav
402,192,26200,1,0,0:0:0:81:10_E4_96.wav
329,192,26200,1,0,0:0:0:71:10_B3_96.wav
182,192,26600,1,0,0:0:0:77:0_G#2_96.wav
329,192,26600,1,0,0:0:0:79:10_B3_96.wav
475,192,26600,1,0,0:0:0:89:10_B4_96.wav
109,192,26700,1,0,0:0:0:77:0_B1_96.wav
36,192,26800,1,0,0:0:0:80:0_E1_96.wav
182,192,27000,1,0,0:0:0:100:0_G#2_96.wav
256,192,27000,1,0,0:0:0:81:0_F#3_96.wav
402,192,27000,1,0,0:0:0:71:10_F#4_96.wav
83,192,27100,1,0,0:0:0:77:0_B1_96.wav
36,192,27200,1,0,0:0:0:79:0_E1_96.wav
182,192,27400,1,0,0:0:0:96:0_G#2_96.wav
329,192,27400,1,0,0:0:0:70:10_B3_96.wav
475,192,27400,1,0,0:0:0:80:10_B4_96.wav
36,192,27600,1,0,0:0:0:74:0_E1_96.wav
109,192,27800,1,0,0:0:0:94:0_B1_96.wav
182,192,28000,1,0,0:0:0:87:0_D#3_96.wav
256,192,28000,1,0,0:0:0:87:0_F#3_96.wav
329,192,28000,1,0,0:0:0:67:10_B3_96.wav
475,192,28000,1,0,0:0:0:76:10_D#4_96.wav
182,192,28200,1,0,0:0:0:78:0_B2_96.wav
109,192,28300,1,0,0:0:0:82:0_F#2_96.wav
36,192,28400,1,0,0:0:0:79:0_B1_96.wav
329,192,28400,1,0,0:0:0:79:10_B3_96.wav
475,192,28400,1,0,0:0:0:89:10_B4_96.wav
182,192,28600,1,0,0:0:0:100:0_B2_96.wav
109,192,28700,1,0,0:0:0:82:0_F#2_96.wav
36,192,28800,1,0,0:0:0:81:0_B1_96.wav
402,192,28800,1,0,0:0:0:70:10_F#4_96.wav
256,192,28800,1,0,0:0:0:79:0_F#3_96.wav
182,192,29000,1,0,0:0:0:100:0_B2_96.wav
109,192,29100,1,0,0:0:0:82:0_F#2_96.wav
36,192,29200,1,0,0:0:0:78:0_B1_96.wav
329,192,29200,1,0,0:0:0:69:10_B3_96.wav
475,192,29200,1,0,0:0:0:77:10_B4_96.wav
36,192,29400,1,0,0:0:0:81:0_F#1_192.wav
182,192,29400,1,0,0:0:0:81:0_C#3_96.wav
256,192,29400,1,0,0:0:0:81:0_F#3_96.wav
448,192,29400,1,0,0:0:0:71:10_C#4_96.wav
182,192,29800,1,0,0:0:0:78:0_A#2_96.wav
256,192,29800,1,0,0:0:0:77:10_B3_96.wav
329,192,29800,1,0,0:0:0:88:10_B4_96.wav
109,192,29900,1,0,0:0:0:78:0_C#2_96.wav
36,192,30000,1,0,0:0:0:77:0_F#1_96.wav
182,192,30200,1,0,0:0:0:100:0_A#2_96.wav
329,192,30200,1,0,0:0:0:77:10_C#4_96.wav
402,192,30200,1,0,0:0:0:88:10_C#5_96.wav
109,192,30300,1,0,0:0:0:78:0_C#2_96.wav
36,192,30400,1,0,0:0:0:84:0_F#1_96.wav
182,192,30600,1,0,0:0:0:100:0_A#2_96.wav
402,192,30600,1,0,0:0:0:79:10_D#4_96.wav
475,192,30600,1,0,0:0:0:89:10_D#5_96.wav
36,192,30800,1,0,0:0:0:80:0_F#1_96.wav
256,192,31000,1,0,0:0:0:96:0_C#2_96.wav
109,192,31200,1,0,0:0:0:70:0_G#1_96.wav
329,192,31400,1,0,0:0:0:70:0_D#2_96.wav
182,192,31600,1,0,0:0:0:71:0_G#2_96.wav
475,192,31800,1,0,0:0:0:85:0_D#3_96.wav
402,192,31800,1,0,0:0:0:85:0_B2_96.wav
182,192,32200,1,0,0:0:0:62:0_G#2_96.wav
475,192,32400,1,0,0:0:0:82:0_D#3_96.wav
402,192,32400,1,0,0:0:0:82:0_B2_96.wav
36,192,32800,1,0,0:0:0:62:0_D#1_96.wav
109,192,33000,1,0,0:0:0:66:0_A#1_96.wav
182,192,33200,1,0,0:0:0:70:0_D#2_96.wav
256,192,33400,1,0,0:0:0:81:0_F#2_96.wav
475,192,33400,1,0,0:0:0:81:0_C#3_96.wav
329,192,33400,1,0,0:0:0:81:0_A#2_96.wav
182,192,33800,1,0,0:0:0:57:0_D#2_96.wav
475,192,34000,1,0,0:0:0:77:0_C#3_96.wav
256,192,34000,1,0,0:0:0:77:0_F#2_96.wav
329,192,34000,1,0,0:0:0:77:0_A#2_96.wav
109,192,34400,1,0,0:0:0:60:0_E1_96.wav
182,192,34600,1,0,0:0:0:70:0_B1_96.wav
256,192,34800,1,0,0:0:0:71:0_E2_96.wav
402,192,35000,1,0,0:0:0:81:0_B2_96.wav
475,192,35000,1,0,0:0:0:81:0_E3_96.wav
329,192,35000,1,0,0:0:0:81:0_G#2_96.wav
256,192,35400,1,0,0:0:0:59:0_E2_96.wav
402,192,35600,1,0,0:0:0:77:0_G#2_96.wav
475,192,35600,1,0,0:0:0:77:0_E3_96.wav
302,192,35600,1,0,0:0:0:77:0_B2_96.wav
182,192,36000,1,0,0:0:0:60:0_B1_96.wav
256,192,36200,1,0,0:0:0:74:0_F#2_96.wav
329,192,36400,1,0,0:0:0:69:0_B2_96.wav
475,192,36600,1,0,0:0:0:78:0_D#3_96.wav
329,192,36600,1,0,0:0:0:78:0_B2_96.wav
256,192,37000,1,0,0:0:0:59:0_F#2_96.wav
475,192,37200,1,0,0:0:0:80:0_D#3_96.wav
329,192,37200,1,0,0:0:0:80:0_B2_96.wav
36,192,37600,1,0,0:0:0:57:0_G#1_96.wav
182,192,37800,1,0,0:0:0:71:0_D#2_96.wav
329,192,38000,1,0,0:0:0:67:0_G#2_96.wav
475,192,38200,1,0,0:0:0:80:0_D#3_96.wav
402,192,38200,1,0,0:0:0:80:0_B2_96.wav
329,192,38600,1,0,0:0:0:62:0_G#2_96.wav
475,192,38800,1,0,0:0:0:81:0_D#3_96.wav
402,192,38800,1,0,0:0:0:81:0_B2_96.wav
36,192,39200,1,0,0:0:0:59:0_C#1_96.wav
109,192,39400,1,0,0:0:0:68:0_G#1_96.wav
256,192,39600,1,0,0:0:0:73:0_E2_96.wav
402,192,39800,1,0,0:0:0:80:0_B2_96.wav
329,192,39800,1,0,0:0:0:80:0_G#2_96.wav
475,192,39800,1,0,0:0:0:80:0_E3_96.wav
229,192,40200,1,0,0:0:0:64:0_E2_96.wav
329,192,40400,1,0,0:0:0:77:0_G#2_96.wav
475,192,40400,1,0,0:0:0:77:0_E3_96.wav
375,192,40400,1,0,0:0:0:77:0_B2_96.wav
109,192,40800,1,0,0:0:0:59:0_E1_96.wav
182,192,41000,1,0,0:0:0:68:0_B1_96.wav
256,192,41200,1,0,0:0:0:72:0_E2_96.wav
475,192,41400,1,0,0:0:0:81:0_E3_96.wav
329,192,41400,1,0,0:0:0:81:0_G#2_96.wav
402,192,41400,1,0,0:0:0:81:0_B2_96.wav
256,192,41800,1,0,0:0:0:64:0_E2_96.wav
475,192,42000,1,0,0:0:0:80:0_E3_96.wav
402,192,42000,1,0,0:0:0:80:0_B2_96.wav
329,192,42000,1,0,0:0:0:80:0_G#2_96.wav
109,192,42400,1,0,0:0:0:58:0_G#1_96.wav
182,192,42600,1,0,0:0:0:71:0_D#2_96.wav
256,192,42800,1,0,0:0:0:70:0_G#2_96.wav
329,192,43000,1,0,0:0:0:78:0_B2_192.wav
475,192,43000,1,0,0:0:0:84:0_D#3_96.wav
182,192,43200,1,0,0:0:0:49:10_C#3_96.wav
256,192,43300,1,0,0:0:0:49:10_D#3_96.wav
329,192,43400,1,0,0:0:0:63:10_E3_96.wav
402,192,43500,1,0,0:0:0:66:10_F#3_96.wav
475,192,43600,1,0,0:0:0:60:10_G#3_96.wav
36,192,43700,1,0,0:0:0:63:10_A#3_96.wav
109,192,43800,1,0,0:0:0:62:10_B3_96.wav
182,192,43900,1,0,0:0:0:68:10_C#4_96.wav
256,192,44000,1,0,0:0:0:62:10_D#4_96.wav
182,192,44100,1,0,0:0:0:58:10_C#4_96.wav
109,192,44200,1,0,0:0:0:52:10_B3_96.wav
36,192,44300,1,0,0:0:0:47:10_A#3_96.wav
109,192,44400,1,0,0:0:0:55:10_B3_96.wav
182,192,44500,1,0,0:0:0:59:10_C#4_96.wav
256,192,44600,1,0,0:0:0:58:10_D#4_96.wav
182,192,44700,1,0,0:0:0:56:10_C#4_96.wav
109,192,44800,1,0,0:0:0:50:10_B3_96.wav
36,192,44900,1,0,0:0:0:46:10_A#3_96.wav
109,192,45000,1,0,0:0:0:58:10_B3_96.wav
182,192,45100,1,0,0:0:0:62:10_C#4_96.wav
256,192,45200,1,0,0:0:0:56:10_D#4_96.wav
182,192,45300,1,0,0:0:0:53:10_C#4_96.wav
36,192,45400,1,0,0:0:0:46:10_A#3_96.wav
109,192,45500,1,0,0:0:0:46:10_B3_96.wav
182,192,45600,1,0,0:0:0:56:10_C#4_96.wav
109,192,45700,1,0,0:0:0:53:10_B3_96.wav
36,192,45800,1,0,0:0:0:49:10_A#3_96.wav
475,192,45900,1,0,0:0:0:41:10_G#3_96.wav
36,192,46000,1,0,0:0:0:54:10_A#3_96.wav
109,192,46100,1,0,0:0:0:58:10_B3_96.wav
182,192,46200,1,0,0:0:0:56:10_C#4_96.wav
109,192,46300,1,0,0:0:0:56:10_B3_96.wav
36,192,46400,1,0,0:0:0:51:10_A#3_96.wav
475,192,46500,1,0,0:0:0:44:10_G#3_96.wav
36,192,46600,1,0,0:0:0:55:10_A#3_96.wav
109,192,46700,1,0,0:0:0:55:10_B3_96.wav
182,192,46800,1,0,0:0:0:56:10_C#4_96.wav
109,192,46900,1,0,0:0:0:52:10_B3_96.wav
475,192,47000,1,0,0:0:0:47:10_G#3_96.wav
36,192,47100,1,0,0:0:0:50:10_A#3_96.wav
109,192,47200,1,0,0:0:0:54:10_B3_96.wav
182,192,47300,1,0,0:0:0:58:10_C#4_96.wav
109,192,47400,1,0,0:0:0:47:10_B3_96.wav
36,192,47500,1,0,0:0:0:40:10_A#3_96.wav
109,192,47600,1,0,0:0:0:58:10_B3_96.wav
182,192,47700,1,0,0:0:0:59:10_C#4_96.wav
256,192,47800,1,0,0:0:0:55:10_D#4_96.wav
329,192,47900,1,0,0:0:0:56:10_E4_96.wav
256,192,48000,1,0,0:0:0:50:10_D#4_96.wav
329,192,48100,1,0,0:0:0:52:10_E4_96.wav
402,192,48200,1,0,0:0:0:55:10_F#4_96.wav
475,192,48300,1,0,0:0:0:55:10_G#4_96.wav
36,192,48400,1,0,0:0:0:61:10_A#4_96.wav
109,192,48500,1,0,0:0:0:62:10_B4_96.wav
182,192,48600,1,0,0:0:0:55:10_C#5_96.wav
329,192,48700,1,0,0:0:0:60:10_E5_96.wav
36,192,48800,1,0,0:0:0:57:0_B1_96.wav
109,192,48800,1,0,0:0:0:56:0_B2_96.wav
256,192,48800,1,0,0:0:0:55:10_D#5_96.wav
182,192,49000,1,0,0:0:0:57:0_F#2_96.wav
109,192,49000,1,0,0:0:0:76:0_F#3_96.wav
329,192,49200,1,0,0:0:0:57:0_B2_96.wav
256,192,49200,1,0,0:0:0:74:0_B3_96.wav
402,192,49400,1,0,0:0:0:57:0_D#3_96.wav
475,192,49400,1,0,0:0:0:73:0_D#4_96.wav
329,192,49600,1,0,0:0:0:55:10_D#5_96.wav
402,192,49700,1,0,0:0:0:58:10_E5_96.wav
475,192,49800,1,0,0:0:0:56:10_F#5_96.wav
402,192,49900,1,0,0:0:0:54:10_E5_96.wav
329,192,50000,1,0,0:0:0:52:10_D#5_96.wav
256,192,50100,1,0,0:0:0:50:10_C#5_96.wav
182,192,50200,1,0,0:0:0:50:10_B4_96.wav
109,192,50300,1,0,0:0:0:50:10_A#4_96.wav
182,192,50400,1,0,0:0:0:41:10_B4_96.wav
256,192,50500,1,0,0:0:0:42:10_C#5_96.wav
182,192,50600,1,0,0:0:0:51:10_B4_96.wav
109,192,50700,1,0,0:0:0:49:10_A#4_96.wav
182,192,50800,1,0,0:0:0:58:10_B4_96.wav
256,192,50900,1,0,0:0:0:70:10_F#5_96.wav
402,192,51000,1,0,0:0:0:60:10_B5_96.wav
329,192,51100,1,0,0:0:0:55:10_A#5_96.wav
402,192,51200,1,0,0:0:0:55:10_B5_96.wav
329,192,51300,1,0,0:0:0:56:10_A#5_96.wav
256,192,51400,1,0,0:0:0:49:10_F#5_96.wav
182,192,51500,1,0,0:0:0:46:10_E5_96.wav
402,192,51600,1,0,0:0:0:50:10_D#5_96.wav
329,192,51700,1,0,0:0:0:47:10_C#5_96.wav
256,192,51800,1,0,0:0:0:44:10_B4_96.wav
182,192,51900,1,0,0:0:0:44:10_A#4_96.wav
256,192,52000,1,0,0:0:0:55:10_B4_96.wav
329,192,52100,1,0,0:0:0:59:10_C#5_96.wav
256,192,52200,1,0,0:0:0:47:10_B4_96.wav
182,192,52300,1,0,0:0:0:44:10_A#4_96.wav
256,192,52400,1,0,0:0:0:55:10_B4_96.wav
182,192,52500,1,0,0:0:0:70:10_F#5_96.wav
402,192,52600,1,0,0:0:0:63:10_B5_96.wav
329,192,52700,1,0,0:0:0:59:10_A#5_96.wav
402,192,52800,1,0,0:0:0:53:10_B5_96.wav
329,192,52900,1,0,0:0:0:53:10_A#5_96.wav
256,192,53000,1,0,0:0:0:47:10_F#5_96.wav
182,192,53100,1,0,0:0:0:44:10_E5_96.wav
109,192,53200,1,0,0:0:0:49:10_D#5_96.wav
36,192,53300,1,0,0:0:0:42:10_C#5_96.wav
475,192,53400,1,0,0:0:0:46:10_B4_96.wav
375,192,53500,1,0,0:0:0:46:10_A#4_96.wav
475,192,53600,1,0,0:0:0:66:10_B4_96.wav
329,192,53700,1,0,0:0:0:75:10_F#5_96.wav
256,192,53800,1,0,0:0:0:49:10_E5_96.wav
182,192,53900,1,0,0:0:0:46:10_D#5_96.wav
109,192,54000,1,0,0:0:0:50:10_C#5_96.wav
36,192,54100,1,0,0:0:0:47:10_B4_96.wav
402,192,54200,1,0,0:0:0:49:10_A#4_96.wav
329,192,54300,1,0,0:0:0:48:10_G#4_96.wav
256,192,54400,1,0,0:0:0:49:10_F#4_96.wav
475,192,54500,1,0,0:0:0:59:10_E5_96.wav
402,192,54600,1,0,0:0:0:49:10_D#5_96.wav
329,192,54700,1,0,0:0:0:47:10_C#5_96.wav
256,192,54800,1,0,0:0:0:49:10_B4_96.wav
182,192,54900,1,0,0:0:0:44:10_A#4_96.wav
109,192,55000,1,0,0:0:0:50:10_G#4_96.wav
182,192,55100,1,0,0:0:0:56:10_A#4_96.wav
36,192,55200,1,0,0:0:0:52:0_B0_96.wav
109,192,55200,1,0,0:0:0:54:0_B1_96.wav
256,192,55200,1,0,0:0:0:56:10_B4_96.wav
329,192,55400,1,0,0:0:0:62:0_B2_96.wav
402,192,55600,1,0,0:0:0:67:0_F#3_96.wav
329,192,55800,1,0,0:0:0:52:0_B2_96.wav
475,192,55800,1,0,0:0:0:64:0_B3_96.wav
402,192,56200,1,0,0:0:0:48:0_F#3_96.wav
36,192,56400,1,0,0:0:0:52:0_B1_96.wav
109,192,56400,1,0,0:0:0:48:0_B2_96.wav
36,192,56800,1,0,0:0:0:90:0_F#2_192.wav
475,192,56800,1,0,0:0:0:54:10_E4_96.wav
182,192,57000,1,0,0:0:0:55:0_E3_96.wav
256,192,57000,1,0,0:0:0:47:10_A3_96.wav
475,192,57200,1,0,0:0:0:59:10_E4_96.wav
182,192,57400,1,0,0:0:0:59:0_E3_96.wav
256,192,57400,1,0,0:0:0:49:10_A3_96.wav
109,192,57600,1,0,0:0:0:100:0_B2_192.wav
475,192,57600,1,0,0:0:0:60:10_E4_96.wav
182,192,57800,1,0,0:0:0:57:0_E3_96.wav
329,192,57800,1,0,0:0:0:48:10_B3_96.wav
475,192,58000,1,0,0:0:0:59:10_E4_96.wav
182,192,58200,1,0,0:0:0:57:0_E3_96.wav
329,192,58200,1,0,0:0:0:48:10_B3_96.wav
36,192,58400,1,0,0:0:0:86:0_E2_192.wav
475,192,58400,1,0,0:0:0:60:10_E4_96.wav
182,192,58600,1,0,0:0:0:85:0_E3_96.wav
329,192,58600,1,0,0:0:0:71:10_B3_96.wav
475,192,58800,1,0,0:0:0:62:10_E4_96.wav
182,192,59000,1,0,0:0:0:96:0_E3_96.wav
329,192,59000,1,0,0:0:0:77:10_B3_96.wav
109,192,59200,1,0,0:0:0:73:0_A2_96.wav
475,192,59200,1,0,0:0:0:62:10_E4_96.wav
182,192,59400,1,0,0:0:0:89:0_E3_96.wav
402,192,59400,1,0,0:0:0:69:10_C#4_96.wav
36,192,59600,1,0,0:0:0:66:0_G#2_96.wav
329,192,59600,1,0,0:0:0:69:10_B3_96.wav
475,192,59600,1,0,0:0:0:57:10_E4_96.wav
329,192,59800,1,0,0:0:0:50:10_B3_96.wav
109,192,60000,1,0,0:0:0:85:0_F#2_192.wav
256,192,60000,1,0,0:0:0:60:10_A3_96.wav
475,192,60000,1,0,0:0:0:60:10_E4_96.wav
182,192,60200,1,0,0:0:0:55:0_E3_96.wav
256,192,60200,1,0,0:0:0:47:10_A3_96.wav
475,192,60400,1,0,0:0:0:62:10_E4_96.wav
182,192,60600,1,0,0:0:0:59:0_E3_96.wav
256,192,60600,1,0,0:0:0:49:10_A3_96.wav
109,192,60800,1,0,0:0:0:100:0_B2_192.wav
475,192,60800,1,0,0:0:0:62:10_E4_96.wav
182,192,61000,1,0,0:0:0:55:0_E3_96.wav
329,192,61000,1,0,0:0:0:46:10_B3_96.wav
475,192,61200,1,0,0:0:0:60:10_E4_96.wav
182,192,61400,1,0,0:0:0:61:0_E3_96.wav
329,192,61400,1,0,0:0:0:51:10_B3_96.wav
36,192,61600,1,0,0:0:0:85:0_E2_192.wav
475,192,61600,1,0,0:0:0:60:10_E4_96.wav
182,192,61800,1,0,0:0:0:82:0_E3_96.wav
329,192,61800,1,0,0:0:0:70:10_B3_96.wav
475,192,62000,1,0,0:0:0:61:10_E4_96.wav
156,192,62200,1,0,0:0:0:92:0_E3_96.wav
329,192,62200,1,0,0:0:0:77:10_B3_96.wav
109,192,62400,1,0,0:0:0:74:0_A2_96.wav
475,192,62400,1,0,0:0:0:59:10_E4_96.wav
182,192,62600,1,0,0:0:0:87:0_E3_96.wav
402,192,62600,1,0,0:0:0:70:10_C#4_96.wav
109,192,62800,1,0,0:0:0:67:0_G#2_96.wav
329,192,62800,1,0,0:0:0:70:10_B3_96.wav
475,192,62800,1,0,0:0:0:60:10_E4_96.wav
329,192,63000,1,0,0:0:0:50:10_B3_96.wav
36,192,63200,1,0,0:0:0:85:0_F#2_192.wav
256,192,63200,1,0,0:0:0:70:10_A3_96.wav
475,192,63200,1,0,0:0:0:61:10_E4_96.wav
182,192,63400,1,0,0:0:0:51:0_E3_96.wav
256,192,63400,1,0,0:0:0:43:10_A3_96.wav
475,192,63600,1,0,0:0:0:62:10_E4_96.wav
182,192,63800,1,0,0:0:0:58:0_E3_96.wav
256,192,63800,1,0,0:0:0:49:10_A3_96.wav
109,192,64000,1,0,0:0:0:100:0_B2_192.wav
475,192,64000,1,0,0:0:0:59:10_E4_96.wav
182,192,64200,1,0,0:0:0:53:0_E3_96.wav
329,192,64200,1,0,0:0:0:44:10_B3_96.wav
475,192,64400,1,0,0:0:0:57:10_E4_96.wav
182,192,64600,1,0,0:0:0:62:0_E3_96.wav
329,192,64600,1,0,0:0:0:51:10_B3_96.wav
36,192,64800,1,0,0:0:0:68:0_E2_192.wav
475,192,64800,1,0,0:0:0:62:10_E4_96.wav
182,192,65000,1,0,0:0:0:85:0_E3_96.wav
329,192,65000,1,0,0:0:0:70:10_B3_96.wav
475,192,65200,1,0,0:0:0:62:10_E4_96.wav
182,192,65400,1,0,0:0:0:91:0_E3_96.wav
329,192,65400,1,0,0:0:0:77:10_B3_96.wav
109,192,65600,1,0,0:0:0:78:0_A2_192.wav
475,192,65600,1,0,0:0:0:61:10_E4_96.wav
182,192,65800,1,0,0:0:0:87:0_E3_96.wav
402,192,65800,1,0,0:0:0:70:10_C#4_96.wav
329,192,66000,1,0,0:0:0:70:10_B3_96.wav
475,192,66000,1,0,0:0:0:61:10_E4_96.wav
182,192,66200,1,0,0:0:0:78:0_E3_96.wav
329,192,66200,1,0,0:0:0:50:10_B3_96.wav
36,192,66400,1,0,0:0:0:97:0_B1_96.wav
256,192,66400,1,0,0:0:0:63:0_B2_96.wav
402,192,66400,1,0,0:0:0:63:10_D4_96.wav
475,192,66400,1,0,0:0:0:63:10_F#4_96.wav
36,192,66600,1,0,0:0:0:97:0_B1_96.wav
182,192,66600,1,0,0:0:0:61:0_F#2_96.wav
329,192,66800,1,0,0:0:0:53:10_C#4_96.wav
182,192,67000,1,0,0:0:0:60:0_F#2_96.wav
36,192,67200,1,0,0:0:0:100:0_C#2_96.wav
256,192,67200,1,0,0:0:0:70:0_C#3_96.wav
329,192,67200,1,0,0:0:0:51:10_B3_96.wav
475,192,67200,1,0,0:0:0:51:10_E4_96.wav
36,192,67400,1,0,0:0:0:97:0_C#2_96.wav
109,192,67400,1,0,0:0:0:59:0_A2_96.wav
329,192,67600,1,0,0:0:0:51:10_A3_96.wav
182,192,67800,1,0,0:0:0:62:0_A2_96.wav
109,192,68000,1,0,0:0:0:97:0_D2_96.wav
256,192,68000,1,0,0:0:0:72:0_D3_96.wav
402,192,68000,1,0,0:0:0:62:10_E4_96.wav
475,192,68000,1,0,0:0:0:62:10_F#4_96.wav
109,192,68200,1,0,0:0:0:97:0_D2_96.wav
182,192,68200,1,0,0:0:0:63:0_A2_96.wav
402,192,68400,1,0,0:0:0:55:10_D4_96.wav
256,192,68600,1,0,0:0:0:63:0_A2_96.wav
182,192,68800,1,0,0:0:0:100:0_E2_96.wav
329,192,68800,1,0,0:0:0:74:0_E3_96.wav
475,192,68800,1,0,0:0:0:52:10_C#4_96.wav
402,192,68800,1,0,0:0:0:52:10_E4_96.wav
182,192,69000,1,0,0:0:0:97:0_E2_96.wav
256,192,69000,1,0,0:0:0:58:0_B2_96.wav
475,192,69200,1,0,0:0:0:51:10_B3_96.wav
109,192,69400,1,0,0:0:0:62:0_B2_96.wav
36,192,69600,1,0,0:0:0:55:0_F#2_96.wav
402,192,69600,1,0,0:0:0:48:10_A3_96.wav
475,192,69600,1,0,0:0:0:48:10_E4_96.wav
182,192,69800,1,0,0:0:0:59:0_C#3_96.wav
256,192,70000,1,0,0:0:0:66:0_F#3_96.wav
329,192,70200,1,0,0:0:0:66:0_C#4_384.wav
402,192,70400,1,0,0:0:0:68:10_F#5_96.wav
475,192,70400,1,0,0:0:0:68:10_F#6_96.wav
109,192,70800,1,0,0:0:0:48:10_B4_96.wav
402,192,70800,1,0,0:0:0:48:10_B5_96.wav
182,192,71200,1,0,0:0:0:56:10_C#5_96.wav
448,192,71200,1,0,0:0:0:56:10_C#6_96.wav
256,192,71600,1,0,0:0:0:45:10_F#4_96.wav
36,192,71600,1,0,0:0:0:45:10_F#5_96.wav
182,192,72000,1,0,0:0:0:62:0_C#4_96.wav
10,192,72200,1,0,0:0:0:65:10_G#4_96.wav
256,192,72200,1,0,0:0:0:65:10_G#5_96.wav
109,192,72400,1,0,0:0:0:65:10_A4_96.wav
329,192,72400,1,0,0:0:0:65:10_A5_96.wav
375,192,72600,1,0,0:0:0:58:10_B4_96.wav
182,192,72600,1,0,0:0:0:58:10_B5_96.wav
10,192,72800,1,0,0:0:0:62:10_C#5_288.wav
256,192,72800,1,0,0:0:0:62:10_A#5_288.wav
448,192,72800,1,0,0:0:0:62:10_C#6_288.wav
109,192,73000,1,0,0:0:0:60:0_C#2_96.wav
182,192,73200,1,0,0:0:0:60:0_F#2_96.wav
256,192,73400,1,0,0:0:0:65:0_C#3_96.wav
329,192,73600,1,0,0:0:0:68:0_F#3_96.wav
256,192,73800,1,0,0:0:0:51:0_C#3_96.wav
329,192,74000,1,0,0:0:0:59:0_F#3_96.wav
402,192,74200,1,0,0:0:0:69:0_C#4_96.wav
475,192,74400,1,0,0:0:0:66:10_G#4_96.wav
36,192,74400,1,0,0:0:0:66:10_G#5_96.wav
109,192,74400,1,0,0:0:0:92:0_G#5_96.wav
256,192,74500,1,0,0:0:0:80:0_D#5_96.wav
402,192,74600,1,0,0:0:0:71:0_C#5_96.wav
182,192,74700,1,0,0:0:0:61:0_G#4_96.wav
329,192,74800,1,0,0:0:0:64:0_D#4_96.wav
109,192,74900,1,0,0:0:0:61:0_C#4_96.wav
256,192,75000,1,0,0:0:0:70:0_G#3_96.wav
36,192,75100,1,0,0:0:0:77:0_C#4_96.wav
109,192,75200,1,0,0:0:0:72:0_D#1_96.wav
402,192,75200,1,0,0:0:0:85:0_D#4_96.wav
475,192,75200,1,0,0:0:0:70:10_G4_96.wav
182,192,75200,1,0,0:0:0:85:0_G4_96.wav
36,192,76000,1,0,0:0:0:79:0_G#0_384.wav
109,192,76000,1,0,0:0:0:79:0_G#1_96.wav
402,192,76000,1,0,0:0:0:85:0_F#3_96.wav
475,192,76000,1,0,0:0:0:85:0_B3_96.wav
182,192,76200,1,0,0:0:0:78:0_G#1_288.wav
256,192,76400,1,0,0:0:0:88:0_D#2_96.wav
329,192,76600,1,0,0:0:0:99:0_G#2_96.wav
402,192,76600,1,0,0:0:0:99:0_B2_96.wav
182,192,77000,1,0,0:0:0:82:0_D#2_96.wav
256,192,77200,1,0,0:0:0:100:0_G#2_96.wav
329,192,77200,1,0,0:0:0:100:0_B2_96.wav
402,192,77200,1,0,0:0:0:100:0_D#3_96.wav
402,192,77400,1,0,0:0:0:74:0_D#3_96.wav
36,192,77600,1,0,0:0:0:83:0_E0_384.wav
109,192,77600,1,0,0:0:0:83:0_E1_96.wav
182,192,77800,1,0,0:0:0:77:0_E1_288.wav
256,192,77850,1,0,0:0:0:63:0_D#3_96.wav
329,192,77900,1,0,0:0:0:63:0_G#3_96.wav
402,192,77950,1,0,0:0:0:63:0_B3_96.wav
475,192,78000,1,0,0:0:0:65:0_D#4_96.wav
36,192,78000,1,0,0:0:0:98:0_E2_96.wav
329,192,78200,1,0,0:0:0:99:0_B2_96.wav
109,192,78200,1,0,0:0:0:99:0_G#2_96.wav
36,192,78600,1,0,0:0:0:80:0_E2_96.wav
475,192,78800,1,0,0:0:0:100:0_E3_96.wav
329,192,78800,1,0,0:0:0:50:0_B2_96.wav
109,192,78800,1,0,0:0:0:50:0_B2_96.wav
36,192,79200,1,0,0:0:0:87:0_F#0_384.wav
109,192,79200,1,0,0:0:0:87:0_F#1_96.wav
182,192,79400,1,0,0:0:0:81:0_F#1_288.wav
256,192,79600,1,0,0:0:0:98:0_F#2_96.wav
402,192,79800,1,0,0:0:0:100:0_C#3_96.wav
329,192,79800,1,0,0:0:0:100:0_A#2_96.wav
256,192,80200,1,0,0:0:0:87:0_F#2_96.wav
402,192,80400,1,0,0:0:0:100:0_F#3_96.wav
475,192,80400,1,0,0:0:0:100:0_C#3_96.wav
36,192,80800,1,0,0:0:0:92:0_B0_96.wav
109,192,80800,1,0,0:0:0:92:0_B1_96.wav
36,192,81000,1,0,0:0:0:80:0_B0_96.wav
109,192,81000,1,0,0:0:0:80:0_B1_96.wav
182,192,81200,1,0,0:0:0:100:0_F#2_96.wav
329,192,81200,1,0,0:0:0:100:0_B2_96.wav
475,192,81400,1,0,0:0:0:40:0_D#3_96.wav
402,192,81400,1,0,0:0:0:40:0_D#3_96.wav
36,192,81600,1,0,0:0:0:86:0_A#0_96.wav
109,192,81600,1,0,0:0:0:86:0_A#1_96.wav
329,192,81600,1,0,0:0:0:80:0_C#3_96.wav
109,192,81800,1,0,0:0:0:81:0_A#1_96.wav
256,192,81800,1,0,0:0:0:97:0_F#2_96.wav
256,192,82000,1,0,0:0:0:97:0_F#2_96.wav
182,192,82000,1,0,0:0:0:97:0_A#2_96.wav
402,192,82200,1,0,0:0:0:40:0_C#3_96.wav
329,192,82200,1,0,0:0:0:40:0_C#3_96.wav
36,192,82400,1,0,0:0:0:87:0_G#1_96.wav
256,192,82400,1,0,0:0:0:75:0_B2_96.wav
402,192,82400,1,0,0:0:0:89:0_F#3_96.wav
475,192,82400,1,0,0:0:0:89:0_B3_96.wav
109,192,82600,1,0,0:0:0:77:0_G#1_288.wav
182,192,82800,1,0,0:0:0:96:0_D#2_96.wav
256,192,83000,1,0,0:0:0:92:0_G#2_96.wav
329,192,83000,1,0,0:0:0:92:0_B2_96.wav
182,192,83400,1,0,0:0:0:87:0_D#2_96.wav
256,192,83600,1,0,0:0:0:100:0_G#2_96.wav
329,192,83600,1,0,0:0:0:100:0_B2_96.wav
475,192,83600,1,0,0:0:0:100:0_D#3_96.wav
475,192,83800,1,0,0:0:0:81:0_D#3_96.wav
36,192,84000,1,0,0:0:0:84:0_E0_384.wav
109,192,84000,1,0,0:0:0:84:0_E1_96.wav
109,192,84200,1,0,0:0:0:81:0_E1_288.wav
182,192,84250,1,0,0:0:0:75:0_D#3_96.wav
256,192,84300,1,0,0:0:0:75:0_G#3_96.wav
329,192,84350,1,0,0:0:0:75:0_B3_96.wav
402,192,84400,1,0,0:0:0:96:0_E2_96.wav
475,192,84400,1,0,0:0:0:75:0_D#4_96.wav
256,192,84600,1,0,0:0:0:96:0_B2_96.wav
109,192,84600,1,0,0:0:0:96:0_G#2_96.wav
36,192,85000,1,0,0:0:0:83:0_E2_96.wav
402,192,85200,1,0,0:0:0:100:0_E3_96.wav
256,192,85200,1,0,0:0:0:100:0_B2_96.wav
109,192,85600,1,0,0:0:0:90:0_F#1_96.wav
36,192,85600,1,0,0:0:0:90:0_F#0_384.wav
182,192,85800,1,0,0:0:0:82:0_F#1_288.wav
256,192,86000,1,0,0:0:0:100:0_F#2_96.wav
402,192,86200,1,0,0:0:0:100:0_C#3_96.wav
475,192,86200,1,0,0:0:0:100:0_F#3_96.wav
329,192,86200,1,0,0:0:0:100:0_A#2_96.wav
256,192,86600,1,0,0:0:0:81:0_F#2_96.wav
402,192,86800,1,0,0:0:0:100:0_C#3_96.wav
475,192,86800,1,0,0:0:0:100:0_F#3_96.wav
109,192,87200,1,0,0:0:0:80:0_B0_96.wav
36,192,87200,1,0,0:0:0:80:0_B1_96.wav
402,192,87200,1,0,0:0:0:85:10_D#4_96.wav
36,192,87400,1,0,0:0:0:80:0_B0_96.wav
109,192,87400,1,0,0:0:0:78:0_B1_96.wav
475,192,87400,1,0,0:0:0:85:10_E4_96.wav
182,192,87600,1,0,0:0:0:100:0_D#2_96.wav
256,192,87600,1,0,0:0:0:100:0_F#2_96.wav
329,192,87600,1,0,0:0:0:100:0_B2_96.wav
402,192,87600,1,0,0:0:0:82:10_D#4_96.wav
36,192,87800,1,0,0:0:0:87:0_A#0_96.wav
109,192,87800,1,0,0:0:0:87:0_A#1_96.wav
329,192,87800,1,0,0:0:0:73:10_C#4_96.wav
36,192,88000,1,0,0:0:0:80:0_A#0_192.wav
83,192,88000,1,0,0:0:0:80:0_A#1_192.wav
182,192,88200,1,0,0:0:0:78:0_C#2_96.wav
256,192,88200,1,0,0:0:0:83:0_F#2_96.wav
475,192,88200,1,0,0:0:0:74:10_D#4_96.wav
256,192,88400,1,0,0:0:0:95:0_F#2_96.wav
402,192,88400,1,0,0:0:0:68:10_C#4_96.wav
329,192,88600,1,0,0:0:0:61:10_B3_96.wav
475,192,88800,1,0,0:0:0:68:10_B4_96.wav
329,192,88900,1,0,0:0:0:60:10_F#4_96.wav
36,192,89000,1,0,0:0:0:62:10_D#4_96.wav
329,192,89100,1,0,0:0:0:76:10_F#4_96.wav
475,192,89200,1,0,0:0:0:78:10_B4_96.wav
329,192,89300,1,0,0:0:0:62:10_F#4_96.wav
36,192,89400,1,0,0:0:0:62:10_D#4_96.wav
329,192,89500,1,0,0:0:0:74:10_F#4_96.wav
475,192,89600,1,0,0:0:0:77:10_B4_96.wav
329,192,89700,1,0,0:0:0:62:10_F#4_96.wav
36,192,89800,1,0,0:0:0:62:10_D#4_96.wav
329,192,89900,1,0,0:0:0:73:10_F#4_96.wav
475,192,90000,1,0,0:0:0:77:10_B4_96.wav
329,192,90100,1,0,0:0:0:62:10_F#4_96.wav
36,192,90200,1,0,0:0:0:64:10_D#4_96.wav
329,192,90300,1,0,0:0:0:75:10_F#4_96.wav
475,192,90400,1,0,0:0:0:78:10_B4_96.wav
329,192,90500,1,0,0:0:0:62:10_F#4_96.wav
182,192,90600,1,0,0:0:0:64:10_E4_96.wav
329,192,90700,1,0,0:0:0:75:10_F#4_96.wav
475,192,90800,1,0,0:0:0:78:10_B4_96.wav
329,192,90900,1,0,0:0:0:59:10_F#4_96.wav
182,192,91000,1,0,0:0:0:66:10_E4_96.wav
329,192,91100,1,0,0:0:0:75:10_F#4_96.wav
475,192,91200,1,0,0:0:0:78:10_B4_96.wav
329,192,91300,1,0,0:0:0:62:10_F#4_96.wav
182,192,91400,1,0,0:0:0:66:10_E4_96.wav
329,192,91500,1,0,0:0:0:73:10_F#4_96.wav
475,192,91600,1,0,0:0:0:76:10_B4_96.wav
329,192,91700,1,0,0:0:0:58:10_F#4_96.wav
182,192,91800,1,0,0:0:0:62:10_E4_96.wav
329,192,91900,1,0,0:0:0:73:10_F#4_96.wav
475,192,92000,1,0,0:0:0:78:10_B4_96.wav
329,192,92100,1,0,0:0:0:62:10_F#4_96.wav
36,192,92200,1,0,0:0:0:62:10_D#4_96.wav
329,192,92300,1,0,0:0:0:77:10_F#4_96.wav
475,192,92400,1,0,0:0:0:77:10_B4_96.wav
329,192,92500,1,0,0:0:0:61:10_F#4_96.wav
36,192,92600,1,0,0:0:0:62:10_D#4_96.wav
329,192,92700,1,0,0:0:0:74:10_F#4_96.wav
475,192,92800,1,0,0:0:0:78:10_B4_96.wav
329,192,92900,1,0,0:0:0:62:10_F#4_96.wav
36,192,93000,1,0,0:0:0:62:10_D#4_96.wav
329,192,93100,1,0,0:0:0:77:10_F#4_96.wav
475,192,93200,1,0,0:0:0:78:10_B4_96.wav
329,192,93300,1,0,0:0:0:61:10_F#4_96.wav
36,192,93400,1,0,0:0:0:64:10_D#4_96.wav
329,192,93500,1,0,0:0:0:74:10_F#4_96.wav
182,192,93600,1,0,0:0:0:90:0_B3_96.wav
256,192,93600,1,0,0:0:0:90:0_B3_96.wav
109,192,93800,1,0,0:0:0:79:0_F#1_96.wav
36,192,93800,1,0,0:0:0:79:0_F#2_96.wav
182,192,94000,1,0,0:0:0:100:0_C#3_96.wav
256,192,94000,1,0,0:0:0:100:0_F#3_96.wav
329,192,94200,1,0,0:0:0:74:10_A#3_96.wav
402,192,94200,1,0,0:0:0:89:0_A#3_96.wav
475,192,94400,1,0,0:0:0:78:0_D#4_96.wav
329,192,94400,1,0,0:0:0:65:10_A#3_96.wav
36,192,94400,1,0,0:0:0:90:0_G1_96.wav
109,192,94400,1,0,0:0:0:90:0_G2_96.wav
36,192,94600,1,0,0:0:0:79:0_G1_96.wav
109,192,94600,1,0,0:0:0:81:0_G2_96.wav
256,192,94800,1,0,0:0:0:100:0_D#3_96.wav
329,192,94800,1,0,0:0:0:100:0_G3_96.wav
36,192,95200,1,0,0:0:0:100:0_G#1_384.wav
256,192,95200,1,0,0:0:0:100:0_G#2_96.wav
182,192,95400,1,0,0:0:0:83:0_D#2_96.wav
256,192,95600,1,0,0:0:0:91:0_G#2_192.wav
329,192,95800,1,0,0:0:0:92:0_B2_96.wav
256,192,96200,1,0,0:0:0:88:0_G#2_96.wav
475,192,96400,1,0,0:0:0:100:0_D#3_96.wav
329,192,96400,1,0,0:0:0:100:0_B2_96.wav
36,192,96800,1,0,0:0:0:82:0_C#1_384.wav
109,192,96800,1,0,0:0:0:82:0_C#2_96.wav
182,192,97000,1,0,0:0:0:80:0_G#1_96.wav
256,192,97050,1,0,0:0:0:70:0_F3_96.wav
329,192,97100,1,0,0:0:0:70:0_G#3_96.wav
402,192,97150,1,0,0:0:0:70:0_B3_96.wav
475,192,97200,1,0,0:0:0:74:0_D#4_96.wav
36,192,97200,1,0,0:0:0:93:0_C#2_192.wav
256,192,97400,1,0,0:0:0:94:0_F2_96.wav
329,192,97400,1,0,0:0:0:94:0_G#2_96.wav
36,192,97800,1,0,0:0:0:83:0_C#2_96.wav
256,192,98000,1,0,0:0:0:100:0_F2_96.wav
402,192,98000,1,0,0:0:0:100:0_C#3_96.wav
329,192,98000,1,0,0:0:0:100:0_G#2_96.wav
402,192,98400,1,0,0:0:0:73:10_C#3_96.wav
36,192,98400,1,0,0:0:0:81:0_A0_384.wav
182,192,98400,1,0,0:0:0:81:0_A1_96.wav
256,192,98400,1,0,0:0:0:73:10_A2_96.wav
109,192,98500,1,0,0:0:0:81:0_E1_96.wav
182,192,98600,1,0,0:0:0:95:0_A1_96.wav
256,192,98700,1,0,0:0:0:97:0_C#2_96.wav
182,192,98800,1,0,0:0:0:84:0_A1_288.wav
475,192,98800,1,0,0:0:0:73:10_E3_96.wav
402,192,98800,1,0,0:0:0:73:10_C#3_96.wav
256,192,98900,1,0,0:0:0:90:0_C#2_96.wav
329,192,99000,1,0,0:0:0:93:0_E2_96.wav
402,192,99100,1,0,0:0:0:95:0_A2_96.wav
36,192,99200,1,0,0:0:0:78:10_E3_96.wav
475,192,99200,1,0,0:0:0:78:10_A3_96.wav
109,192,99300,1,0,0:0:0:92:0_E2_96.wav
182,192,99400,1,0,0:0:0:94:0_A2_96.wav
256,192,99500,1,0,0:0:0:98:0_C#3_96.wav
36,192,99600,1,0,0:0:0:82:0_E2_96.wav
402,192,99600,1,0,0:0:0:81:10_A3_96.wav
475,192,99600,1,0,0:0:0:78:10_C#4_96.wav
109,192,99700,1,0,0:0:0:94:0_A2_96.wav
182,192,99800,1,0,0:0:0:98:0_C#3_96.wav
256,192,99900,1,0,0:0:0:96:0_E3_96.wav
109,192,100000,1,0,0:0:0:81:0_A2_96.wav
475,192,100000,1,0,0:0:0:80:10_C#4_96.wav
402,192,100000,1,0,0:0:0:80:10_E4_96.wav
182,192,100100,1,0,0:0:0:96:0_C#3_96.wav
256,192,100200,1,0,0:0:0:97:0_E3_96.wav
329,192,100300,1,0,0:0:0:100:0_A3_96.wav
36,192,100400,1,0,0:0:0:66:10_E4_96.wav
402,192,100400,1,0,0:0:0:100:0_C#4_96.wav
475,192,100400,1,0,0:0:0:73:10_A4_96.wav
329,192,100500,1,0,0:0:0:81:0_A3_96.wav
256,192,100600,1,0,0:0:0:76:0_E3_96.wav
182,192,100700,1,0,0:0:0:80:0_C#3_96.wav
109,192,100800,1,0,0:0:0:81:0_E2_96.wav
36,192,100800,1,0,0:0:0:78:0_A2_96.wav
109,192,100900,1,0,0:0:0:83:0_E2_96.wav
36,192,100900,1,0,0:0:0:72:0_A2_96.wav
402,192,101000,1,0,0:0:0:65:0_C#3_96.wav
182,192,101100,1,0,0:0:0:79:0_E1_96.wav
329,192,101100,1,0,0:0:0:62:0_A2_96.wav
36,192,101200,1,0,0:0:0:80:0_A0_96.wav
402,192,101200,1,0,0:0:0:60:0_C#3_96.wav
475,192,101300,1,0,0:0:0:60:0_E3_96.wav
256,192,101400,1,0,0:0:0:30:0_C#3_96.wav
402,192,101400,1,0,0:0:0:30:0_C#3_96.wav
475,192,101500,1,0,0:0:0:60:0_E3_96.wav
36,192,101600,1,0,0:0:0:98:0_G#1_96.wav
182,192,101800,1,0,0:0:0:78:0_G#2_96.wav
109,192,101900,1,0,0:0:0:81:0_D#2_96.wav
36,192,102000,1,0,0:0:0:81:0_G#1_96.wav
182,192,102200,1,0,0:0:0:99:0_G#2_96.wav
109,192,102300,1,0,0:0:0:85:0_D#2_96.wav
36,192,102400,1,0,0:0:0:81:0_G#1_96.wav
402,192,102400,1,0,0:0:0:76:10_F#4_96.wav
182,192,102600,1,0,0:0:0:100:0_G#2_96.wav
109,192,102700,1,0,0:0:0:85:0_D#2_96.wav
36,192,102800,1,0,0:0:0:78:0_G#1_96.wav
475,192,102800,1,0,0:0:0:83:10_B4_96.wav
36,192,103000,1,0,0:0:0:84:0_E0_384.wav
109,192,103000,1,0,0:0:0:84:0_E1_192.wav
329,192,103000,1,0,0:0:0:72:10_E4_96.wav
182,192,103400,1,0,0:0:0:80:0_G#2_96.wav
475,192,103400,1,0,0:0:0:88:10_B4_96.wav
109,192,103500,1,0,0:0:0:77:0_B1_96.wav
36,192,103600,1,0,0:0:0:81:0_E1_96.wav
182,192,103800,1,0,0:0:0:100:0_G#2_96.wav
402,192,103800,1,0,0:0:0:85:10_F#4_96.wav
109,192,103900,1,0,0:0:0:77:0_B1_96.wav
36,192,104000,1,0,0:0:0:80:0_E1_96.wav
182,192,104200,1,0,0:0:0:99:0_G#2_96.wav
475,192,104200,1,0,0:0:0:94:10_B4_96.wav
36,192,104400,1,0,0:0:0:78:0_E1_96.wav
256,192,104400,1,0,0:0:0:81:10_B3_96.wav
109,192,104600,1,0,0:0:0:93:0_B1_96.wav
329,192,104600,1,0,0:0:0:95:10_C#4_96.wav
36,192,104800,1,0,0:0:0:93:0_B0_288.wav
109,192,104800,1,0,0:0:0:93:0_B1_96.wav
256,192,104800,1,0,0:0:0:100:10_B3_96.wav
402,192,104800,1,0,0:0:0:100:10_D#4_96.wav
182,192,105000,1,0,0:0:0:79:0_B2_96.wav
109,192,105100,1,0,0:0:0:83:0_F#2_96.wav
36,192,105200,1,0,0:0:0:81:0_B1_96.wav
329,192,105200,1,0,0:0:0:100:10_B4_96.wav
182,192,105400,1,0,0:0:0:100:0_B2_96.wav
109,192,105500,1,0,0:0:0:85:0_F#2_96.wav
36,192,105600,1,0,0:0:0:82:0_B1_96.wav
475,192,105600,1,0,0:0:0:79:10_F#4_96.wav
182,192,105800,1,0,0:0:0:100:0_B2_96.wav
109,192,105900,1,0,0:0:0:86:0_F#2_96.wav
36,192,106000,1,0,0:0:0:78:0_B1_96.wav
329,192,106000,1,0,0:0:0:90:10_B4_96.wav
256,192,106200,1,0,0:0:0:81:0_F#0_384.wav
182,192,106200,1,0,0:0:0:81:0_F#1_192.wav
475,192,106200,1,0,0:0:0:86:10_C#4_96.wav
182,192,106600,1,0,0:0:0:79:0_A#2_96.wav
329,192,106600,1,0,0:0:0:100:10_B4_96.wav
109,192,106700,1,0,0:0:0:80:0_C#2_96.wav
36,192,106800,1,0,0:0:0:78:0_F#1_96.wav
182,192,107000,1,0,0:0:0:96:0_A#2_96.wav
402,192,107000,1,0,0:0:0:97:10_C#5_96.wav
109,192,107100,1,0,0:0:0:77:0_C#2_96.wav
36,192,107200,1,0,0:0:0:82:0_F#1_96.wav
182,192,107400,1,0,0:0:0:100:0_A#2_96.wav
475,192,107400,1,0,0:0:0:100:10_D#5_96.wav
329,192,107600,1,0,0:0:0:77:0_F#1_96.wav
402,192,107600,1,0,0:0:0:77:10_B3_96.wav
182,192,107800,1,0,0:0:0:98:0_C#2_96.wav
256,192,107800,1,0,0:0:0:82:10_A#3_96.wav
182,192,108000,1,0,0:0:0:66:0_B2_96.wav
329,192,108000,1,0,0:0:0:58:10_D#3_96.wav
109,192,108000,1,0,0:0:0:93:0_G#1_96.wav
475,192,108000,1,0,0:0:0:81:10_B3_96.wav
256,192,108200,1,0,0:0:0:97:0_D#2_96.wav
109,192,108400,1,0,0:0:0:83:0_G#1_96.wav
475,192,108400,1,0,0:0:0:60:10_B3_96.wav
329,192,108500,1,0,0:0:0:70:0_D#3_96.wav
256,192,108600,1,0,0:0:0:95:0_D#2_96.wav
182,192,108600,1,0,0:0:0:63:0_B2_96.wav
329,192,108700,1,0,0:0:0:99:0_D#3_96.wav
109,192,108800,1,0,0:0:0:79:0_G#1_96.wav
402,192,108800,1,0,0:0:0:81:10_F#3_96.wav
329,192,108900,1,0,0:0:0:81:0_D#3_96.wav
256,192,109000,1,0,0:0:0:96:0_D#2_96.wav
182,192,109000,1,0,0:0:0:75:0_B2_96.wav
329,192,109100,1,0,0:0:0:92:0_D#3_96.wav
109,192,109200,1,0,0:0:0:85:0_G#1_96.wav
475,192,109200,1,0,0:0:0:92:10_B3_96.wav
36,192,109400,1,0,0:0:0:79:0_E1_96.wav
182,192,109400,1,0,0:0:0:77:0_B2_96.wav
402,192,109400,1,0,0:0:0:77:10_E3_96.wav
329,192,109400,1,0,0:0:0:77:0_G#2_96.wav
109,192,109800,1,0,0:0:0:94:0_B1_96.wav
475,192,109800,1,0,0:0:0:87:10_B3_96.wav
329,192,109900,1,0,0:0:0:74:0_E3_96.wav
36,192,110000,1,0,0:0:0:83:0_E1_96.wav
182,192,110000,1,0,0:0:0:68:0_B2_96.wav
329,192,110100,1,0,0:0:0:93:0_E3_96.wav
109,192,110200,1,0,0:0:0:94:0_B1_96.wav
402,192,110200,1,0,0:0:0:83:10_F#3_96.wav
329,192,110300,1,0,0:0:0:84:0_E3_96.wav
36,192,110400,1,0,0:0:0:83:0_E1_96.wav
182,192,110400,1,0,0:0:0:81:0_B2_96.wav
329,192,110500,1,0,0:0:0:100:0_E3_96.wav
109,192,110600,1,0,0:0:0:97:0_B1_96.wav
475,192,110600,1,0,0:0:0:91:10_B3_96.wav
36,192,110800,1,0,0:0:0:81:0_E1_96.wav
182,192,110800,1,0,0:0:0:82:0_B2_96.wav
256,192,111000,1,0,0:0:0:92:0_C#3_96.wav
329,192,111200,1,0,0:0:0:74:10_D#3_96.wav
36,192,111200,1,0,0:0:0:94:0_B1_96.wav
182,192,111200,1,0,0:0:0:74:0_B2_96.wav
109,192,111400,1,0,0:0:0:96:0_F#2_96.wav
36,192,111600,1,0,0:0:0:82:0_B1_96.wav
475,192,111600,1,0,0:0:0:87:10_B3_96.wav
329,192,111700,1,0,0:0:0:67:0_D#3_96.wav
109,192,111800,1,0,0:0:0:96:0_F#2_96.wav
182,192,111800,1,0,0:0:0:60:0_B2_96.wav
329,192,111900,1,0,0:0:0:94:0_D#3_96.wav
36,192,112000,1,0,0:0:0:81:0_B1_96.wav
402,192,112000,1,0,0:0:0:80:10_F#3_96.wav
329,192,112100,1,0,0:0:0:82:0_D#3_96.wav
109,192,112200,1,0,0:0:0:94:0_F#2_96.wav
182,192,112200,1,0,0:0:0:77:0_B2_96.wav
329,192,112300,1,0,0:0:0:96:0_D#3_96.wav
36,192,112400,1,0,0:0:0:82:0_B1_96.wav
475,192,112400,1,0,0:0:0:87:10_B3_96.wav
36,192,112600,1,0,0:0:0:82:0_F#1_96.wav
182,192,112600,1,0,0:0:0:72:0_A#2_96.wav
329,192,112600,1,0,0:0:0:72:0_C#3_96.wav
448,192,112600,1,0,0:0:0:64:10_C#4_96.wav
182,192,113000,1,0,0:0:0:97:0_C#2_96.wav
329,192,113000,1,0,0:0:0:81:10_B3_96.wav
256,192,113100,1,0,0:0:0:66:0_C#3_96.wav
36,192,113200,1,0,0:0:0:84:0_F#1_96.wav
109,192,113200,1,0,0:0:0:59:0_A#2_96.wav
256,192,113300,1,0,0:0:0:98:0_C#3_96.wav
182,192,113400,1,0,0:0:0:96:0_C#2_96.wav
402,192,113400,1,0,0:0:0:87:10_C#4_96.wav
256,192,113500,1,0,0:0:0:66:0_C#3_96.wav
36,192,113600,1,0,0:0:0:79:0_F#1_96.wav
109,192,113600,1,0,0:0:0:62:0_A#2_96.wav
256,192,113700,1,0,0:0:0:93:0_C#3_96.wav
36,192,113800,1,0,0:0:0:100:0_F#2_96.wav
475,192,113800,1,0,0:0:0:90:10_D#4_96.wav
256,192,114000,1,0,0:0:0:100:0_C#3_96.wav
329,192,114200,1,0,0:0:0:100:0_F#3_96.wav
36,192,114400,1,0,0:0:0:50:0_G#1_96.wav
402,192,114400,1,0,0:0:0:62:0_F#4_96.wav
475,192,114400,1,0,0:0:0:55:0_D#5_96.wav
109,192,114600,1,0,0:0:0:55:0_D#2_96.wav
182,192,114800,1,0,0:0:0:58:0_G#2_96.wav
402,192,114800,1,0,0:0:0:62:0_E4_96.wav
475,192,114800,1,0,0:0:0:55:0_C#5_96.wav
256,192,115000,1,0,0:0:0:59:0_B2_192.wav
329,192,115000,1,0,0:0:0:48:0_D#4_96.wav
402,192,115000,1,0,0:0:0:50:0_B4_96.wav
329,192,115400,1,0,0:0:0:51:0_D#4_96.wav
402,192,115400,1,0,0:0:0:51:0_B4_96.wav
402,192,115800,1,0,0:0:0:47:0_D#4_96.wav
475,192,115800,1,0,0:0:0:47:0_B4_96.wav
36,192,116000,1,0,0:0:0:48:0_D#1_96.wav
402,192,116000,1,0,0:0:0:49:0_D#4_96.wav
475,192,116000,1,0,0:0:0:49:0_B4_96.wav
109,192,116200,1,0,0:0:0:61:0_A#1_96.wav
182,192,116400,1,0,0:0:0:58:0_D#2_96.wav
402,192,116400,1,0,0:0:0:48:0_C#4_96.wav
329,192,116400,1,0,0:0:0:48:0_A#4_96.wav
256,192,116600,1,0,0:0:0:58:0_F#2_192.wav
402,192,116800,1,0,0:0:0:49:0_D#4_96.wav
475,192,116800,1,0,0:0:0:49:0_B4_96.wav
256,192,117200,1,0,0:0:0:54:0_E4_96.wav
475,192,117200,1,0,0:0:0:54:0_C#5_96.wav
36,192,117600,1,0,0:0:0:45:0_E1_96.wav
182,192,117600,1,0,0:0:0:46:0_D#4_96.wav
256,192,117600,1,0,0:0:0:46:0_B4_96.wav
109,192,117800,1,0,0:0:0:58:0_B1_96.wav
256,192,117800,1,0,0:0:0:49:0_E4_96.wav
329,192,117800,1,0,0:0:0:49:0_C#5_96.wav
182,192,118000,1,0,0:0:0:60:0_E2_96.wav
329,192,118000,1,0,0:0:0:54:0_F#4_96.wav
402,192,118000,1,0,0:0:0:54:0_D#5_96.wav
256,192,118200,1,0,0:0:0:59:0_G#2_192.wav
402,192,118200,1,0,0:0:0:55:0_G#4_96.wav
475,192,118200,1,0,0:0:0:55:0_E5_96.wav
329,192,118600,1,0,0:0:0:44:0_F#4_96.wav
402,192,118600,1,0,0:0:0:44:0_D#5_96.wav
256,192,118800,1,0,0:0:0:40:0_E4_96.wav
329,192,118800,1,0,0:0:0:40:0_C#5_96.wav
182,192,119000,1,0,0:0:0:47:0_D#4_192.wav
256,192,119000,1,0,0:0:0:47:0_B4_192.wav
36,192,119200,1,0,0:0:0:50:0_B1_96.wav
182,192,119400,1,0,0:0:0:59:0_F#2_96.wav
329,192,119600,1,0,0:0:0:61:0_B2_96.wav
475,192,119800,1,0,0:0:0:61:0_D#3_192.wav
329,192,120000,1,0,0:0:0:47:0_D#4_96.wav
402,192,120000,1,0,0:0:0:47:0_B4_96.wav
329,192,120200,1,0,0:0:0:49:0_D#4_96.wav
402,192,120200,1,0,0:0:0:49:0_B4_96.wav
329,192,120400,1,0,0:0:0:48:0_D#4_96.wav
402,192,120400,1,0,0:0:0:48:0_B4_96.wav
329,192,120600,1,0,0:0:0:50:0_D#4_96.wav
402,192,120600,1,0,0:0:0:50:0_B4_96.wav
36,192,120800,1,0,0:0:0:49:0_G#1_96.wav
109,192,121000,1,0,0:0:0:59:0_D#2_96.wav
329,192,121000,1,0,0:0:0:33:0_F#4_96.wav
402,192,121000,1,0,0:0:0:56:0_F#4_96.wav
448,192,121000,1,0,0:0:0:37:0_F#5_96.wav
182,192,121200,1,0,0:0:0:60:0_G#2_96.wav
256,192,121400,1,0,0:0:0:59:0_B2_192.wav
329,192,121600,1,0,0:0:0:38:0_D#4_96.wav
402,192,121600,1,0,0:0:0:38:0_B4_96.wav
329,192,121800,1,0,0:0:0:45:0_D#4_96.wav
402,192,121800,1,0,0:0:0:45:0_B4_96.wav
329,192,122000,1,0,0:0:0:50:0_D#4_96.wav
402,192,122000,1,0,0:0:0:50:0_B4_96.wav
256,192,122200,1,0,0:0:0:46:0_C#4_96.wav
329,192,122200,1,0,0:0:0:46:0_A#4_96.wav
36,192,122400,1,0,0:0:0:47:0_C#1_96.wav
109,192,122600,1,0,0:0:0:59:0_E2_96.wav
329,192,122600,1,0,0:0:0:50:0_D#4_96.wav
402,192,122600,1,0,0:0:0:50:0_B4_96.wav
182,192,122800,1,0,0:0:0:59:0_G#2_96.wav
375,192,122800,1,0,0:0:0:57:0_E4_96.wav
475,192,122800,1,0,0:0:0:57:0_E5_96.wav
256,192,123000,1,0,0:0:0:57:0_B2_192.wav
256,192,123400,1,0,0:0:0:47:0_F#4_96.wav
475,192,123400,1,0,0:0:0:47:0_D#5_96.wav
182,192,123600,1,0,0:0:0:41:0_E4_96.wav
402,192,123600,1,0,0:0:0:41:0_C#5_96.wav
329,192,123800,1,0,0:0:0:47:0_D#4_96.wav
109,192,123800,1,0,0:0:0:47:0_B4_96.wav
36,192,124000,1,0,0:0:0:44:0_F#1_96.wav
109,192,124200,1,0,0:0:0:58:0_C#2_96.wav
182,192,124400,1,0,0:0:0:58:0_F#2_96.wav
475,192,124400,1,0,0:0:0:48:0_D#4_96.wav
402,192,124400,1,0,0:0:0:48:0_B4_96.wav
256,192,124600,1,0,0:0:0:61:0_A#2_192.wav
402,192,124600,1,0,0:0:0:47:0_C#4_96.wav
329,192,124600,1,0,0:0:0:47:0_A#4_96.wav
109,192,125000,1,0,0:0:0:42:0_A#3_96.wav
329,192,125000,1,0,0:0:0:42:0_F#4_96.wav
182,192,125200,1,0,0:0:0:45:0_C#4_96.wav
402,192,125200,1,0,0:0:0:45:0_A#4_96.wav
256,192,125400,1,0,0:0:0:50:0_D#4_192.wav
475,192,125400,1,0,0:0:0:50:0_B4_192.wav
36,192,125600,1,0,0:0:0:47:0_B1_96.wav
109,192,125800,1,0,0:0:0:62:0_F#2_96.wav
182,192,126000,1,0,0:0:0:59:0_B2_96.wav
256,192,126200,1,0,0:0:0:62:0_D#3_192.wav
475,192,126400,1,0,0:0:0:48:10_C#4_96.wav
182,192,126800,1,0,0:0:0:42:10_B3_96.wav
109,192,127000,1,0,0:0:0:40:10_A3_96.wav
36,192,127200,1,0,0:0:0:59:0_F#1_96.wav
109,192,127400,1,0,0:0:0:71:0_E2_96.wav
256,192,127400,1,0,0:0:0:50:10_E4_96.wav
182,192,127600,1,0,0:0:0:72:0_A2_96.wav
256,192,127600,1,0,0:0:0:48:10_E4_96.wav
109,192,127800,1,0,0:0:0:59:0_E2_96.wav
329,192,127800,1,0,0:0:0:51:10_E5_96.wav
402,192,127900,1,0,0:0:0:66:10_B5_96.wav
36,192,128000,1,0,0:0:0:63:0_B1_96.wav
475,192,128000,1,0,0:0:0:66:10_E6_96.wav
402,192,128100,1,0,0:0:0:51:10_B5_96.wav
109,192,128200,1,0,0:0:0:70:0_F#2_96.wav
329,192,128200,1,0,0:0:0:46:10_E5_96.wav
182,192,128400,1,0,0:0:0:68:0_B2_96.wav
475,192,128400,1,0,0:0:0:57:10_E4_96.wav
109,192,128600,1,0,0:0:0:66:0_F#2_96.wav
402,192,128600,1,0,0:0:0:49:10_B3_96.wav
36,192,128800,1,0,0:0:0:59:0_E1_96.wav
109,192,128900,1,0,0:0:0:71:0_B1_96.wav
182,192,129000,1,0,0:0:0:69:0_E2_96.wav
402,192,129000,1,0,0:0:0:55:10_B3_96.wav
256,192,129100,1,0,0:0:0:74:0_B2_96.wav
329,192,129200,1,0,0:0:0:74:0_E3_96.wav
256,192,129300,1,0,0:0:0:62:0_B2_96.wav
329,192,129400,1,0,0:0:0:71:0_E3_96.wav
109,192,129400,1,0,0:0:0:59:10_C#4_96.wav
402,192,129500,1,0,0:0:0:80:0_B3_96.wav
475,192,129600,1,0,0:0:0:77:0_E4_96.wav
36,192,129600,1,0,0:0:0:52:10_B3_96.wav
402,192,129700,1,0,0:0:0:59:0_B3_96.wav
329,192,129800,1,0,0:0:0:55:0_E3_96.wav
256,192,129900,1,0,0:0:0:60:0_B2_96.wav
329,192,130000,1,0,0:0:0:74:0_E3_96.wav
109,192,130000,1,0,0:0:0:46:10_A3_96.wav
256,192,130100,1,0,0:0:0:61:0_B2_96.wav
182,192,130200,1,0,0:0:0:58:0_E2_96.wav
109,192,130200,1,0,0:0:0:55:10_A3_96.wav
36,192,130400,1,0,0:0:0:56:0_F#1_96.wav
109,192,130600,1,0,0:0:0:71:0_E2_96.wav
475,192,130600,1,0,0:0:0:51:10_E4_96.wav
36,192,130800,1,0,0:0:0:71:0_A2_96.wav
475,192,130800,1,0,0:0:0:49:10_E4_96.wav
109,192,131000,1,0,0:0:0:62:0_E2_96.wav
329,192,131000,1,0,0:0:0:53:10_E5_96.wav
402,192,131100,1,0,0:0:0:66:10_B5_96.wav
36,192,131200,1,0,0:0:0:62:0_B1_96.wav
475,192,131200,1,0,0:0:0:66:10_E6_96.wav
402,192,131300,1,0,0:0:0:53:10_B5_96.wav
182,192,131400,1,0,0:0:0:71:0_F#2_96.wav
329,192,131400,1,0,0:0:0:48:10_E5_96.wav
256,192,131600,1,0,0:0:0:70:0_B2_96.wav
475,192,131600,1,0,0:0:0:55:10_E4_96.wav
182,192,131800,1,0,0:0:0:64:0_F#2_96.wav
402,192,131800,1,0,0:0:0:46:10_B3_96.wav
36,192,132000,1,0,0:0:0:55:0_E1_96.wav
109,192,132100,1,0,0:0:0:71:0_B1_96.wav
182,192,132200,1,0,0:0:0:70:0_E2_96.wav
402,192,132200,1,0,0:0:0:55:10_B3_96.wav
256,192,132300,1,0,0:0:0:67:0_B2_96.wav
329,192,132400,1,0,0:0:0:72:0_E3_96.wav
256,192,132500,1,0,0:0:0:64:0_B2_96.wav
329,192,132600,1,0,0:0:0:73:0_E3_96.wav
182,192,132600,1,0,0:0:0:60:10_C#4_96.wav
402,192,132700,1,0,0:0:0:77:0_B3_96.wav
475,192,132800,1,0,0:0:0:79:0_E4_96.wav
109,192,132800,1,0,0:0:0:54:10_B3_96.wav
402,192,132900,1,0,0:0:0:61:0_B3_96.wav
329,192,133000,1,0,0:0:0:56:0_E3_96.wav
256,192,133100,1,0,0:0:0:60:0_B2_96.wav
329,192,133200,1,0,0:0:0:76:0_E3_96.wav
36,192,133200,1,0,0:0:0:51:10_A3_96.wav
229,192,133300,1,0,0:0:0:64:0_B2_96.wav
182,192,133400,1,0,0:0:0:60:0_E2_96.wav
36,192,133400,1,0,0:0:0:55:10_A3_96.wav
109,192,133600,1,0,0:0:0:57:0_F#1_96.wav
182,192,133800,1,0,0:0:0:73:0_E2_96.wav
475,192,133800,1,0,0:0:0:50:10_E4_96.wav
256,192,134000,1,0,0:0:0:68:0_A2_96.wav
475,192,134000,1,0,0:0:0:46:10_E4_96.wav
182,192,134200,1,0,0:0:0:59:0_E2_96.wav
329,192,134200,1,0,0:0:0:51:10_E5_96.wav
402,192,134300,1,0,0:0:0:66:10_B5_96.wav
83,192,134400,1,0,0:0:0:62:0_B1_96.wav
475,192,134400,1,0,0:0:0:66:10_E6_96.wav
402,192,134500,1,0,0:0:0:52:10_B5_96.wav
36,192,134600,1,0,0:0:0:70:0_F#2_96.wav
329,192,134600,1,0,0:0:0:48:10_E5_96.wav
182,192,134800,1,0,0:0:0:71:0_B2_96.wav
329,192,134800,1,0,0:0:0:58:10_E4_96.wav
109,192,135000,1,0,0:0:0:61:0_F#2_96.wav
256,192,135000,1,0,0:0:0:51:10_B3_96.wav
36,192,135200,1,0,0:0:0:55:0_E1_96.wav
109,192,135300,1,0,0:0:0:68:0_B1_96.wav
182,192,135400,1,0,0:0:0:68:0_E2_96.wav
36,192,135400,1,0,0:0:0:54:10_B3_96.wav
256,192,135500,1,0,0:0:0:72:0_B2_96.wav
329,192,135600,1,0,0:0:0:74:0_E3_96.wav
256,192,135700,1,0,0:0:0:66:0_B2_96.wav
329,192,135800,1,0,0:0:0:74:0_E3_96.wav
109,192,135800,1,0,0:0:0:57:10_C#4_96.wav
402,192,135900,1,0,0:0:0:77:0_B3_96.wav
475,192,136000,1,0,0:0:0:77:0_E4_96.wav
36,192,136000,1,0,0:0:0:47:10_B3_96.wav
402,192,136100,1,0,0:0:0:55:0_B3_96.wav
329,192,136200,1,0,0:0:0:48:0_E3_96.wav
256,192,136300,1,0,0:0:0:59:0_B2_96.wav
182,192,136400,1,0,0:0:0:60:0_E2_96.wav
475,192,136400,1,0,0:0:0:66:10_E4_96.wav
36,192,136600,1,0,0:0:0:58:0_E1_96.wav
36,192,136800,1,0,0:0:0:87:0_B0_96.wav
109,192,136800,1,0,0:0:0:87:0_B1_96.wav
475,192,136800,1,0,0:0:0:48:10_D5_96.wav
402,192,136800,1,0,0:0:0:86:0_D5_96.wav
182,192,137000,1,0,0:0:0:69:0_D2_96.wav
256,192,137000,1,0,0:0:0:54:0_D4_96.wav
402,192,137200,1,0,0:0:0:46:10_C#5_96.wav
475,192,137200,1,0,0:0:0:81:0_C#5_96.wav
256,192,137400,1,0,0:0:0:58:0_C#4_96.wav
182,192,137400,1,0,0:0:0:73:0_B2_96.wav
36,192,137600,1,0,0:0:0:93:0_C#2_96.wav
475,192,137600,1,0,0:0:0:49:10_B4_96.wav
402,192,137600,1,0,0:0:0:87:0_B4_96.wav
109,192,137800,1,0,0:0:0:69:0_E2_96.wav
256,192,137800,1,0,0:0:0:59:0_B3_96.wav
475,192,138000,1,0,0:0:0:46:10_A4_96.wav
402,192,138000,1,0,0:0:0:81:0_A4_96.wav
256,192,138200,1,0,0:0:0:58:0_A3_96.wav
109,192,138200,1,0,0:0:0:77:0_E2_96.wav
36,192,138400,1,0,0:0:0:91:0_D2_96.wav
402,192,138400,1,0,0:0:0:51:10_E5_96.wav
475,192,138400,1,0,0:0:0:91:0_E5_96.wav
182,192,138600,1,0,0:0:0:70:0_D3_96.wav
256,192,138600,1,0,0:0:0:63:0_E4_96.wav
475,192,138800,1,0,0:0:0:51:10_D5_96.wav
402,192,138800,1,0,0:0:0:91:0_D5_96.wav
256,192,139000,1,0,0:0:0:62:0_D4_96.wav
182,192,139000,1,0,0:0:0:77:0_D3_96.wav
36,192,139200,1,0,0:0:0:90:0_E2_96.wav
402,192,139200,1,0,0:0:0:49:10_C#5_96.wav
475,192,139200,1,0,0:0:0:88:0_C#5_96.wav
256,192,139400,1,0,0:0:0:55:0_C#4_96.wav
109,192,139400,1,0,0:0:0:67:0_G#2_96.wav
402,192,139600,1,0,0:0:0:44:10_B4_96.wav
475,192,139600,1,0,0:0:0:79:0_B4_96.wav
256,192,139800,1,0,0:0:0:79:0_E3_96.wav
109,192,139800,1,0,0:0:0:79:0_G#2_96.wav
36,192,140000,1,0,0:0:0:67:0_F#1_96.wav
402,192,140000,1,0,0:0:0:53:10_A3_96.wav
475,192,140000,1,0,0:0:0:75:0_A3_96.wav
182,192,140000,1,0,0:0:0:62:0_E4_96.wav
109,192,140200,1,0,0:0:0:79:0_C#2_96.wav
182,192,140400,1,0,0:0:0:82:0_F#2_96.wav
36,192,140600,1,0,0:0:0:91:0_C#3_96.wav
182,192,140800,1,0,0:0:0:90:0_F#3_96.wav
402,192,140800,1,0,0:0:0:67:10_F#5_96.wav
475,192,140800,1,0,0:0:0:67:10_F#6_96.wav
36,192,141000,1,0,0:0:0:66:0_C#3_96.wav
182,192,141200,1,0,0:0:0:85:0_F#3_96.wav
329,192,141200,1,0,0:0:0:50:10_B4_96.wav
402,192,141200,1,0,0:0:0:50:10_B5_96.wav
36,192,141400,1,0,0:0:0:93:0_C#4_96.wav
402,192,141600,1,0,0:0:0:59:10_C#5_96.wav
475,192,141600,1,0,0:0:0:59:10_C#6_96.wav
256,192,141600,1,0,0:0:0:88:0_F#4_96.wav
36,192,141800,1,0,0:0:0:65:0_C#4_96.wav
182,192,142000,1,0,0:0:0:62:0_F#3_96.wav
329,192,142000,1,0,0:0:0:43:10_E5_96.wav
256,192,142000,1,0,0:0:0:43:10_E4_96.wav
36,192,142200,1,0,0:0:0:66:0_C#3_96.wav
256,192,142400,1,0,0:0:0:85:0_F#3_96.wav
329,192,142400,1,0,0:0:0:58:10_F#4_96.wav
402,192,142400,1,0,0:0:0:58:10_F#5_96.wav
36,192,142600,1,0,0:0:0:64:0_C#3_96.wav
109,192,142800,1,0,0:0:0:70:0_F#2_96.wav
182,192,142800,1,0,0:0:0:55:10_B3_96.wav
256,192,142800,1,0,0:0:0:55:10_B4_96.wav
10,192,143000,1,0,0:0:0:70:0_C#2_96.wav
329,192,143200,1,0,0:0:0:72:10_C#4_384.wav
402,192,143200,1,0,0:0:0:72:0_F#4_288.wav
256,192,143200,1,0,0:0:0:72:0_A#4_288.wav
475,192,143200,1,0,0:0:0:72:10_C#5_384.wav
36,192,143400,1,0,0:0:0:77:0_C#2_96.wav
109,192,143600,1,0,0:0:0:79:0_F#2_96.wav
182,192,143800,1,0,0:0:0:92:0_C#3_96.wav
256,192,144000,1,0,0:0:0:90:0_F#3_96.wav
329,192,144200,1,0,0:0:0:66:0_C#3_96.wav
256,192,144400,1,0,0:0:0:88:0_F#3_96.wav
402,192,144600,1,0,0:0:0:88:0_C#4_96.wav
36,192,144800,1,0,0:0:0:62:10_G#4_96.wav
182,192,144800,1,0,0:0:0:99:0_G#4_96.wav
109,192,144800,1,0,0:0:0:62:10_G#5_96.wav
475,192,144800,1,0,0:0:0:99:0_G#5_96.wav
402,192,144900,1,0,0:0:0:89:0_D#5_96.wav
329,192,145000,1,0,0:0:0:70:0_C#5_96.wav
256,192,145100,1,0,0:0:0:59:0_G#4_96.wav
182,192,145200,1,0,0:0:0:66:0_D#4_96.wav
109,192,145300,1,0,0:0:0:64:0_C#4_96.wav
36,192,145400,1,0,0:0:0:66:0_G#3_96.wav
109,192,145500,1,0,0:0:0:73:0_C#4_96.wav
329,192,145600,1,0,0:0:0:88:0_G3_96.wav
448,192,145600,1,0,0:0:0:88:0_A#3_96.wav
256,192,145600,1,0,0:0:0:88:0_D#4_96.wav
402,192,145600,1,0,0:0:0:67:10_G4_96.wav
182,192,145600,1,0,0:0:0:88:0_G4_96.wav
109,192,146400,1,0,0:0:0:78:0_G#1_96.wav
402,192,146400,1,0,0:0:0:87:0_F#3_96.wav
475,192,146400,1,0,0:0:0:87:0_B3_96.wav
36,192,146400,1,0,0:0:0:78:0_G#0_384.wav
182,192,146600,1,0,0:0:0:80:0_G#1_288.wav
256,192,146800,1,0,0:0:0:96:0_D#2_96.wav
402,192,147000,1,0,0:0:0:98:0_B2_96.wav
329,192,147000,1,0,0:0:0:98:0_G#2_96.wav
256,192,147400,1,0,0:0:0:77:0_D#2_96.wav
475,192,147600,1,0,0:0:0:100:0_D#3_96.wav
329,192,147600,1,0,0:0:0:100:0_G#2_96.wav
402,192,147600,1,0,0:0:0:100:0_B2_96.wav
475,192,147800,1,0,0:0:0:74:0_D#3_96.wav
10,192,148000,1,0,0:0:0:83:0_E0_384.wav
109,192,148000,1,0,0:0:0:83:0_E1_96.wav
182,192,148200,1,0,0:0:0:83:0_E1_288.wav
256,192,148250,1,0,0:0:0:83:0_D#3_96.wav
329,192,148300,1,0,0:0:0:83:0_G#3_96.wav
402,192,148350,1,0,0:0:0:83:0_B3_96.wav
182,192,148400,1,0,0:0:0:100:0_E2_96.wav
475,192,148400,1,0,0:0:0:83:0_D#4_96.wav
402,192,148600,1,0,0:0:0:87:0_B2_96.wav
329,192,148600,1,0,0:0:0:87:0_G#2_96.wav
182,192,149000,1,0,0:0:0:86:0_E2_96.wav
402,192,149200,1,0,0:0:0:89:0_E3_96.wav
329,192,149200,1,0,0:0:0:89:0_B2_96.wav
36,192,149600,1,0,0:0:0:90:0_F#0_384.wav
109,192,149600,1,0,0:0:0:90:0_F#1_96.wav
182,192,149800,1,0,0:0:0:77:0_F#1_288.wav
256,192,150000,1,0,0:0:0:100:0_F#2_96.wav
402,192,150200,1,0,0:0:0:89:0_C#3_96.wav
329,192,150200,1,0,0:0:0:89:0_A#2_96.wav
256,192,150600,1,0,0:0:0:85:0_F#2_96.wav
402,192,150800,1,0,0:0:0:89:0_C#3_96.wav
475,192,150800,1,0,0:0:0:89:0_F#3_96.wav
36,192,151200,1,0,0:0:0:95:0_B0_96.wav
109,192,151200,1,0,0:0:0:95:0_B1_96.wav
36,192,151400,1,0,0:0:0:77:0_B0_96.wav
109,192,151400,1,0,0:0:0:77:0_B1_96.wav
256,192,151600,1,0,0:0:0:97:0_F#2_96.wav
329,192,151600,1,0,0:0:0:97:0_B2_96.wav
475,192,151800,1,0,0:0:0:81:0_D#3_96.wav
36,192,152000,1,0,0:0:0:85:0_A#0_96.wav
109,192,152000,1,0,0:0:0:85:0_A#1_96.wav
402,192,152000,1,0,0:0:0:85:0_C#3_96.wav
109,192,152200,1,0,0:0:0:77:0_A#0_96.wav
36,192,152200,1,0,0:0:0:81:0_A#1_96.wav
256,192,152200,1,0,0:0:0:97:0_F#2_96.wav
256,192,152400,1,0,0:0:0:100:0_F#2_96.wav
182,192,152400,1,0,0:0:0:100:0_A#2_96.wav
329,192,152600,1,0,0:0:0:85:0_C#3_96.wav
256,192,152800,1,0,0:0:0:97:0_B2_96.wav
402,192,152800,1,0,0:0:0:88:0_F#3_96.wav
475,192,152800,1,0,0:0:0:88:0_B3_96.wav
36,192,152800,1,0,0:0:0:88:0_G#1_96.wav
36,192,153000,1,0,0:0:0:80:0_G#1_288.wav
109,192,153200,1,0,0:0:0:91:0_D#2_96.wav
256,192,153400,1,0,0:0:0:96:0_B2_96.wav
182,192,153400,1,0,0:0:0:96:0_G#2_96.wav
109,192,153800,1,0,0:0:0:81:0_D#2_96.wav
182,192,154000,1,0,0:0:0:100:0_G#2_96.wav
256,192,154000,1,0,0:0:0:100:0_B2_96.wav
448,192,154000,1,0,0:0:0:100:0_D#3_96.wav
475,192,154200,1,0,0:0:0:78:0_D#3_96.wav
36,192,154400,1,0,0:0:0:81:0_E0_384.wav
109,192,154400,1,0,0:0:0:81:0_E1_96.wav
182,192,154600,1,0,0:0:0:79:0_E1_288.wav
256,192,154650,1,0,0:0:0:87:0_D#3_96.wav
329,192,154700,1,0,0:0:0:87:0_G#3_96.wav
402,192,154750,1,0,0:0:0:87:0_B3_96.wav
182,192,154800,1,0,0:0:0:99:0_E2_96.wav
475,192,154800,1,0,0:0:0:83:0_D#4_96.wav
329,192,155000,1,0,0:0:0:100:0_G#2_96.wav
402,192,155000,1,0,0:0:0:100:0_B2_96.wav
182,192,155400,1,0,0:0:0:82:0_E2_96.wav
475,192,155600,1,0,0:0:0:100:0_E3_96.wav
402,192,155600,1,0,0:0:0:100:0_B2_96.wav
36,192,156000,1,0,0:0:0:91:0_F#0_384.wav
109,192,156000,1,0,0:0:0:91:0_F#1_96.wav
182,192,156200,1,0,0:0:0:82:0_F#1_288.wav
256,192,156400,1,0,0:0:0:100:0_F#2_96.wav
329,192,156600,1,0,0:0:0:100:0_A#2_96.wav
475,192,156600,1,0,0:0:0:100:0_F#3_96.wav
402,192,156600,1,0,0:0:0:100:0_C#3_96.wav
256,192,157000,1,0,0:0:0:83:0_F#2_96.wav
402,192,157200,1,0,0:0:0:100:0_C#3_96.wav
475,192,157200,1,0,0:0:0:100:0_F#3_96.wav
36,192,157600,1,0,0:0:0:80:0_B0_96.wav
109,192,157600,1,0,0:0:0:80:0_B1_96.wav
402,192,157600,1,0,0:0:0:86:10_D#4_96.wav
36,192,157800,1,0,0:0:0:77:0_B0_96.wav
109,192,157800,1,0,0:0:0:84:0_B1_96.wav
475,192,157800,1,0,0:0:0:86:10_E4_96.wav
109,192,158000,1,0,0:0:0:100:0_D#2_96.wav
182,192,158000,1,0,0:0:0:100:0_F#2_96.wav
256,192,158000,1,0,0:0:0:100:0_B2_96.wav
402,192,158000,1,0,0:0:0:82:10_D#4_96.wav
36,192,158200,1,0,0:0:0:86:0_A#0_96.wav
182,192,158200,1,0,0:0:0:86:0_A#1_96.wav
329,192,158200,1,0,0:0:0:71:10_C#4_96.wav
36,192,158400,1,0,0:0:0:77:0_A#0_192.wav
182,192,158400,1,0,0:0:0:77:0_A#1_192.wav
109,192,158600,1,0,0:0:0:80:0_C#2_96.wav
402,192,158600,1,0,0:0:0:76:10_D#4_96.wav
182,192,158800,1,0,0:0:0:96:0_F#2_96.wav
329,192,158800,1,0,0:0:0:73:10_C#4_96.wav
256,192,159000,1,0,0:0:0:66:10_B3_96.wav
475,192,159200,1,0,0:0:0:65:10_B4_96.wav
329,192,159300,1,0,0:0:0:55:10_F#4_96.wav
36,192,159400,1,0,0:0:0:59:10_D#4_96.wav
329,192,159500,1,0,0:0:0:72:10_F#4_96.wav
475,192,159600,1,0,0:0:0:72:10_B4_96.wav
329,192,159700,1,0,0:0:0:55:10_F#4_96.wav
36,192,159800,1,0,0:0:0:60:10_D#4_96.wav
329,192,159900,1,0,0:0:0:70:10_F#4_96.wav
475,192,160000,1,0,0:0:0:72:10_B4_96.wav
329,192,160100,1,0,0:0:0:55:10_F#4_96.wav
36,192,160200,1,0,0:0:0:60:10_D#4_96.wav
329,192,160300,1,0,0:0:0:71:10_F#4_96.wav
475,192,160400,1,0,0:0:0:72:10_B4_96.wav
329,192,160500,1,0,0:0:0:55:10_F#4_96.wav
36,192,160600,1,0,0:0:0:55:10_D#4_96.wav
329,192,160700,1,0,0:0:0:70:10_F#4_96.wav
475,192,160800,1,0,0:0:0:72:10_B4_96.wav
329,192,160900,1,0,0:0:0:55:10_F#4_96.wav
182,192,161000,1,0,0:0:0:59:10_E4_96.wav
329,192,161100,1,0,0:0:0:70:10_F#4_96.wav
475,192,161200,1,0,0:0:0:72:10_B4_96.wav
329,192,161300,1,0,0:0:0:56:10_F#4_96.wav
182,192,161400,1,0,0:0:0:61:10_E4_96.wav
329,192,161500,1,0,0:0:0:66:10_F#4_96.wav
475,192,161600,1,0,0:0:0:71:10_B4_96.wav
329,192,161700,1,0,0:0:0:59:10_F#4_96.wav
182,192,161800,1,0,0:0:0:59:10_E4_96.wav
329,192,161900,1,0,0:0:0:70:10_F#4_96.wav
475,192,162000,1,0,0:0:0:72:10_B4_96.wav
329,192,162100,1,0,0:0:0:58:10_F#4_96.wav
182,192,162200,1,0,0:0:0:60:10_E4_96.wav
329,192,162300,1,0,0:0:0:71:10_F#4_96.wav
475,192,162400,1,0,0:0:0:72:10_B4_96.wav
329,192,162500,1,0,0:0:0:54:10_F#4_96.wav
36,192,162600,1,0,0:0:0:58:10_D#4_96.wav
329,192,162700,1,0,0:0:0:70:10_F#4_96.wav
475,192,162800,1,0,0:0:0:72:10_B4_96.wav
329,192,162900,1,0,0:0:0:57:10_F#4_96.wav
36,192,163000,1,0,0:0:0:59:10_D#4_96.wav
329,192,163100,1,0,0:0:0:67:10_F#4_96.wav
475,192,163200,1,0,0:0:0:72:10_B4_96.wav
329,192,163300,1,0,0:0:0:60:10_F#4_96.wav
36,192,163400,1,0,0:0:0:56:10_D#4_96.wav
329,192,163500,1,0,0:0:0:67:10_F#4_96.wav
475,192,163600,1,0,0:0:0:72:10_B4_96.wav
329,192,163700,1,0,0:0:0:58:10_F#4_96.wav
36,192,163800,1,0,0:0:0:56:10_D#4_96.wav
329,192,163900,1,0,0:0:0:69:10_F#4_96.wav
36,192,164000,1,0,0:0:0:77:0_F#1_96.wav
109,192,164000,1,0,0:0:0:77:0_F#2_96.wav
36,192,164200,1,0,0:0:0:80:0_F#1_96.wav
109,192,164200,1,0,0:0:0:80:0_F#2_96.wav
329,192,164400,1,0,0:0:0:100:0_C#3_96.wav
402,192,164400,1,0,0:0:0:100:0_F#3_96.wav
256,192,164600,1,0,0:0:0:67:10_A#3_96.wav
36,192,164800,1,0,0:0:0:87:0_G1_96.wav
109,192,164800,1,0,0:0:0:87:0_G2_96.wav
256,192,164800,1,0,0:0:0:59:10_A#3_96.wav
36,192,165000,1,0,0:0:0:80:0_G1_96.wav
109,192,165000,1,0,0:0:0:81:0_G2_96.wav
402,192,165200,1,0,0:0:0:100:0_D#3_96.wav
475,192,165200,1,0,0:0:0:100:0_G3_96.wav
36,192,165600,1,0,0:0:0:100:0_G#1_384.wav
256,192,165600,1,0,0:0:0:100:0_G#2_96.wav
182,192,165800,1,0,0:0:0:79:0_D#2_96.wav
256,192,166000,1,0,0:0:0:94:0_G#2_192.wav
329,192,166200,1,0,0:0:0:96:0_B2_96.wav
256,192,166600,1,0,0:0:0:87:0_G#2_96.wav
329,192,166800,1,0,0:0:0:100:0_B2_96.wav
402,192,166800,1,0,0:0:0:100:0_D#3_96.wav
36,192,167200,1,0,0:0:0:85:0_C#1_384.wav
256,192,167200,1,0,0:0:0:85:0_C#2_96.wav
109,192,167400,1,0,0:0:0:77:0_G#1_96.wav
329,192,167450,1,0,0:0:0:88:0_F3_96.wav
402,192,167500,1,0,0:0:0:88:0_G#3_96.wav
475,192,167550,1,0,0:0:0:88:0_B3_96.wav
182,192,167600,1,0,0:0:0:94:0_C#2_192.wav
329,192,167800,1,0,0:0:0:99:0_G#2_96.wav
256,192,167800,1,0,0:0:0:99:0_F2_96.wav
182,192,168200,1,0,0:0:0:81:0_C#2_96.wav
402,192,168400,1,0,0:0:0:100:0_C#3_96.wav
256,192,168400,1,0,0:0:0:100:0_F2_96.wav
329,192,168400,1,0,0:0:0:100:0_G#2_96.wav
36,192,168800,1,0,0:0:0:82:0_A0_384.wav
109,192,168800,1,0,0:0:0:82:0_A1_96.wav
182,192,168900,1,0,0:0:0:80:0_E1_96.wav
256,192,169000,1,0,0:0:0:93:0_A1_96.wav
329,192,169100,1,0,0:0:0:94:0_C#2_96.wav
36,192,169200,1,0,0:0:0:83:0_A1_288.wav
402,192,169200,1,0,0:0:0:63:10_C#3_96.wav
475,192,169200,1,0,0:0:0:63:10_E3_96.wav
109,192,169300,1,0,0:0:0:97:0_C#2_96.wav
182,192,169400,1,0,0:0:0:95:0_E2_96.wav
256,192,169500,1,0,0:0:0:98:0_A2_96.wav
109,192,169600,1,0,0:0:0:81:0_C#2_96.wav
329,192,169600,1,0,0:0:0:77:10_E3_96.wav
475,192,169600,1,0,0:0:0:77:10_A3_96.wav
182,192,169700,1,0,0:0:0:88:0_E2_96.wav
256,192,169800,1,0,0:0:0:94:0_A2_96.wav
329,192,169900,1,0,0:0:0:98:0_C#3_96.wav
36,192,170000,1,0,0:0:0:81:0_E2_96.wav
402,192,170000,1,0,0:0:0:79:10_C#4_96.wav
475,192,170000,1,0,0:0:0:79:10_A3_96.wav
109,192,170100,1,0,0:0:0:92:0_A2_96.wav
182,192,170200,1,0,0:0:0:98:0_C#3_96.wav
256,192,170300,1,0,0:0:0:96:0_E3_96.wav
475,192,170400,1,0,0:0:0:78:10_C#4_96.wav
109,192,170400,1,0,0:0:0:84:0_A2_96.wav
329,192,170400,1,0,0:0:0:78:10_E4_96.wav
182,192,170500,1,0,0:0:0:96:0_C#3_96.wav
256,192,170600,1,0,0:0:0:100:0_E3_96.wav
329,192,170700,1,0,0:0:0:100:0_A3_96.wav
475,192,170800,1,0,0:0:0:78:10_E4_96.wav
402,192,170800,1,0,0:0:0:78:10_A4_96.wav
329,192,170900,1,0,0:0:0:82:0_A3_96.wav
256,192,171000,1,0,0:0:0:73:0_E3_96.wav
182,192,171100,1,0,0:0:0:80:0_C#3_96.wav
402,192,171200,1,0,0:0:0:65:10_A4_96.wav
475,192,171200,1,0,0:0:0:62:10_C#5_96.wav
109,192,171200,1,0,0:0:0:84:0_A2_96.wav
36,192,171300,1,0,0:0:0:85:0_E2_96.wav
256,192,171400,1,0,0:0:0:78:0_A1_96.wav
182,192,171500,1,0,0:0:0:80:0_E1_96.wav
109,192,171600,1,0,0:0:0:78:0_A0_96.wav
329,192,171600,1,0,0:0:0:74:10_A3_96.wav
36,192,172000,1,0,0:0:0:68:0_D1_96.wav
475,192,172000,1,0,0:0:0:44:10_F#4_96.wav
109,192,172200,1,0,0:0:0:71:0_A1_96.wav
475,192,172200,1,0,0:0:0:47:10_F#4_96.wav
256,192,172400,1,0,0:0:0:70:0_E2_96.wav
475,192,172400,1,0,0:0:0:47:10_F#4_96.wav
329,192,172600,1,0,0:0:0:70:0_F#2_96.wav
475,192,172600,1,0,0:0:0:48:10_F#4_96.wav
182,192,172800,1,0,0:0:0:66:0_D2_96.wav
475,192,172800,1,0,0:0:0:47:10_F#4_96.wav
109,192,173000,1,0,0:0:0:69:0_A2_96.wav
475,192,173000,1,0,0:0:0:47:10_F#4_96.wav
36,192,173200,1,0,0:0:0:59:0_D2_96.wav
475,192,173200,1,0,0:0:0:48:10_F#4_96.wav
182,192,173400,1,0,0:0:0:85:0_E3_96.wav
475,192,173400,1,0,0:0:0:47:10_F#4_96.wav
256,192,173600,1,0,0:0:0:72:0_F#3_96.wav
475,192,173600,1,0,0:0:0:48:10_F#4_96.wav
182,192,173800,1,0,0:0:0:59:0_D3_96.wav
475,192,173800,1,0,0:0:0:47:10_F#4_96.wav
109,192,174000,1,0,0:0:0:61:0_A2_96.wav
475,192,174000,1,0,0:0:0:49:10_F#4_96.wav
36,192,174200,1,0,0:0:0:59:0_D2_96.wav
475,192,174200,1,0,0:0:0:48:10_F#4_96.wav
182,192,174400,1,0,0:0:0:82:0_D3_96.wav
402,192,174400,1,0,0:0:0:52:10_D4_96.wav
109,192,174600,1,0,0:0:0:65:0_A2_96.wav
402,192,174600,1,0,0:0:0:55:10_D4_96.wav
36,192,174800,1,0,0:0:0:59:0_D2_96.wav
402,192,174800,1,0,0:0:0:53:10_D4_96.wav
182,192,175000,1,0,0:0:0:73:0_A2_96.wav
402,192,175000,1,0,0:0:0:55:10_D4_96.wav
36,192,175200,1,0,0:0:0:56:0_C#1_96.wav
475,192,175200,1,0,0:0:0:53:10_E4_96.wav
109,192,175400,1,0,0:0:0:69:0_A1_96.wav
475,192,175400,1,0,0:0:0:47:10_E4_96.wav
182,192,175600,1,0,0:0:0:70:0_C#2_96.wav
475,192,175600,1,0,0:0:0:48:10_E4_96.wav
256,192,175800,1,0,0:0:0:68:0_E2_96.wav
475,192,175800,1,0,0:0:0:48:10_E4_96.wav
109,192,176000,1,0,0:0:0:62:0_C#2_96.wav
475,192,176000,1,0,0:0:0:49:10_E4_96.wav
36,192,176200,1,0,0:0:0:72:0_A2_96.wav
475,192,176200,1,0,0:0:0:49:10_E4_96.wav
109,192,176400,1,0,0:0:0:62:0_C#2_96.wav
475,192,176400,1,0,0:0:0:48:10_E4_96.wav
182,192,176600,1,0,0:0:0:85:0_C#3_96.wav
475,192,176600,1,0,0:0:0:48:10_E4_96.wav
256,192,176800,1,0,0:0:0:77:0_E3_96.wav
475,192,176800,1,0,0:0:0:48:10_E4_96.wav
182,192,177000,1,0,0:0:0:62:0_C#3_96.wav
475,192,177000,1,0,0:0:0:47:10_E4_96.wav
109,192,177200,1,0,0:0:0:62:0_A2_96.wav
475,192,177200,1,0,0:0:0:49:10_E4_96.wav
36,192,177400,1,0,0:0:0:60:0_E2_96.wav
475,192,177400,1,0,0:0:0:48:10_E4_96.wav
182,192,177600,1,0,0:0:0:79:0_C#3_96.wav
329,192,177600,1,0,0:0:0:49:10_C#4_96.wav
109,192,177800,1,0,0:0:0:64:0_A2_96.wav
329,192,177800,1,0,0:0:0:53:10_C#4_96.wav
36,192,178000,1,0,0:0:0:66:0_E2_96.wav
329,192,178000,1,0,0:0:0:55:10_C#4_96.wav
109,192,178200,1,0,0:0:0:68:0_A2_96.wav
329,192,178200,1,0,0:0:0:53:10_C#4_96.wav
36,192,178400,1,0,0:0:0:59:0_E1_96.wav
402,192,178400,1,0,0:0:0:53:10_E4_96.wav
109,192,178600,1,0,0:0:0:70:0_E2_96.wav
402,192,178600,1,0,0:0:0:49:10_E4_96.wav
182,192,178800,1,0,0:0:0:69:0_A2_96.wav
402,192,178800,1,0,0:0:0:48:10_E4_96.wav
109,192,179000,1,0,0:0:0:68:0_B2_96.wav
402,192,179000,1,0,0:0:0:50:10_E4_96.wav
36,192,179200,1,0,0:0:0:60:0_E2_96.wav
402,192,179200,1,0,0:0:0:48:10_E4_96.wav
182,192,179400,1,0,0:0:0:85:0_E3_96.wav
402,192,179400,1,0,0:0:0:47:10_E4_96.wav
36,192,179600,1,0,0:0:0:64:0_E2_96.wav
402,192,179600,1,0,0:0:0:51:10_E4_96.wav
109,192,179800,1,0,0:0:0:81:0_F#3_96.wav
402,192,179800,1,0,0:0:0:48:10_E4_96.wav
182,192,180000,1,0,0:0:0:67:0_G#3_96.wav
402,192,180000,1,0,0:0:0:49:10_E4_96.wav
182,192,180200,1,0,0:0:0:61:0_E3_96.wav
402,192,180200,1,0,0:0:0:49:10_E4_96.wav
109,192,180400,1,0,0:0:0:64:0_B2_96.wav
402,192,180400,1,0,0:0:0:49:10_E4_96.wav
36,192,180600,1,0,0:0:0:59:0_E2_96.wav
402,192,180600,1,0,0:0:0:48:10_E4_96.wav
182,192,180800,1,0,0:0:0:83:0_E3_96.wav
402,192,180800,1,0,0:0:0:56:10_E4_96.wav
475,192,180800,1,0,0:0:0:56:10_E5_96.wav
109,192,181000,1,0,0:0:0:65:0_B2_96.wav
109,192,181200,1,0,0:0:0:64:0_E2_96.wav
402,192,181200,1,0,0:0:0:63:10_A4_96.wav
475,192,181200,1,0,0:0:0:63:10_A5_96.wav
256,192,181400,1,0,0:0:0:74:0_B2_96.wav
329,192,181600,1,0,0:0:0:51:10_B5_96.wav
109,192,181700,1,0,0:0:0:62:10_F#5_96.wav
36,192,181800,1,0,0:0:0:55:10_D5_96.wav
109,192,181900,1,0,0:0:0:67:10_F#5_96.wav
256,192,182000,1,0,0:0:0:48:10_A5_96.wav
109,192,182100,1,0,0:0:0:59:10_F#5_96.wav
329,192,182200,1,0,0:0:0:48:10_B5_96.wav
109,192,182300,1,0,0:0:0:62:10_F#5_96.wav
36,192,182400,1,0,0:0:0:55:10_D5_96.wav
109,192,182500,1,0,0:0:0:66:10_F#5_96.wav
402,192,182600,1,0,0:0:0:53:10_C#6_96.wav
109,192,182700,1,0,0:0:0:64:10_F#5_96.wav
36,192,182800,1,0,0:0:0:58:10_D5_96.wav
109,192,182900,1,0,0:0:0:65:10_F#5_96.wav
256,192,183000,1,0,0:0:0:40:10_A5_96.wav
402,192,183100,1,0,0:0:0:68:10_E6_96.wav
475,192,183200,1,0,0:0:0:71:10_A6_96.wav
402,192,183300,1,0,0:0:0:61:10_E6_96.wav
329,192,183400,1,0,0:0:0:62:10_D6_96.wav
256,192,183500,1,0,0:0:0:57:10_A5_96.wav
256,192,183600,1,0,0:0:0:64:10_A5_96.wav
182,192,183700,1,0,0:0:0:57:10_E5_96.wav
109,192,183800,1,0,0:0:0:62:10_D5_96.wav
36,192,183900,1,0,0:0:0:51:10_A4_96.wav
182,192,184000,1,0,0:0:0:40:10_E5_96.wav
109,192,184100,1,0,0:0:0:62:10_D5_96.wav
36,192,184200,1,0,0:0:0:54:10_A4_96.wav
109,192,184300,1,0,0:0:0:70:10_D5_96.wav
256,192,184400,1,0,0:0:0:47:10_A5_96.wav
109,192,184500,1,0,0:0:0:58:10_D5_96.wav
36,192,184600,1,0,0:0:0:47:10_A4_96.wav
109,192,184700,1,0,0:0:0:70:10_D5_96.wav
329,192,184800,1,0,0:0:0:48:10_B5_96.wav
182,192,184900,1,0,0:0:0:62:10_E5_96.wav
36,192,185000,1,0,0:0:0:51:10_C#5_96.wav
182,192,185100,1,0,0:0:0:68:10_E5_96.wav
256,192,185200,1,0,0:0:0:46:10_A5_96.wav
182,192,185300,1,0,0:0:0:63:10_E5_96.wav
329,192,185400,1,0,0:0:0:49:10_B5_96.wav
182,192,185500,1,0,0:0:0:63:10_E5_96.wav
36,192,185600,1,0,0:0:0:59:10_C#5_96.wav
182,192,185700,1,0,0:0:0:70:10_E5_96.wav
402,192,185800,1,0,0:0:0:52:10_C#6_96.wav
182,192,185900,1,0,0:0:0:61:10_E5_96.wav
36,192,186000,1,0,0:0:0:52:10_C#5_96.wav
182,192,186100,1,0,0:0:0:63:10_E5_96.wav
256,192,186200,1,0,0:0:0:42:10_A5_96.wav
402,192,186300,1,0,0:0:0:59:10_E6_96.wav
475,192,186400,1,0,0:0:0:63:10_A6_96.wav
402,192,186500,1,0,0:0:0:63:10_E6_96.wav
329,192,186600,1,0,0:0:0:57:10_B5_96.wav
256,192,186700,1,0,0:0:0:63:10_A5_96.wav
256,192,186800,1,0,0:0:0:71:10_A5_96.wav
182,192,186900,1,0,0:0:0:62:10_E5_96.wav
109,192,187000,1,0,0:0:0:60:10_B4_96.wav
36,192,187100,1,0,0:0:0:62:10_A4_96.wav
182,192,187200,1,0,0:0:0:38:10_E5_96.wav
109,192,187300,1,0,0:0:0:59:10_B4_96.wav
36,192,187400,1,0,0:0:0:53:10_A4_96.wav
109,192,187500,1,0,0:0:0:70:10_B4_96.wav
256,192,187600,1,0,0:0:0:63:10_A5_96.wav
36,192,187600,1,0,0:0:0:48:0_C#2_96.wav
83,192,187800,1,0,0:0:0:58:0_A2_96.wav
402,192,188000,1,0,0:0:0:80:0_F#5_288.wav
329,192,188000,1,0,0:0:0:80:0_C#5_288.wav
256,192,188000,1,0,0:0:0:80:0_A#4_288.wav
475,192,188000,1,0,0:0:0:80:0_A#5_288.wav
36,192,188200,1,0,0:0:0:82:0_C#2_96.wav
182,192,188400,1,0,0:0:0:47:10_A#2_96.wav
256,192,188500,1,0,0:0:0:50:10_C#3_96.wav
329,192,188600,1,0,0:0:0:53:10_E3_96.wav
402,192,188700,1,0,0:0:0:57:10_F#3_96.wav
475,192,188800,1,0,0:0:0:57:10_A#3_96.wav
36,192,188900,1,0,0:0:0:58:10_C#4_96.wav
109,192,189000,1,0,0:0:0:59:10_E4_96.wav
182,192,189100,1,0,0:0:0:60:10_F#4_96.wav
256,192,189200,1,0,0:0:0:60:10_A#4_96.wav
329,192,189300,1,0,0:0:0:62:10_C#5_96.wav
402,192,189400,1,0,0:0:0:63:10_E5_96.wav
475,192,189500,1,0,0:0:0:67:10_F#5_96.wav
182,192,189600,1,0,0:0:0:97:0_A#4_288.wav
256,192,189600,1,0,0:0:0:97:0_C#5_288.wav
36,192,189600,1,0,0:0:0:97:0_A#5_288.wav
83,192,189600,1,0,0:0:0:97:0_E5_288.wav
36,192,189800,1,0,0:0:0:81:0_C#2_96.wav
182,192,190000,1,0,0:0:0:45:10_A#2_96.wav
256,192,190100,1,0,0:0:0:45:10_C#3_96.wav
329,192,190200,1,0,0:0:0:45:10_E3_96.wav
402,192,190300,1,0,0:0:0:48:10_F#3_96.wav
475,192,190400,1,0,0:0:0:49:10_A#3_96.wav
36,192,190500,1,0,0:0:0:50:10_C#4_96.wav
109,192,190600,1,0,0:0:0:52:10_E4_96.wav
182,192,190700,1,0,0:0:0:55:10_F#4_96.wav
256,192,190800,1,0,0:0:0:55:10_A#4_96.wav
329,192,190900,1,0,0:0:0:57:10_C#5_96.wav
402,192,191000,1,0,0:0:0:62:10_E5_96.wav
475,192,191100,1,0,0:0:0:62:10_F#5_96.wav
36,192,191200,1,0,0:0:0:81:0_A#4_288.wav
83,192,191200,1,0,0:0:0:81:0_C#5_288.wav
182,192,191200,1,0,0:0:0:81:0_A#5_288.wav
256,192,191200,1,0,0:0:0:81:0_D#5_288.wav
36,192,191400,1,0,0:0:0:79:0_A#1_96.wav
182,192,191600,1,0,0:0:0:51:10_A#2_96.wav
256,192,191700,1,0,0:0:0:51:10_C#3_96.wav
329,192,191800,1,0,0:0:0:55:10_D#3_96.wav
402,192,191900,1,0,0:0:0:58:10_G3_96.wav
475,192,192000,1,0,0:0:0:58:10_A#3_96.wav
36,192,192100,1,0,0:0:0:58:10_C#4_96.wav
109,192,192200,1,0,0:0:0:58:10_D#4_96.wav
182,192,192300,1,0,0:0:0:60:10_G4_96.wav
256,192,192400,1,0,0:0:0:62:10_A#4_96.wav
329,192,192500,1,0,0:0:0:66:10_C#5_96.wav
402,192,192600,1,0,0:0:0:67:10_D#5_96.wav
475,192,192700,1,0,0:0:0:70:10_G5_96.wav
402,192,192800,1,0,0:0:0:57:10_A#5_96.wav
329,192,192900,1,0,0:0:0:45:10_D#5_96.wav
256,192,193000,1,0,0:0:0:73:10_C#5_96.wav
182,192,193100,1,0,0:0:0:62:10_A#4_96.wav
182,192,193200,1,0,0:0:0:66:10_A#4_96.wav
109,192,193300,1,0,0:0:0:60:10_D#4_96.wav
36,192,193400,1,0,0:0:0:62:10_C#4_96.wav
475,192,193500,1,0,0:0:0:57:10_A#3_96.wav
475,192,193600,1,0,0:0:0:62:10_A#3_96.wav
402,192,193700,1,0,0:0:0:57:10_D#3_96.wav
329,192,193800,1,0,0:0:0:55:10_C#3_96.wav
256,192,193900,1,0,0:0:0:53:10_A#2_96.wav
256,192,194000,1,0,0:0:0:53:10_A#2_96.wav
182,192,194100,1,0,0:0:0:51:10_D#2_96.wav
109,192,194200,1,0,0:0:0:49:10_C#2_96.wav
36,192,194300,1,0,0:0:0:49:10_A#1_96.wav
182,192,194400,1,0,0:0:0:76:0_D#1_864.wav
329,192,194600,1,0,0:0:0:37:10_D#2_96.wav
256,192,194600,1,0,0:0:0:92:0_D#2_96.wav
402,192,194800,1,0,0:0:0:47:10_G#2_96.wav
329,192,194800,1,0,0:0:0:88:0_G#2_96.wav
475,192,195000,1,0,0:0:0:55:10_A#2_96.wav
402,192,195000,1,0,0:0:0:88:0_A#2_96.wav
36,192,195250,1,0,0:0:0:78:0_D#3_96.wav
109,192,195250,1,0,0:0:0:65:10_D#3_96.wav
256,192,195500,1,0,0:0:0:70:0_G#3_96.wav
182,192,195500,1,0,0:0:0:73:10_G#3_96.wav
402,192,195800,1,0,0:0:0:63:0_A#3_96.wav
329,192,195800,1,0,0:0:0:85:10_A#3_96.wav
475,192,196152,1,0,0:0:0:57:0_D#4_96.wav
402,192,196152,1,0,0:0:0:88:10_D#4_96.wav
10,192,196552,1,0,0:0:0:89:0_D#0_480.wav
83,192,196552,1,0,0:0:0:71:0_D#6_480.wav
156,192,196552,1,0,0:0:0:71:0_D#5_480.wav
448,192,196552,1,0,0:0:0:71:10_D#6_480.wav
375,192,196552,1,0,0:0:0:71:10_D#5_480.wav
182,192,199443,1,0,0:0:0:48:0_G#1_384.wav
302,192,199443,1,0,0:0:0:48:0_D#2_384.wav
36,192,199443,1,0,0:0:0:48:0_B2_384.wav
475,192,199443,1,0,0:0:0:41:0_B3_384.wav
109,192,201529,1,0,0:0:0:53:0_E1_384.wav
256,192,201529,1,0,0:0:0:53:0_G#2_384.wav
402,192,201529,1,0,0:0:0:53:0_B1_384.wav
182,192,203616,1,0,0:0:0:60:0_C#2_384.wav
302,192,203616,1,0,0:0:0:60:0_F#1_288.wav
475,192,203616,1,0,0:0:0:60:0_A#2_288.wav
36,192,205442,1,0,0:0:0:60:0_A#2_96.wav
256,192,205442,1,0,0:0:0:60:0_F#1_96.wav
83,192,205703,1,0,0:0:0:67:0_D#3_192.wav
182,192,205703,1,0,0:0:0:46:0_F#2_192.wav
302,192,205703,1,0,0:0:0:46:0_B2_192.wav
402,192,205703,1,0,0:0:0:46:0_B1_192.wav
256,192,206747,1,0,0:0:0:48:0_A#2_192.wav
182,192,206747,1,0,0:0:0:48:0_A#1_192.wav
475,192,206747,1,0,0:0:0:48:0_F#2_192.wav
402,192,206747,1,0,0:0:0:81:0_C#3_192.wav
10,192,207790,1,0,0:0:0:43:0_G#1_96.wav
182,192,208051,1,0,0:0:0:52:0_D#2_96.wav
329,192,208312,1,0,0:0:0:51:0_G#2_96.wav
402,192,208573,1,0,0:0:0:49:0_B2_192.wav
109,192,209877,1,0,0:0:0:43:0_E1_96.wav
229,192,210138,1,0,0:0:0:47:0_B1_96.wav
402,192,210399,1,0,0:0:0:49:0_E2_96.wav
475,192,210660,1,0,0:0:0:49:0_G#2_192.wav
402,192,211964,1,0,0:0:0:37:10_F#1_768.wav
109,192,211964,1,0,0:0:0:40:0_F#1_768.wav
182,192,212225,1,0,0:0:0:43:0_C#2_96.wav
475,192,212225,1,0,0:0:0:30:10_C#2_96.wav
329,192,212486,1,0,0:0:0:32:10_F#2_96.wav
36,192,212486,1,0,0:0:0:46:0_F#2_96.wav
109,192,212747,1,0,0:0:0:37:0_B2_96.wav
402,192,212747,1,0,0:0:0:34:10_B2_96.wav
475,192,213008,1,0,0:0:0:40:10_C#3_96.wav
182,192,213008,1,0,0:0:0:44:0_C#3_96.wav
256,192,213269,1,0,0:0:0:40:10_E3_96.wav
329,192,213529,1,0,0:0:0:45:10_F#3_96.wav
402,192,213790,1,0,0:0:0:45:10_B3_96.wav
36,192,214051,1,0,0:0:0:43:0_F#2_384.wav
182,192,214138,1,0,0:0:0:43:0_C#3_288.wav
329,192,214225,1,0,0:0:0:43:10_A#3_288.wav
475,192,214312,1,0,0:0:0:43:10_C#4_288.wav
402,192,216399,1,0,0:0:0:44:10_B4_96.wav
448,192,216921,1,0,0:0:0:47:10_C#5_96.wav
402,192,217247,1,0,0:0:0:48:10_B4_96.wav
329,192,217573,1,0,0:0:0:45:10_A#4_96.wav
402,192,217899,1,0,0:0:0:51:10_B4_384.wav
182,192,218304,1,0,0:0:0:23:0_B2_96.wav
256,192,218544,1,0,0:0:0:30:0_D#3_96.wav
329,192,218784,1,0,0:0:0:33:0_F#3_96.wav
475,192,219024,1,0,0:0:0:41:0_B3_96.wav
182,192,219264,1,0,0:0:0:24:0_B2_96.wav
256,192,219504,1,0,0:0:0:25:0_D#3_96.wav
329,192,219744,1,0,0:0:0:34:0_F#3_96.wav
475,192,219984,1,0,0:0:0:40:0_B3_96.wav
182,192,220224,1,0,0:0:0:24:0_B2_96.wav
256,192,220464,1,0,0:0:0:28:0_D#3_96.wav
329,192,220704,1,0,0:0:0:33:0_F#3_96.wav
475,192,220944,1,0,0:0:0:40:0_B3_96.wav
182,192,221184,1,0,0:0:0:26:0_B2_96.wav
256,192,221424,1,0,0:0:0:28:0_D#3_96.wav
329,192,221664,1,0,0:0:0:34:0_F#3_96.wav
475,192,221904,1,0,0:0:0:39:0_B3_96.wav
109,192,222144,1,0,0:0:0:27:0_G#2_96.wav
256,192,222384,1,0,0:0:0:34:0_D#3_96.wav
329,192,222624,1,0,0:0:0:35:0_F#3_96.wav
475,192,222864,1,0,0:0:0:45:0_B3_96.wav
109,192,223104,1,0,0:0:0:28:0_G#2_96.wav
256,192,223344,1,0,0:0:0:31:0_D#3_96.wav
329,192,223584,1,0,0:0:0:33:0_F#3_96.wav
475,192,223824,1,0,0:0:0:38:0_B3_96.wav
109,192,224064,1,0,0:0:0:27:0_G#2_96.wav
256,192,224304,1,0,0:0:0:31:0_D#3_96.wav
329,192,224544,1,0,0:0:0:37:0_F#3_96.wav
475,192,224784,1,0,0:0:0:42:0_B3_96.wav
109,192,225024,1,0,0:0:0:30:0_G#2_96.wav
256,192,225264,1,0,0:0:0:34:0_D#3_96.wav
329,192,225504,1,0,0:0:0:35:0_F#3_96.wav
475,192,225744,1,0,0:0:0:38:0_B3_96.wav
36,192,225984,1,0,0:0:0:29:0_E2_96.wav
182,192,226224,1,0,0:0:0:31:0_B2_96.wav
329,192,226464,1,0,0:0:0:37:0_F#3_96.wav
475,192,226704,1,0,0:0:0:46:0_B3_96.wav
36,192,226944,1,0,0:0:0:27:0_E2_96.wav
156,192,227184,1,0,0:0:0:29:0_B2_96.wav
329,192,227424,1,0,0:0:0:35:0_F#3_96.wav
475,192,227664,1,0,0:0:0:41:0_B3_96.wav
36,192,227904,1,0,0:0:0:27:0_E2_96.wav
182,192,228144,1,0,0:0:0:28:0_B2_96.wav
329,192,228384,1,0,0:0:0:36:0_F#3_96.wav
475,192,228624,1,0,0:0:0:41:0_B3_96.wav
36,192,228864,1,0,0:0:0:23:0_E2_96.wav
182,192,229104,1,0,0:0:0:25:0_B2_96.wav
329,192,229344,1,0,0:0:0:36:0_F#3_96.wav
475,192,229584,1,0,0:0:0:40:0_B3_96.wav
109,192,229824,1,0,0:0:0:25:0_F#2_96.wav
256,192,230064,1,0,0:0:0:30:0_C#3_96.wav
329,192,230304,1,0,0:0:0:33:0_F#3_96.wav
475,192,230544,1,0,0:0:0:38:0_B3_96.wav
109,192,230784,1,0,0:0:0:25:0_F#2_96.wav
256,192,231024,1,0,0:0:0:28:0_C#3_96.wav
329,192,231264,1,0,0:0:0:33:0_F#3_96.wav
475,192,231504,1,0,0:0:0:39:0_B3_96.wav
109,192,231744,1,0,0:0:0:27:0_F#2_96.wav
256,192,231984,1,0,0:0:0:33:0_C#3_96.wav
329,192,232224,1,0,0:0:0:37:0_F#3_96.wav
402,192,232464,1,0,0:0:0:42:0_A#3_96.wav
36,192,232704,1,0,0:0:0:25:0_F#2_96.wav
109,192,232944,1,0,0:0:0:37:10_C#3_96.wav
182,192,232944,1,0,0:0:0:31:0_C#3_96.wav
256,192,233184,1,0,0:0:0:34:0_F#3_96.wav
329,192,233184,1,0,0:0:0:30:10_D#4_96.wav
402,192,233424,1,0,0:0:0:36:0_A#3_96.wav
448,192,233424,1,0,0:0:0:44:10_F#4_96.wav
36,192,233664,1,0,0:0:0:58:0_B1_96.wav
256,192,233664,1,0,0:0:0:55:10_B3_192.wav
402,192,233664,1,0,0:0:0:55:10_D#4_192.wav
475,192,233664,1,0,0:0:0:55:10_F#4_192.wav
109,192,233824,1,0,0:0:0:59:0_F#2_96.wav
182,192,233984,1,0,0:0:0:72:0_B2_96.wav
256,192,234144,1,0,0:0:0:78:0_C#3_96.wav
329,192,234304,1,0,0:0:0:70:0_D#3_96.wav
402,192,234464,1,0,0:0:0:73:0_F#3_96.wav
36,192,234624,1,0,0:0:0:58:0_B1_96.wav
109,192,234784,1,0,0:0:0:65:0_F#2_96.wav
256,192,234944,1,0,0:0:0:49:10_B3_96.wav
182,192,234944,1,0,0:0:0:68:0_B2_96.wav
256,192,235104,1,0,0:0:0:72:0_C#3_96.wav
329,192,235104,1,0,0:0:0:59:10_C#4_96.wav
329,192,235264,1,0,0:0:0:70:0_D#3_96.wav
402,192,235264,1,0,0:0:0:62:10_D#4_96.wav
475,192,235424,1,0,0:0:0:71:10_B4_96.wav
402,192,235424,1,0,0:0:0:76:0_F#3_96.wav
10,192,235584,1,0,0:0:0:58:0_B1_96.wav
182,192,235584,1,0,0:0:0:71:10_B3_192.wav
256,192,235584,1,0,0:0:0:71:10_D#4_192.wav
329,192,235584,1,0,0:0:0:71:10_A#4_192.wav
109,192,235744,1,0,0:0:0:64:0_F#2_96.wav
182,192,235904,1,0,0:0:0:70:0_B2_96.wav
256,192,236064,1,0,0:0:0:77:0_C#3_96.wav
329,192,236224,1,0,0:0:0:72:0_D#3_96.wav
402,192,236384,1,0,0:0:0:77:0_F#3_96.wav
10,192,236544,1,0,0:0:0:58:0_B1_96.wav
109,192,236704,1,0,0:0:0:62:0_F#2_96.wav
182,192,236864,1,0,0:0:0:71:0_B2_96.wav
475,192,236864,1,0,0:0:0:51:10_G#4_96.wav
36,192,237024,1,0,0:0:0:77:0_C#3_96.wav
402,192,237024,1,0,0:0:0:46:10_F#4_96.wav
109,192,237184,1,0,0:0:0:70:0_D#3_96.wav
329,192,237184,1,0,0:0:0:54:10_D#4_96.wav
182,192,237344,1,0,0:0:0:77:0_F#3_96.wav
256,192,237344,1,0,0:0:0:43:10_B3_96.wav
329,192,237504,1,0,0:0:0:60:10_C#4_96.wav
402,192,237584,1,0,0:0:0:60:10_D#4_96.wav
329,192,237664,1,0,0:0:0:60:10_C#4_96.wav
402,192,237744,1,0,0:0:0:60:10_D#4_96.wav
329,192,237824,1,0,0:0:0:60:10_C#4_96.wav
402,192,237904,1,0,0:0:0:60:10_D#4_96.wav
329,192,237984,1,0,0:0:0:60:10_C#4_96.wav
402,192,238064,1,0,0:0:0:60:10_D#4_96.wav
329,192,238144,1,0,0:0:0:60:10_C#4_96.wav
402,192,238224,1,0,0:0:0:60:10_D#4_96.wav
329,192,238304,1,0,0:0:0:60:10_C#4_96.wav
402,192,238384,1,0,0:0:0:60:10_D#4_96.wav
329,192,238464,1,0,0:0:0:60:10_C#4_96.wav
329,192,238824,1,0,0:0:0:57:10_B3_96.wav
402,192,238864,1,0,0:0:0:57:10_C#4_96.wav
329,192,238904,1,0,0:0:0:57:10_B3_96.wav
256,192,238944,1,0,0:0:0:57:10_A#3_96.wav
329,192,239064,1,0,0:0:0:63:10_B3_96.wav
402,192,239184,1,0,0:0:0:60:10_C#4_96.wav
475,192,239304,1,0,0:0:0:70:10_F#4_96.wav
36,192,239424,1,0,0:0:0:59:0_G#1_96.wav
329,192,239424,1,0,0:0:0:55:10_B3_192.wav
256,192,239424,1,0,0:0:0:55:10_D#4_192.wav
109,192,239584,1,0,0:0:0:62:0_D#2_96.wav
182,192,239744,1,0,0:0:0:66:0_G#2_96.wav
256,192,239904,1,0,0:0:0:70:0_B2_96.wav
329,192,240064,1,0,0:0:0:72:0_C#3_96.wav
402,192,240224,1,0,0:0:0:80:0_D#3_96.wav
36,192,240384,1,0,0:0:0:58:0_G#1_96.wav
109,192,240544,1,0,0:0:0:59:0_D#2_96.wav
182,192,240704,1,0,0:0:0:70:0_G#2_96.wav
256,192,240704,1,0,0:0:0:51:10_B3_96.wav
256,192,240864,1,0,0:0:0:76:0_B2_96.wav
329,192,240864,1,0,0:0:0:54:10_C#4_96.wav
329,192,241024,1,0,0:0:0:69:0_C#3_96.wav
402,192,241024,1,0,0:0:0:63:10_D#4_96.wav
475,192,241184,1,0,0:0:0:66:10_F#4_96.wav
402,192,241184,1,0,0:0:0:73:0_D#3_96.wav
36,192,241344,1,0,0:0:0:59:0_E1_96.wav
182,192,241344,1,0,0:0:0:60:10_B3_192.wav
256,192,241344,1,0,0:0:0:60:10_D#4_192.wav
329,192,241344,1,0,0:0:0:60:10_F#4_192.wav
109,192,241504,1,0,0:0:0:63:0_B1_96.wav
182,192,241664,1,0,0:0:0:68:0_E2_96.wav
256,192,241824,1,0,0:0:0:74:0_F#2_96.wav
329,192,241984,1,0,0:0:0:67:0_G#2_96.wav
402,192,242144,1,0,0:0:0:70:0_B2_96.wav
36,192,242304,1,0,0:0:0:50:10_A#3_96.wav
475,192,242304,1,0,0:0:0:59:0_E1_96.wav
109,192,242384,1,0,0:0:0:48:10_B3_96.wav
182,192,242464,1,0,0:0:0:60:10_C#4_96.wav
256,192,242544,1,0,0:0:0:65:10_D#4_96.wav
329,192,242624,1,0,0:0:0:60:10_E4_96.wav
402,192,242704,1,0,0:0:0:64:10_F#4_96.wav
475,192,242784,1,0,0:0:0:62:10_G#4_96.wav
36,192,242864,1,0,0:0:0:63:10_A#4_96.wav
109,192,242944,1,0,0:0:0:60:10_B4_96.wav
182,192,243024,1,0,0:0:0:66:10_C#5_96.wav
256,192,243104,1,0,0:0:0:62:10_D#5_96.wav
329,192,243184,1,0,0:0:0:64:10_E5_96.wav
402,192,243264,1,0,0:0:0:65:10_F#5_96.wav
475,192,243264,1,0,0:0:0:53:0_E1_96.wav
109,192,243344,1,0,0:0:0:65:10_B5_96.wav
329,192,243424,1,0,0:0:0:49:10_E5_96.wav
36,192,243504,1,0,0:0:0:70:10_A#5_96.wav
256,192,243584,1,0,0:0:0:50:10_D#5_96.wav
475,192,243664,1,0,0:0:0:66:10_G#5_96.wav
182,192,243744,1,0,0:0:0:48:10_C#5_96.wav
402,192,243824,1,0,0:0:0:66:10_F#5_96.wav
109,192,243904,1,0,0:0:0:52:10_B4_96.wav
329,192,243984,1,0,0:0:0:66:10_E5_96.wav
36,192,244064,1,0,0:0:0:48:10_A#4_96.wav
256,192,244144,1,0,0:0:0:63:10_D#5_96.wav
475,192,244224,1,0,0:0:0:50:10_G#4_96.wav
182,192,244304,1,0,0:0:0:65:10_C#5_96.wav
402,192,244384,1,0,0:0:0:50:10_F#4_96.wav
109,192,244464,1,0,0:0:0:64:10_B4_96.wav
329,192,244544,1,0,0:0:0:50:10_E4_96.wav
36,192,244624,1,0,0:0:0:68:10_A#4_96.wav
256,192,244704,1,0,0:0:0:50:10_D#4_96.wav
475,192,244784,1,0,0:0:0:63:10_G#4_96.wav
182,192,244864,1,0,0:0:0:48:10_C#4_96.wav
402,192,244944,1,0,0:0:0:66:10_F#4_96.wav
109,192,245024,1,0,0:0:0:51:10_B3_96.wav
329,192,245104,1,0,0:0:0:66:10_E4_96.wav
256,192,245184,1,0,0:0:0:66:10_D#4_96.wav
182,192,245264,1,0,0:0:0:52:10_C#4_96.wav
109,192,245344,1,0,0:0:0:55:10_B3_96.wav
36,192,245424,1,0,0:0:0:58:10_A#3_96.wav
475,192,245504,1,0,0:0:0:50:10_G#3_96.wav
402,192,245584,1,0,0:0:0:53:10_F#3_96.wav
329,192,245664,1,0,0:0:0:59:10_E3_96.wav
256,192,245724,1,0,0:0:0:44:10_E3_96.wav
182,192,245784,1,0,0:0:0:60:10_F#3_96.wav
109,192,245844,1,0,0:0:0:65:10_G#3_96.wav
36,192,245904,1,0,0:0:0:66:10_A#3_96.wav
109,192,245964,1,0,0:0:0:61:10_B3_96.wav
182,192,246024,1,0,0:0:0:62:10_C#4_96.wav
256,192,246084,1,0,0:0:0:65:10_D#4_96.wav
329,192,246144,1,0,0:0:0:74:10_E4_96.wav
36,192,246144,1,0,0:0:0:56:0_F#1_96.wav
256,192,246224,1,0,0:0:0:57:10_D#4_96.wav
182,192,246304,1,0,0:0:0:53:10_C#4_96.wav
109,192,246384,1,0,0:0:0:55:10_B3_96.wav
36,192,246464,1,0,0:0:0:52:10_A#3_96.wav
329,192,246544,1,0,0:0:0:51:10_G#3_96.wav
475,192,246624,1,0,0:0:0:51:10_F#3_96.wav
475,192,246704,1,0,0:0:0:42:10_F#3_96.wav
329,192,246784,1,0,0:0:0:63:10_G#3_96.wav
36,192,246804,1,0,0:0:0:61:10_A#3_96.wav
109,192,246864,1,0,0:0:0:65:10_B3_96.wav
182,192,246924,1,0,0:0:0:63:10_C#4_96.wav
256,192,246984,1,0,0:0:0:61:10_D#4_96.wav
329,192,247044,1,0,0:0:0:62:10_E4_96.wav
36,192,247104,1,0,0:0:0:68:0_F#1_96.wav
182,192,247224,1,0,0:0:0:71:0_C#2_96.wav
329,192,247344,1,0,0:0:0:81:0_F#2_96.wav
475,192,247464,1,0,0:0:0:85:0_A#2_96.wav
36,192,247584,1,0,0:0:0:67:0_F#1_96.wav
182,192,247704,1,0,0:0:0:73:0_C#2_96.wav
329,192,247824,1,0,0:0:0:77:0_F#2_96.wav
475,192,247944,1,0,0:0:0:81:0_A#2_96.wav
36,192,248064,1,0,0:0:0:64:0_F#1_96.wav
182,192,248184,1,0,0:0:0:71:0_C#2_96.wav
329,192,248304,1,0,0:0:0:81:0_F#2_96.wav
475,192,248424,1,0,0:0:0:82:0_A#2_96.wav
36,192,248544,1,0,0:0:0:73:0_F#1_96.wav
36,192,249024,1,0,0:0:0:89:0_G#1_192.wav
182,192,249024,1,0,0:0:0:84:10_B4_96.wav
475,192,249024,1,0,0:0:0:84:10_B5_96.wav
256,192,249184,1,0,0:0:0:81:0_D#2_96.wav
402,192,249184,1,0,0:0:0:81:0_D#3_96.wav
109,192,249344,1,0,0:0:0:75:0_C#2_96.wav
256,192,249344,1,0,0:0:0:75:0_C#3_96.wav
36,192,249504,1,0,0:0:0:70:10_F#3_96.wav
182,192,249504,1,0,0:0:0:70:10_B3_96.wav
329,192,249504,1,0,0:0:0:70:10_D#4_96.wav
402,192,249664,1,0,0:0:0:88:0_B2_96.wav
256,192,249664,1,0,0:0:0:88:0_B1_96.wav
109,192,249824,1,0,0:0:0:88:0_A#1_96.wav
256,192,249824,1,0,0:0:0:88:0_A#2_96.wav
36,192,249984,1,0,0:0:0:81:10_A#3_96.wav
182,192,249984,1,0,0:0:0:81:10_D#4_96.wav
475,192,249984,1,0,0:0:0:81:10_A#4_96.wav
402,192,250144,1,0,0:0:0:79:0_F#1_96.wav
256,192,250144,1,0,0:0:0:79:0_F#2_96.wav
256,192,250304,1,0,0:0:0:85:0_E1_96.wav
83,192,250304,1,0,0:0:0:85:0_E2_96.wav
329,192,250464,1,0,0:0:0:81:10_B3_96.wav
10,192,250464,1,0,0:0:0:81:10_D#4_96.wav
448,192,250464,1,0,0:0:0:81:10_F#4_96.wav
256,192,250624,1,0,0:0:0:85:0_C#1_96.wav
402,192,250624,1,0,0:0:0:85:0_C#2_96.wav
109,192,250784,1,0,0:0:0:82:0_B0_96.wav
256,192,250784,1,0,0:0:0:82:0_B1_96.wav
10,192,250944,1,0,0:0:0:80:0_E0_288.wav
182,192,250944,1,0,0:0:0:80:0_E1_288.wav
256,192,251104,1,0,0:0:0:78:0_E2_96.wav
402,192,251104,1,0,0:0:0:78:0_E3_96.wav
109,192,251264,1,0,0:0:0:74:0_D#2_96.wav
256,192,251264,1,0,0:0:0:74:0_D#3_96.wav
182,192,251424,1,0,0:0:0:75:10_A#3_96.wav
10,192,251424,1,0,0:0:0:75:10_F#4_96.wav
329,192,251424,1,0,0:0:0:75:10_A#4_96.wav
402,192,251584,1,0,0:0:0:92:0_C#2_96.wav
256,192,251584,1,0,0:0:0:92:0_C#3_96.wav
109,192,251744,1,0,0:0:0:88:0_B1_96.wav
256,192,251744,1,0,0:0:0:88:0_B2_96.wav
36,192,251904,1,0,0:0:0:77:10_B3_96.wav
475,192,251904,1,0,0:0:0:77:10_F#4_96.wav
182,192,251904,1,0,0:0:0:77:10_B4_96.wav
256,192,252064,1,0,0:0:0:84:0_G#1_96.wav
402,192,252064,1,0,0:0:0:84:0_G#2_96.wav
109,192,252224,1,0,0:0:0:86:0_F#1_96.wav
256,192,252224,1,0,0:0:0:86:0_F#2_96.wav
36,192,252384,1,0,0:0:0:86:10_C#4_96.wav
329,192,252384,1,0,0:0:0:86:10_E4_96.wav
475,192,252384,1,0,0:0:0:86:10_F#4_96.wav
402,192,252544,1,0,0:0:0:86:0_D#1_96.wav
256,192,252544,1,0,0:0:0:86:0_D#2_96.wav
256,192,252704,1,0,0:0:0:84:0_C#1_96.wav
83,192,252704,1,0,0:0:0:84:0_C#2_96.wav
36,192,252864,1,0,0:0:0:98:0_B0_288.wav
182,192,252864,1,0,0:0:0:98:0_B1_96.wav
256,192,253024,1,0,0:0:0:78:0_D#2_96.wav
402,192,253024,1,0,0:0:0:78:0_D#3_96.wav
109,192,253184,1,0,0:0:0:72:0_C#2_96.wav
256,192,253184,1,0,0:0:0:72:0_C#3_96.wav
182,192,253344,1,0,0:0:0:73:10_B3_96.wav
36,192,253344,1,0,0:0:0:73:10_D#4_96.wav
329,192,253344,1,0,0:0:0:73:10_F#4_96.wav
256,192,253504,1,0,0:0:0:86:0_B1_192.wav
402,192,253504,1,0,0:0:0:86:0_B2_96.wav
109,192,253664,1,0,0:0:0:86:0_A#1_96.wav
256,192,253664,1,0,0:0:0:86:0_A#2_96.wav
36,192,253824,1,0,0:0:0:74:10_C#4_96.wav
182,192,253824,1,0,0:0:0:74:10_F#4_96.wav
448,192,253824,1,0,0:0:0:74:10_C#5_96.wav
256,192,253984,1,0,0:0:0:83:0_F#1_96.wav
402,192,253984,1,0,0:0:0:83:0_F#2_96.wav
109,192,254144,1,0,0:0:0:83:0_E1_96.wav
256,192,254144,1,0,0:0:0:83:0_E2_96.wav
36,192,254304,1,0,0:0:0:81:0_D#2_96.wav
475,192,254304,1,0,0:0:0:88:10_D#4_96.wav
329,192,254304,1,0,0:0:0:88:10_D#5_96.wav
256,192,254464,1,0,0:0:0:83:0_C#1_96.wav
402,192,254464,1,0,0:0:0:83:0_C#2_96.wav
109,192,254624,1,0,0:0:0:80:0_B0_96.wav
256,192,254624,1,0,0:0:0:80:0_B1_96.wav
36,192,254784,1,0,0:0:0:81:0_F#0_96.wav
182,192,254784,1,0,0:0:0:81:0_F#1_96.wav
256,192,254944,1,0,0:0:0:77:0_C#2_96.wav
402,192,254944,1,0,0:0:0:77:0_C#3_96.wav
109,192,255104,1,0,0:0:0:77:0_B1_96.wav
256,192,255104,1,0,0:0:0:77:0_B2_96.wav
329,192,255264,1,0,0:0:0:76:10_E4_96.wav
475,192,255264,1,0,0:0:0:76:10_A#4_96.wav
182,192,255264,1,0,0:0:0:76:10_E5_96.wav
256,192,255424,1,0,0:0:0:89:0_A#1_96.wav
402,192,255424,1,0,0:0:0:89:0_A#2_96.wav
109,192,255584,1,0,0:0:0:85:0_G#1_96.wav
256,192,255584,1,0,0:0:0:85:0_G#2_96.wav
329,192,255744,1,0,0:0:0:70:10_G4_96.wav
475,192,255744,1,0,0:0:0:70:10_A#4_96.wav
36,192,255744,1,0,0:0:0:70:10_D#5_96.wav
402,192,255904,1,0,0:0:0:79:0_A#1_96.wav
256,192,255904,1,0,0:0:0:79:0_A#2_96.wav
256,192,256064,1,0,0:0:0:74:0_G#1_96.wav
109,192,256064,1,0,0:0:0:74:0_G#2_96.wav
36,192,256224,1,0,0:0:0:74:10_C#4_96.wav
182,192,256224,1,0,0:0:0:74:10_A#4_96.wav
448,192,256224,1,0,0:0:0:74:10_C#5_96.wav
402,192,256384,1,0,0:0:0:87:0_G2_96.wav
256,192,256384,1,0,0:0:0:87:0_G1_96.wav
109,192,256544,1,0,0:0:0:86:0_D#1_96.wav
256,192,256544,1,0,0:0:0:86:0_D#2_96.wav
475,192,256704,1,0,0:0:0:74:10_D#4_96.wav
182,192,256704,1,0,0:0:0:74:10_G#4_96.wav
329,192,256704,1,0,0:0:0:74:10_B4_96.wav
182,192,256864,1,0,0:0:0:78:0_F#2_96.wav
36,192,256864,1,0,0:0:0:78:0_G#1_96.wav
109,192,256864,1,0,0:0:0:78:0_D#2_96.wav
36,192,257024,1,0,0:0:0:88:0_G#1_288.wav
109,192,257024,1,0,0:0:0:88:0_D#2_96.wav
182,192,257024,1,0,0:0:0:88:0_F#2_96.wav
256,192,257184,1,0,0:0:0:74:0_B2_96.wav
329,192,257184,1,0,0:0:0:74:0_F#3_96.wav
402,192,257184,1,0,0:0:0:74:0_D#3_96.wav
182,192,257344,1,0,0:0:0:81:0_F#2_96.wav
109,192,257344,1,0,0:0:0:81:0_D#2_96.wav
256,192,257344,1,0,0:0:0:81:0_B2_96.wav
109,192,257504,1,0,0:0:0:91:0_D#2_96.wav
182,192,257504,1,0,0:0:0:91:0_F#2_96.wav
256,192,257504,1,0,0:0:0:91:0_B2_96.wav
329,192,257664,1,0,0:0:0:87:10_A#3_96.wav
402,192,257664,1,0,0:0:0:87:10_F#4_96.wav
475,192,257664,1,0,0:0:0:87:10_A#4_96.wav
182,192,257824,1,0,0:0:0:80:0_F#3_96.wav
36,192,257824,1,0,0:0:0:80:0_G#2_96.wav
109,192,257824,1,0,0:0:0:80:0_D#3_96.wav
10,192,257984,1,0,0:0:0:89:0_G#2_96.wav
109,192,257984,1,0,0:0:0:89:0_D#3_96.wav
182,192,257984,1,0,0:0:0:89:0_F#3_96.wav
256,192,258144,1,0,0:0:0:87:10_B3_96.wav
329,192,258144,1,0,0:0:0:87:10_F#4_96.wav
402,192,258144,1,0,0:0:0:87:10_B4_96.wav
256,192,258304,1,0,0:0:0:71:0_B3_96.wav
109,192,258304,1,0,0:0:0:78:0_D#3_96.wav
182,192,258304,1,0,0:0:0:78:0_F#3_96.wav
109,192,258464,1,0,0:0:0:88:0_D#3_96.wav
182,192,258464,1,0,0:0:0:88:0_F#3_96.wav
256,192,258464,1,0,0:0:0:80:0_B3_96.wav
402,192,258624,1,0,0:0:0:90:10_B4_288.wav
329,192,258624,1,0,0:0:0:90:10_C#5_384.wav
475,192,258624,1,0,0:0:0:90:10_B5_384.wav
109,192,258784,1,0,0:0:0:81:0_F2_96.wav
182,192,258784,1,0,0:0:0:81:0_G#2_96.wav
36,192,258784,1,0,0:0:0:80:0_C#2_96.wav
36,192,258944,1,0,0:0:0:87:0_C#2_288.wav
182,192,258944,1,0,0:0:0:87:0_G#2_96.wav
109,192,258944,1,0,0:0:0:87:0_F2_96.wav
402,192,259104,1,0,0:0:0:77:0_F3_96.wav
329,192,259104,1,0,0:0:0:77:0_C#3_96.wav
475,192,259104,1,0,0:0:0:77:0_G#3_96.wav
182,192,259264,1,0,0:0:0:83:0_G#2_96.wav
256,192,259264,1,0,0:0:0:83:0_B2_96.wav
109,192,259264,1,0,0:0:0:83:0_F2_96.wav
109,192,259424,1,0,0:0:0:84:0_F2_96.wav
182,192,259424,1,0,0:0:0:84:0_G#2_96.wav
256,192,259424,1,0,0:0:0:84:0_B2_96.wav
475,192,259584,1,0,0:0:0:89:10_A#3_96.wav
329,192,259584,1,0,0:0:0:89:10_D#4_96.wav
402,192,259584,1,0,0:0:0:89:10_F4_96.wav
182,192,259744,1,0,0:0:0:80:0_C#3_96.wav
109,192,259744,1,0,0:0:0:80:0_F3_96.wav
36,192,259744,1,0,0:0:0:80:0_G#3_96.wav
182,192,259904,1,0,0:0:0:88:0_C#3_96.wav
36,192,259904,1,0,0:0:0:88:0_F3_96.wav
109,192,259904,1,0,0:0:0:88:0_G#3_96.wav
475,192,260064,1,0,0:0:0:85:10_B3_96.wav
375,192,260064,1,0,0:0:0:85:10_D#4_96.wav
329,192,260064,1,0,0:0:0:85:10_B4_96.wav
256,192,260224,1,0,0:0:0:79:0_G#3_96.wav
109,192,260224,1,0,0:0:0:79:0_F3_96.wav
182,192,260224,1,0,0:0:0:79:0_B3_96.wav
256,192,260384,1,0,0:0:0:86:0_F3_96.wav
182,192,260384,1,0,0:0:0:86:0_G#3_96.wav
109,192,260384,1,0,0:0:0:86:0_B3_96.wav
402,192,260544,1,0,0:0:0:88:10_F#5_192.wav
448,192,260544,1,0,0:0:0:88:10_C#6_192.wav
329,192,260704,1,0,0:0:0:72:0_C#4_96.wav
182,192,260704,1,0,0:0:0:72:0_E3_96.wav
36,192,260704,1,0,0:0:0:70:0_F#2_96.wav
182,192,260864,1,0,0:0:0:81:0_E3_96.wav
302,192,260864,1,0,0:0:0:81:0_C#4_96.wav
182,192,261024,1,0,0:0:0:80:0_E3_96.wav
329,192,261024,1,0,0:0:0:80:0_C#4_96.wav
329,192,261184,1,0,0:0:0:81:0_C#4_96.wav
182,192,261184,1,0,0:0:0:81:0_E3_96.wav
182,192,261344,1,0,0:0:0:82:0_E3_96.wav
329,192,261344,1,0,0:0:0:82:0_C#4_96.wav
36,192,261504,1,0,0:0:0:62:10_E4_192.wav
475,192,261504,1,0,0:0:0:62:10_G4_192.wav
402,192,261664,1,0,0:0:0:74:0_B3_96.wav
256,192,261664,1,0,0:0:0:74:0_G3_96.wav
182,192,261664,1,0,0:0:0:74:0_E3_96.wav
256,192,261824,1,0,0:0:0:79:0_G3_96.wav
402,192,261824,1,0,0:0:0:79:0_B3_96.wav
256,192,261984,1,0,0:0:0:83:0_G3_96.wav
402,192,261984,1,0,0:0:0:83:0_B3_96.wav
402,192,262144,1,0,0:0:0:80:0_B3_96.wav
256,192,262144,1,0,0:0:0:80:0_G3_96.wav
256,192,262304,1,0,0:0:0:79:0_G3_96.wav
402,192,262304,1,0,0:0:0:79:0_B3_96.wav
329,192,262464,1,0,0:0:0:90:10_E4_96.wav
182,192,262464,1,0,0:0:0:90:10_F#4_96.wav
475,192,262464,1,0,0:0:0:90:10_A#4_96.wav
36,192,262624,1,0,0:0:0:100:0_A#2_96.wav
109,192,262784,1,0,0:0:0:100:0_E3_96.wav
182,192,262784,1,0,0:0:0:100:0_F#3_96.wav
402,192,262944,1,0,0:0:0:90:10_A#4_96.wav
329,192,262944,1,0,0:0:0:90:10_E4_96.wav
256,192,262944,1,0,0:0:0:90:10_E5_96.wav
36,192,263104,1,0,0:0:0:100:0_A#2_96.wav
109,192,263264,1,0,0:0:0:100:0_E3_96.wav
182,192,263264,1,0,0:0:0:100:0_F#3_96.wav
329,192,263424,1,0,0:0:0:90:10_A#4_96.wav
256,192,263424,1,0,0:0:0:83:0_F#1_96.wav
402,192,263424,1,0,0:0:0:90:10_F#4_96.wav
36,192,263584,1,0,0:0:0:100:0_A#2_96.wav
109,192,263744,1,0,0:0:0:100:0_E3_96.wav
182,192,263744,1,0,0:0:0:100:0_F#3_96.wav
329,192,263904,1,0,0:0:0:90:10_A#4_96.wav
402,192,263904,1,0,0:0:0:82:0_F#1_96.wav
475,192,263904,1,0,0:0:0:90:10_C#5_96.wav
109,192,264064,1,0,0:0:0:100:0_E3_96.wav
182,192,264224,1,0,0:0:0:100:0_F#3_96.wav
256,192,264224,1,0,0:0:0:100:0_C#4_96.wav
109,192,264384,1,0,0:0:0:87:0_B_1_384.wav
36,192,264384,1,0,0:0:0:81:0_B0_384.wav
329,192,264384,1,0,0:0:0:56:10_B5_96.wav
109,192,264864,1,0,0:0:0:88:0_D#3_96.wav
182,192,264864,1,0,0:0:0:88:0_F#3_96.wav
329,192,264864,1,0,0:0:0:68:10_B5_96.wav
256,192,265344,1,0,0:0:0:94:0_F#3_96.wav
182,192,265344,1,0,0:0:0:94:0_A#3_96.wav
402,192,265344,1,0,0:0:0:67:10_D#5_96.wav
329,192,265824,1,0,0:0:0:95:0_F#3_96.wav
256,192,265824,1,0,0:0:0:95:0_B3_96.wav
475,192,265824,1,0,0:0:0:71:10_D#5_96.wav
182,192,266304,1,0,0:0:0:86:0_B1_384.wav
475,192,266304,1,0,0:0:0:81:10_E4_96.wav
109,192,266304,1,0,0:0:0:81:10_G4_96.wav
36,192,266784,1,0,0:0:0:85:0_G3_96.wav
448,192,266784,1,0,0:0:0:85:0_A#3_96.wav
182,192,266784,1,0,0:0:0:69:10_G#4_96.wav
475,192,267264,1,0,0:0:0:87:0_G3_96.wav
36,192,267264,1,0,0:0:0:87:0_B3_96.wav
182,192,267264,1,0,0:0:0:74:10_D4_96.wav
402,192,267744,1,0,0:0:0:93:0_G3_96.wav
329,192,267744,1,0,0:0:0:93:0_C#4_96.wav
475,192,267744,1,0,0:0:0:93:0_E3_96.wav
36,192,268224,1,0,0:0:0:90:0_B0_384.wav
109,192,268224,1,0,0:0:0:90:0_B1_384.wav
256,192,268224,1,0,0:0:0:76:10_B4_96.wav
402,192,268704,1,0,0:0:0:85:0_D#2_96.wav
475,192,268704,1,0,0:0:0:85:0_F#2_96.wav
256,192,268704,1,0,0:0:0:78:10_B4_96.wav
182,192,269184,1,0,0:0:0:88:0_F#2_96.wav
256,192,269184,1,0,0:0:0:88:0_A#2_96.wav
402,192,269184,1,0,0:0:0:74:10_D#4_96.wav
36,192,269664,1,0,0:0:0:93:0_F#2_96.wav
329,192,269664,1,0,0:0:0:93:0_B2_96.wav
402,192,269664,1,0,0:0:0:77:10_D#4_96.wav
109,192,270144,1,0,0:0:0:89:0_B1_384.wav
36,192,270144,1,0,0:0:0:81:10_E3_96.wav
475,192,270144,1,0,0:0:0:81:10_G3_96.wav
475,192,270624,1,0,0:0:0:85:0_G2_96.wav
182,192,270624,1,0,0:0:0:85:0_A#2_96.wav
36,192,270624,1,0,0:0:0:77:10_G#3_96.wav
36,192,271104,1,0,0:0:0:88:0_B2_96.wav
182,192,271104,1,0,0:0:0:72:10_D3_96.wav
475,192,271104,1,0,0:0:0:88:0_G2_96.wav
109,192,271584,1,0,0:0:0:85:10_G#3_96.wav
402,192,271584,1,0,0:0:0:93:0_G2_96.wav
329,192,271584,1,0,0:0:0:90:0_C#3_96.wav
256,192,272064,1,0,0:0:0:80:0_B0_96.wav
182,192,272064,1,0,0:0:0:86:10_D#3_96.wav
329,192,272064,1,0,0:0:0:86:10_D#4_96.wav
36,192,272184,1,0,0:0:0:97:0_F#1_96.wav
182,192,272304,1,0,0:0:0:74:10_B2_96.wav
109,192,272304,1,0,0:0:0:98:0_D#2_96.wav
256,192,272384,1,0,0:0:0:85:10_C#3_96.wav
329,192,272464,1,0,0:0:0:84:10_D#3_96.wav
402,192,272544,1,0,0:0:0:90:10_F#3_96.wav
329,192,272624,1,0,0:0:0:76:10_D#3_96.wav
256,192,272704,1,0,0:0:0:75:10_C#3_96.wav
182,192,272784,1,0,0:0:0:77:10_B2_96.wav
329,192,272864,1,0,0:0:0:90:10_D#3_96.wav
402,192,272944,1,0,0:0:0:88:10_F#3_96.wav
475,192,273024,1,0,0:0:0:90:10_B3_96.wav
402,192,273104,1,0,0:0:0:72:10_F#3_96.wav
329,192,273184,1,0,0:0:0:74:10_D#3_96.wav
256,192,273264,1,0,0:0:0:77:10_C#3_96.wav
36,192,273344,1,0,0:0:0:90:10_F#3_96.wav
109,192,273424,1,0,0:0:0:90:10_B3_96.wav
256,192,273504,1,0,0:0:0:90:10_D#4_96.wav
182,192,273584,1,0,0:0:0:77:10_C#4_96.wav
109,192,273664,1,0,0:0:0:75:10_B3_96.wav
36,192,273744,1,0,0:0:0:70:10_F#3_96.wav
109,192,273824,1,0,0:0:0:86:10_B3_96.wav
256,192,273904,1,0,0:0:0:89:10_D#4_96.wav
475,192,273984,1,0,0:0:0:100:0_B2_96.wav
402,192,273984,1,0,0:0:0:100:0_B1_96.wav
402,192,274144,1,0,0:0:0:87:0_A#2_96.wav
329,192,274144,1,0,0:0:0:87:0_A#1_96.wav
329,192,274304,1,0,0:0:0:85:0_A2_96.wav
256,192,274304,1,0,0:0:0:85:0_A1_96.wav
182,192,274464,1,0,0:0:0:88:0_G#1_96.wav
256,192,274464,1,0,0:0:0:89:0_G#2_96.wav
109,192,274624,1,0,0:0:0:86:0_G1_96.wav
182,192,274624,1,0,0:0:0:86:0_G2_96.wav
36,192,274784,1,0,0:0:0:86:0_F#1_96.wav
109,192,274784,1,0,0:0:0:86:0_F#2_96.wav
402,192,274944,1,0,0:0:0:85:0_F1_96.wav
475,192,274944,1,0,0:0:0:85:0_F2_96.wav
329,192,275104,1,0,0:0:0:85:0_E2_96.wav
402,192,275104,1,0,0:0:0:85:0_E1_96.wav
256,192,275264,1,0,0:0:0:86:0_D#1_96.wav
329,192,275264,1,0,0:0:0:86:0_D#2_96.wav
182,192,275424,1,0,0:0:0:86:0_D2_96.wav
256,192,275424,1,0,0:0:0:86:0_D1_96.wav
109,192,275584,1,0,0:0:0:89:0_C#2_96.wav
182,192,275584,1,0,0:0:0:89:0_C#1_96.wav
36,192,275744,1,0,0:0:0:87:0_C1_96.wav
109,192,275744,1,0,0:0:0:87:0_C2_96.wav
182,192,275904,1,0,0:0:0:70:10_B4_288.wav
402,192,275904,1,0,0:0:0:70:10_D#5_288.wav
256,192,275904,1,0,0:0:0:70:10_F#5_288.wav
329,192,275904,1,0,0:0:0:70:10_B5_288.wav
109,192,276384,1,0,0:0:0:79:0_B2_96.wav
10,192,276384,1,0,0:0:0:79:0_F#3_96.wav
302,192,276384,1,0,0:0:0:60:10_D#4_96.wav
256,192,276384,1,0,0:0:0:60:10_F#4_96.wav
329,192,276864,1,0,0:0:0:97:0_F#3_96.wav
375,192,276864,1,0,0:0:0:97:0_A#3_96.wav
83,192,276864,1,0,0:0:0:74:10_D#4_96.wav
182,192,276864,1,0,0:0:0:74:10_A#4_96.wav
256,192,277344,1,0,0:0:0:94:0_F#3_96.wav
156,192,277344,1,0,0:0:0:94:0_B3_96.wav
375,192,277344,1,0,0:0:0:77:10_D#4_96.wav
448,192,277344,1,0,0:0:0:77:10_B4_96.wav
10,192,277824,1,0,0:0:0:75:10_C#4_96.wav
256,192,277824,1,0,0:0:0:75:10_G4_96.wav
402,192,277824,1,0,0:0:0:75:10_C#5_96.wav
182,192,277904,1,0,0:0:0:94:0_E2_288.wav
329,192,277984,1,0,0:0:0:94:0_G2_288.wav
475,192,278064,1,0,0:0:0:94:0_C#3_288.wav
10,192,278464,1,0,0:0:0:80:0_B3_96.wav
256,192,278464,1,0,0:0:0:68:10_E4_96.wav
475,192,278464,1,0,0:0:0:68:10_B4_96.wav
182,192,278624,1,0,0:0:0:72:10_E4_96.wav
329,192,278624,1,0,0:0:0:72:10_G4_96.wav
182,192,278784,1,0,0:0:0:70:10_E4_96.wav
329,192,278784,1,0,0:0:0:70:10_G4_96.wav
36,192,278944,1,0,0:0:0:85:0_B3_96.wav
256,192,278944,1,0,0:0:0:67:10_E4_96.wav
475,192,278944,1,0,0:0:0:67:10_B4_96.wav
182,192,279104,1,0,0:0:0:72:10_E4_96.wav
329,192,279104,1,0,0:0:0:72:10_G4_96.wav
182,192,279264,1,0,0:0:0:68:10_E4_96.wav
302,192,279264,1,0,0:0:0:68:10_G4_96.wav
36,192,279424,1,0,0:0:0:83:0_B3_96.wav
229,192,279424,1,0,0:0:0:64:10_E4_96.wav
475,192,279424,1,0,0:0:0:64:10_B4_96.wav
182,192,279584,1,0,0:0:0:74:10_E4_96.wav
329,192,279584,1,0,0:0:0:74:10_G4_96.wav
36,192,279744,1,0,0:0:0:77:10_F#4_288.wav
256,192,279744,1,0,0:0:0:77:10_B4_288.wav
475,192,279744,1,0,0:0:0:77:10_D#5_288.wav
109,192,279824,1,0,0:0:0:85:0_F#2_288.wav
182,192,279904,1,0,0:0:0:85:0_B2_288.wav
256,192,279984,1,0,0:0:0:85:0_D#3_288.wav
10,192,281664,1,0,0:0:0:80:0_B1_192.wav
402,192,281664,1,0,0:0:0:68:10_F#4_192.wav
448,192,281664,1,0,0:0:0:68:10_B4_192.wav
109,192,281664,1,0,0:0:0:68:10_D#5_192.wav
182,192,281744,1,0,0:0:0:80:0_F#2_96.wav
256,192,281824,1,0,0:0:0:80:0_B2_96.wav
329,192,281904,1,0,0:0:0:80:0_D#3_96.wav
10,192,282624,1,0,0:0:0:79:0_B1_96.wav
109,192,282624,1,0,0:0:0:70:10_F#4_192.wav
475,192,282624,1,0,0:0:0:70:10_B4_192.wav
402,192,282624,1,0,0:0:0:70:10_D#5_192.wav
182,192,282704,1,0,0:0:0:79:0_F#2_96.wav
256,192,282784,1,0,0:0:0:79:0_B2_96.wav
329,192,282864,1,0,0:0:0:79:0_D#3_96.wav
109,192,283464,1,0,0:0:0:95:0_B_1_96.wav
36,192,283464,1,0,0:0:0:95:0_B0_96.wav
329,192,283584,1,0,0:0:0:66:10_F#4_384.wav
402,192,283584,1,0,0:0:0:66:10_B4_384.wav
475,192,283584,1,0,0:0:0:66:10_D#5_384.wav
182,192,283624,1,0,0:0:0:95:0_F#2_384.wav
256,192,283704,1,0,0:0:0:95:0_B2_384.wav
329,192,283784,1,0,0:0:0:95:0_D#3_384.wav
156,192,285864,1,0,0:0:0:70:0_D1_96.wav
36,192,285864,1,0,0:0:0:72:0_B0_384.wav
329,192,285864,1,0,0:0:0:70:0_F#1_288.wav
