osu file format v14

[General]
AudioFilename: audio.mp3
AudioLeadIn: 0
PreviewTime: 142336
Countdown: 1
SampleSet: Soft
StackLeniency: 0.7
Mode: 0
LetterboxInBreaks: 0
WidescreenStoryboard: 0

[Editor]
DistanceSpacing: 2
BeatDivisor: 8
GridSize: 4
TimelineZoom: 1

[Metadata]
Title:Moshimo kara Kitto
TitleUnicode:もしもからきっと
Artist:Sharlo
ArtistUnicode:Sharlo
Creator:Chaoslitz
Version:Serendipity
Source:ラブライブ! School idol project
Tags:夏萝 lovelive tojo toujou nozomi 東條希 Kusuda Aina 楠田亜衣奈 kssn
BeatmapID:1050457
BeatmapSetID:493198

[Difficulty]
HPDrainRate:5
CircleSize:4
OverallDifficulty:6
ApproachRate:7
SliderMultiplier:1.8
SliderTickRate:1

[Events]
//Background and Video events
0,0,"bg.jpg",0,0
//Break Periods
//Storyboard Layer 0 (Background)
//Storyboard Layer 1 (Fail)
//Storyboard Layer 2 (Pass)
//Storyboard Layer 3 (Foreground)
//Storyboard Sound Samples

[TimingPoints]
3716,689.655172413793,3,2,1,50,1,0
3716,-125,3,2,1,50,0,0
6819,-125,3,2,2,50,0,0
7164,-125,3,2,1,50,0,0
10957,-125,3,2,2,50,0,0
11302,-125,3,2,1,50,0,0
15095,-125,3,2,2,50,0,0
15440,-125,3,2,1,50,0,0
19233,-125,3,2,2,50,0,0
19578,-125,3,2,1,50,0,0
20267,-166.666666666667,3,2,1,50,0,0
21216,-166.666666666667,3,2,1,10,0,0
21302,-142.857142857143,3,2,1,50,0,0
22336,-111.111111111111,3,2,1,60,0,0
29578,-111.111111111111,3,2,2,60,0,0
29922,-111.111111111111,3,2,1,60,0,0
37853,-111.111111111111,3,2,2,60,0,0
38198,-111.111111111111,3,2,1,60,0,0
46129,-111.111111111111,3,2,2,60,0,0
46474,-111.111111111111,3,2,1,60,0,0
54405,-111.111111111111,3,2,2,60,0,0
54750,-111.111111111111,3,2,1,60,0,0
57509,-100,3,2,1,80,0,1
60612,-100,3,2,2,80,0,1
60957,-100,3,2,1,80,0,1
64750,-100,3,2,2,80,0,1
65095,-100,3,2,1,80,0,1
68888,-100,3,2,2,80,0,1
69233,-100,3,2,1,80,0,1
73026,-100,3,2,2,80,0,1
73371,-100,3,2,1,80,0,1
77164,-100,3,2,2,80,0,1
77509,-100,3,2,1,80,0,1
81302,-100,3,2,2,80,0,1
81647,-100,3,2,1,80,0,1
85440,-100,3,2,2,80,0,1
85784,-100,3,2,1,80,0,1
90612,-125,3,2,1,50,0,0
93716,-125,3,2,2,50,0,0
94060,-125,3,2,1,50,0,0
97853,-125,3,2,2,50,0,0
98198,-125,3,2,1,50,0,0
101991,-125,3,2,2,50,0,0
102336,-125,3,2,1,50,0,0
105095,-142.857142857143,3,2,1,50,0,0
106129,-142.857142857143,3,2,2,50,0,0
106474,-142.857142857143,3,2,1,50,0,0
107164,-111.111111111111,3,2,1,60,0,0
114406,-111.111111111111,3,2,2,60,0,0
114750,-111.111111111111,3,2,1,60,0,0
122681,-111.111111111111,3,2,2,60,0,0
123026,-111.111111111111,3,2,1,60,0,0
130957,-111.111111111111,3,2,2,60,0,0
131302,-111.111111111111,3,2,1,60,0,0
139233,-111.111111111111,3,2,2,60,0,0
139578,-111.111111111111,3,2,1,60,0,0
142336,-100,3,2,1,80,0,1
145440,-100,3,2,2,80,0,1
145785,-100,3,2,1,80,0,1
149578,-100,3,2,2,80,0,1
149923,-100,3,2,1,80,0,1
153716,-100,3,2,2,80,0,1
154061,-100,3,2,1,80,0,1
157854,-100,3,2,2,80,0,1
158199,-100,3,2,1,80,0,1
161992,-100,3,2,2,80,0,1
162337,-100,3,2,1,80,0,1
166130,-100,3,2,2,80,0,1
166475,-100,3,2,1,80,0,1
170268,-100,3,2,2,80,0,1
170612,-100,3,2,1,80,0,1
175440,-100,3,2,1,70,0,0
178543,-100,3,2,2,70,0,0
178888,-100,3,2,1,70,0,0
179578,-100,3,2,1,80,0,1
182681,-100,3,2,2,80,0,1
183026,-100,3,2,1,80,0,1
186819,-100,3,2,2,80,0,1
187164,-100,3,2,1,80,0,1
190957,-100,3,2,2,80,0,1
191302,-100,3,2,1,80,0,1
195095,-100,3,2,2,80,0,1
195440,-100,3,2,1,80,0,1
199233,-100,3,2,2,80,0,1
199578,-100,3,2,1,80,0,1
203371,-100,3,2,2,80,0,1
203715,-100,3,2,1,80,0,1
208543,-111.111111111111,3,2,1,60,0,0
211647,-111.111111111111,3,2,2,60,0,0
211991,-111.111111111111,3,2,1,60,0,0
215784,-111.111111111111,3,2,2,60,0,0
216129,-111.111111111111,3,2,1,60,0,0
219922,-111.111111111111,3,2,2,60,0,0
220267,-111.111111111111,3,2,1,60,0,0
224060,-111.111111111111,3,2,2,60,0,0
224405,-111.111111111111,3,2,1,60,0,0
228198,-111.111111111111,3,2,2,60,0,0
228543,-111.111111111111,3,2,1,60,0,0
232336,-111.111111111111,3,2,2,60,0,0
232681,-111.111111111111,3,2,1,60,0,0
236474,-111.111111111111,3,2,2,60,0,0
236819,-111.111111111111,3,2,1,60,0,0
240612,-111.111111111111,3,2,2,60,0,0
240957,-111.111111111111,3,2,1,60,0,0
243715,-125,3,2,1,40,0,0
255095,-125,3,2,2,40,0,0
255440,-125,3,2,1,40,0,0
258198,-125,3,2,1,60,0,0
259233,-111.111111111111,3,2,1,60,0,0
260267,-100,3,2,1,80,0,1
263370,-100,3,2,2,80,0,1
263715,-100,3,2,1,80,0,1
267508,-100,3,2,2,80,0,1
267853,-100,3,2,1,80,0,1
271646,-100,3,2,2,80,0,1
271991,-100,3,2,1,80,0,1
275784,-100,3,2,2,80,0,1
276129,-100,3,2,1,80,0,1
279922,-100,3,2,2,80,0,1
280267,-100,3,2,1,80,0,1
284060,-100,3,2,2,80,0,1
284405,-100,3,2,1,80,0,1
287940,-100,3,2,1,10,0,1
288198,-100,3,2,2,80,0,1
288542,-100,3,2,1,80,0,1
293371,-142.857142857143,3,2,1,50,0,0
296129,745.341614906832,3,2,1,50,1,0
297619,638.297872340426,3,2,1,50,1,0
297939,681.818181818182,3,2,1,50,1,0
298279,681.818181818182,3,2,1,50,1,0
298619,720.720720720721,3,2,1,50,1,0
299339,845.070422535211,3,2,1,50,1,0
299761,666.666666666667,3,2,1,50,1,0
300427,631.578947368421,3,2,1,50,1,0
300742,705.882352941176,3,2,1,50,1,0
301094,740.740740740741,3,2,1,50,1,0
301464,937.5,3,2,1,50,1,0
301932,685.714285714286,3,2,1,50,1,0
302274,600,3,2,1,45,1,0
302574,652.173913043478,3,2,1,40,1,0
302900,697.674418604651,3,2,1,35,1,0
303597,810.810810810811,3,2,1,30,1,0
304002,909.090909090909,3,2,1,25,1,0
304456,1224.48979591837,3,2,1,20,1,0
305068,1602.13618157543,3,2,1,15,1,0
305869,2758.62068965517,3,2,1,10,1,0

[Colours]
Combo1 : 124,247,111
Combo2 : 205,74,255
Combo3 : 250,120,203
Combo4 : 107,221,254
SliderBorder : 211,95,255
SliderTrackOverride : 251,130,255

[HitObjects]
100,368,3026,5,0,0:0:0:0:
68,285,3371,1,0,0:0:0:0:
138,190,3716,6,0,P|173:204|217:201,2,72,6|0|0,0:0|0:0|0:0,0:0:0:0:
99,80,4750,1,8,0:0:0:0:
179,44,5095,2,0,P|183:80|186:116,1,72,0|8,0:0|0:1,0:0:0:0:
287,187,5784,6,0,P|285:222|271:257,2,72,8|0|0,0:1|0:0|0:0,0:0:0:0:
263,59,6819,1,2,0:0:0:0:
343,89,7164,2,0,L|420:82,1,72,0|0,0:0|0:0,0:0:0:0:
471,182,7853,6,0,P|436:171|401:173,2,72,8|0|0,0:1|0:0|0:0,0:0:0:0:
509,286,8888,1,8,0:0:0:0:
444,343,9233,1,0,0:0:0:0:
427,258,9578,1,2,0:0:0:0:
358,362,9922,6,0,P|323:362|292:345,1,72,8|0,0:1|0:0,0:0:0:0:
244,272,10612,1,0,0:0:0:0:
350,208,10957,2,0,L|341:280,2,72,2|0|0,0:0|0:0|0:0,0:0:0:0:
302,82,11991,6,0,P|268:90|232:89,1,72,8|0,0:1|0:0,0:0:0:0:
165,34,12681,1,0,0:0:0:0:
57,78,13026,2,0,P|64:113|67:149,1,72,8|0,0:0|0:0,0:0:0:0:
63,235,13716,1,8,0:1:0:0:
153,130,14060,6,0,P|158:166|161:201,2,72,8|0|0,0:1|0:0|0:0,0:0:0:0:
237,248,15095,1,2,0:0:0:0:
242,161,15440,1,0,0:0:0:0:
312,211,15784,1,0,0:0:0:0:
196,324,16129,6,0,P|151:270|161:201,1,144,2|0,0:0|0:0,0:0:0:0:
260,142,17164,1,8,0:0:0:0:
329,193,17509,2,0,P|364:188|400:186,1,72,0|0,0:0|0:3,0:0:0:0:
439,299,18198,6,0,P|389:347|322:333,1,144,0|0,0:3|0:0,0:0:0:0:
237,248,19233,1,2,0:0:0:0:
181,314,19578,2,0,P|145:308|107:304,1,72,0|0,0:0|0:0,0:0:0:0:
24,257,20267,6,0,P|94:262|138:196,1,148.49999546814,0|0,0:0|0:0,0:0:0:0:
140,180,21302,6,0,P|136:146|131:113,2,62.9999980773926,2|0|0,0:0|0:0|0:0,0:0:0:0:
237,248,22336,6,0,L|248:87,1,161.999995056153,4|0,0:0|0:0,0:0:0:0:
344,20,23371,1,8,0:0:0:0:
415,73,23716,2,0,P|419:112|404:150,1,80.9999975280763,0|8,0:0|0:1,0:0:0:0:
317,254,24405,6,0,P|279:250|232:247,2,80.9999975280763,8|0|0,0:1|0:0|0:0,0:0:0:0:
394,350,25440,1,8,0:0:0:0:
456,287,25784,1,0,0:0:0:0:
456,287,26129,1,0,0:0:0:0:
420,179,26474,6,0,P|360:131|287:157,1,161.999995056153,8|0,0:1|0:0,0:0:0:0:
236,247,27509,2,0,P|232:287|228:327,1,80.9999975280763,8|0,0:0|0:0,0:0:0:0:
148,365,28198,1,8,0:1:0:0:
28,272,28543,6,0,P|24:312|20:352,2,80.9999975280763,8|0|0,0:1|0:0|0:0,0:0:0:0:
54,102,29578,1,2,0:0:0:0:
4,173,29922,2,0,P|40:188|81:184,1,80.9999975280763
201,108,30612,6,0,P|196:67|190:27,1,80.9999975280763,8|0,0:1|0:0,0:0:0:0:
190,27,31302,1,0,0:0:0:0:
311,108,31647,1,8,0:0:0:0:
256,184,31991,2,0,P|220:202|180:200,1,80.9999975280763,0|8,0:0|0:1,0:0:0:0:
306,268,32681,6,0,P|389:261|472:253,1,161.999995056153,8|0,0:1|0:0,0:0:0:0:
386,376,33715,1,8,0:0:0:0:
296,348,34060,2,0,P|301:308|306:268,1,80.9999975280763,0|0,0:0|0:0,0:0:0:0:
203,125,34750,6,0,P|162:183|190:264,1,161.999995056153,8|0,0:1|0:0,0:0:0:0:
296,348,35784,1,8,0:0:0:0:
209,369,36129,2,0,P|169:364|127:361,1,80.9999975280763,0|0,0:0|0:0,0:0:0:0:
30,251,36819,6,0,B|106:230|111:285|189:263,1,161.999995056153,8|0,0:1|0:0,0:0:0:0:
317,166,37853,1,2,0:0:0:0:
226,177,38198,1,0,0:0:0:0:
280,252,38543,1,0,0:0:0:0:
263,91,38888,6,0,P|182:86|101:79,1,161.999995056153,8|0,0:1|0:0,0:0:0:0:
1,243,39922,2,0,P|39:255|79:253,1,80.9999975280763,8|0,0:0|0:0,0:0:0:0:
51,160,40611,1,8,0:1:0:0:
273,255,40957,6,0,P|233:258|186:264,1,80.9999975280763,8|0,0:1|0:0,0:0:0:0:
124,325,41647,1,2,0:0:0:0:
166,181,41991,1,8,0:0:0:0:
84,162,42336,2,0,P|84:203|105:240,1,80.9999975280763
229,369,43026,6,0,P|236:288|243:207,1,161.999995056153,8|0,0:1|0:0,0:0:0:0:
259,62,44060,2,0,P|336:55|385:116,1,161.999995056153,8|0,0:0|0:0,0:0:0:0:
334,245,45095,6,0,P|372:259|416:252,2,80.9999975280763,8|0|0,0:1|0:0|0:0,0:0:0:0:
304,131,46129,1,2,0:0:0:0:
230,176,46474,2,0,P|190:179|143:184,1,80.9999975280763,0|0,0:0|0:0,0:0:0:0:
63,286,47164,6,0,P|95:309|134:312,1,80.9999975280763,8|0,0:1|0:0,0:0:0:0:
206,257,47853,1,0,0:0:0:0:
157,87,48199,1,8,0:0:0:0:
149,183,48543,1,0,0:0:0:0:
71,129,48888,1,8,0:1:0:0:
246,177,49233,6,0,P|286:178|321:160,1,80.9999975280763,8|0,0:1|0:0,0:0:0:0:
371,81,49922,1,0,0:0:0:0:
445,167,50267,2,0,P|439:207|435:247,1,80.9999975280763,0|2,0:0|0:0,0:0:0:0:
473,323,50957,1,0,0:0:0:0:
356,358,51302,6,0,P|280:381|213:339,1,161.999995056153,8|0,0:1|0:0,0:0:0:0:
232,203,52336,1,8,0:0:0:0:
158,263,52681,2,0,P|122:276|81:271,1,80.9999975280763,0|0,0:0|0:0,0:0:0:0:
232,203,53371,6,0,P|272:206|312:214,2,80.9999975280763,8|0|0,0:1|0:0|0:0,0:0:0:0:
115,188,54405,2,0,P|121:148|126:107,1,80.9999975280763,2|0,0:0|0:0,0:0:0:0:
136,18,55095,1,0,0:0:0:0:
277,181,55440,5,8,0:1:0:0:
164,268,55784,1,8,0:3:0:0:
115,188,56129,1,0,0:0:0:0:
248,91,56474,2,0,P|287:86|325:99,1,80.9999975280763,8|0,0:0|0:0,0:0:0:0:
422,203,57164,1,2,0:0:0:0:
312,356,57509,5,6,0:0:0:0:
263,270,57853,2,0,P|269:225|276:180,1,90,0|2,0:0|0:0,0:0:0:0:
151,70,58543,1,8,0:0:0:0:
151,70,58888,2,0,P|156:114|161:159,1,90,0|8,0:0|0:1,0:0:0:0:
106,294,59578,6,0,P|179:245|263:270,1,180,8|0,0:1|0:0,0:0:0:0:
312,356,60612,1,2,0:0:0:0:
386,290,60957,1,0,0:0:0:0:
345,190,61302,1,2,0:0:0:0:
193,337,61647,5,8,0:1:0:0:
106,294,61991,2,0,P|88:255|98:195,2,90,0|2|8,0:0|0:0|0:0,0:0:0:0:
190,238,63026,1,0,0:0:0:0:
190,238,63371,1,0,0:0:0:0:
100,112,63715,6,0,P|175:66|256:99,1,180,2|0,0:0|0:0,0:0:0:0:
410,271,64750,2,0,P|336:316|256:284,1,180,2|0,0:0|0:0,0:0:0:0:
183,159,65784,5,8,0:1:0:0:
91,209,66129,1,0,0:0:0:0:
91,209,66474,1,0,0:0:0:0:
146,368,66819,1,8,0:0:0:0:
232,330,67164,2,0,P|254:290|254:247,1,90,0|2,0:0|0:0,0:0:0:0:
105,118,67853,6,0,P|194:111|284:103,1,180,8|0,0:1|0:0,0:0:0:0:
387,213,68888,2,0,P|380:257|374:302,1,90,2|2,0:0|0:0,0:0:0:0:
374,302,69578,1,2,0:0:0:0:
426,134,69922,5,8,0:1:0:0:
306,203,70267,2,0,P|262:207|222:188,1,90,0|0,0:0|0:0,0:0:0:0:
257,10,70957,2,0,P|301:6|341:25,2,90,2|0|8,0:0|0:0|0:1,0:0:0:0:
135,127,71991,6,0,P|216:157|284:103,1,180,8|0,0:1|0:0,0:0:0:0:
202,69,73026,1,2,0:0:0:0:
168,245,73371,1,0,0:0:0:0:
338,187,73716,1,2,0:0:0:0:
202,69,74060,5,6,0:0:0:0:
135,127,74405,2,0,P|90:120|45:114,1,90,2|0,0:0|0:0,0:0:0:0:
65,251,75095,2,0,P|71:302|75:343,1,90,8|0,0:0|0:0,0:0:0:0:
1,192,75784,1,8,0:1:0:0:
158,277,76129,6,0,P|244:288|346:302,1,180,8|0,0:1|0:0,0:0:0:0:
455,359,77164,1,2,0:0:0:0:
372,197,77509,1,0,0:0:0:0:
358,322,77853,1,0,0:0:0:0:
454,137,78198,5,2,0:0:0:0:
372,197,78543,2,0,P|327:196|287:172,1,90
351,111,79233,1,8,0:0:0:0:
423,267,79578,2,0,P|467:261|512:258,1,90,0|8,0:0|0:1,0:0:0:0:
332,330,80267,6,0,P|338:250|347:134,1,180,2|0,0:0|0:0,0:0:0:0:
180,54,81302,2,0,P|174:134|165:250,1,180,2|0,0:0|0:0,0:0:0:0:
100,355,82336,6,0,P|185:374|255:322,1,180,8|0,0:1|0:0,0:0:0:0:
350,267,83371,2,0,P|264:286|194:234,1,180,8|8,0:0|0:1,0:0:0:0:
92,120,84405,6,0,P|96:75|100:31,1,90,8|0,0:1|0:0,0:0:0:0:
99,30,85095,1,2,0:0:0:0:
255,85,85440,2,0,P|258:130|261:175,1,90,2|0,0:0|0:0,0:0:0:0:
194,234,86129,1,8,0:1:0:0:
379,185,86474,6,0,P|373:253|362:375,1,180,8|0,0:1|0:0,0:0:0:0:
195,322,87509,2,0,P|117:284|111:198,1,180,8|0,0:0|0:0,0:0:0:0:
175,92,88543,5,2,0:0:0:0:
194,234,88888,1,8,0:3:0:0:
92,116,89233,2,0,P|72:118|48:121,3,30,0|0|0|8,3:0|3:0|3:0|3:2,0:0:0:0:
244,146,89922,1,0,0:0:0:0:
194,234,90267,1,4,0:3:0:0:
197,73,90612,6,0,P|230:59|265:62,1,72,6|0,0:0|0:0,0:0:0:0:
265,62,91302,1,0,0:0:0:0:
382,34,91647,2,0,P|420:30|453:25,2,72,8|0|8,0:0|0:0|0:1,0:0:0:0:
331,135,92681,6,0,P|336:170|339:206,1,72,8|0,0:1|0:0,0:0:0:0:
344,297,93371,1,0,0:0:0:0:
191,377,93716,2,0,P|180:344|184:309,1,72,2|0,0:0|0:0,0:0:0:0:
266,337,94405,1,0,0:0:0:0:
202,208,94750,6,0,P|166:212|127:218,2,72,8|0|0,0:1|0:0|0:0,0:0:0:0:
344,297,95784,2,0,P|355:328|349:371,1,72,8|0,0:0|0:0,0:0:0:0:
266,337,96474,1,8,0:1:0:0:
305,207,96819,6,0,P|340:208|375:197,1,72,8|0,0:1|0:0,0:0:0:0:
435,122,97509,1,0,0:0:0:0:
498,278,97853,1,2,0:0:0:0:
498,278,98198,2,0,P|459:272|417:267,1,72,0|0,0:0|0:0,0:0:0:0:
330,121,98888,6,0,P|335:85|339:49,2,72,8|0|0,0:1|0:0|0:0,0:0:0:0:
222,231,99922,1,8,0:0:0:0:
144,174,100267,2,0,P|139:138|135:102,1,72,0|2,0:0|0:0,0:0:0:0:
65,258,100957,6,0,P|100:260|135:271,1,72,8|0,0:1|0:0,0:0:0:0:
208,323,101647,1,0,0:0:0:0:
339,206,101991,1,2,0:0:0:0:
305,293,102336,2,0,P|309:328|312:364,1,72,0|0,0:0|0:0,0:0:0:0:
421,231,103026,6,0,P|425:195|412:162,1,72,8|0,0:1|0:0,0:0:0:0:
338,120,103716,1,0,0:0:0:0:
222,231,104060,1,8,0:0:0:0:
286,297,104405,2,0,P|321:292|357:290,1,72,0|8,0:0|0:1,0:0:0:0:
197,365,105095,6,0,P|165:367|136:357,1,62.9999980773926,8|8,0:1|0:3,0:0:0:0:
98,214,105784,2,0,L|102:184,3,20.9999993591309,0|0|0|2,3:0|3:0|3:0|3:2,0:0:0:0:
33,273,106474,1,8,0:1:0:0:
60,114,106819,1,4,0:3:0:0:
178,292,107164,6,0,P|253:310|316:263,1,161.999995056153,4|0,0:0|0:0,0:0:0:0:
346,122,108198,1,8,0:0:0:0:
422,177,108543,2,0,P|427:217|415:259,1,80.9999975280763,0|8,0:0|0:1,0:0:0:0:
348,354,109233,6,0,P|390:350|430:348,2,80.9999975280763,8|0|0,0:1|0:0|0:0,0:0:0:0:
239,230,110267,1,8,0:0:0:0:
217,378,110612,1,0,0:0:0:0:
174,297,110957,1,0,0:0:0:0:
250,142,111302,6,0,L|86:128,1,161.999995056153,8|0,0:1|0:0,0:0:0:0:
9,270,112336,2,0,P|49:266|91:263,1,80.9999975280763,8|0,0:0|0:0,0:0:0:0:
158,325,113026,1,8,0:1:0:0:
300,211,113371,6,0,P|223:224|170:168,1,161.999995056153,8|0,0:1|0:0,0:0:0:0:
275,50,114405,1,2,0:0:0:0:
351,113,114750,2,0,P|393:115|431:104,1,80.9999975280763,0|0,0:0|0:0,0:0:0:0:
300,210,115440,6,0,P|304:251|309:291,1,80.9999975280763,8|0,0:1|0:0,0:0:0:0:
319,377,116129,1,0,0:0:0:0:
393,236,116474,1,8,0:0:0:0:
403,330,116819,2,0,P|449:326|500:322,1,80.9999975280763,0|8,0:0|0:1,0:0:0:0:
319,377,117509,6,0,P|251:334|167:358,1,161.999995056153,8|0,0:1|0:0,0:0:0:0:
66,188,118543,1,8,0:0:0:0:
4,248,118888,2,0,P|10:285|18:338,1,80.9999975280763,0|0,0:0|0:0,0:0:0:0:
175,351,119578,6,0,P|191:315|189:275,1,80.9999975280763,8|0,0:1|0:0,0:0:0:0:
156,189,120267,1,0,0:0:0:0:
15,113,120612,1,8,0:0:0:0:
86,55,120957,2,0,P|127:61|166:64,1,80.9999975280763,0|0,0:0|0:0,0:0:0:0:
243,196,121647,6,0,P|248:156|254:116,1,80.9999975280763,8|0,0:1|0:0,0:0:0:0:
267,27,122336,1,0,0:0:0:0:
358,183,122681,2,0,P|393:201|433:201,2,80.9999975280763,2|0|0,0:0|0:0|0:0,0:0:0:0:
357,45,123715,6,0,P|436:33|502:85,1,161.999995056153,8|0,0:1|0:0,0:0:0:0:
433,201,124750,2,0,P|438:241|441:281,1,80.9999975280763,8|0,0:0|0:0,0:0:0:0:
370,344,125440,1,8,0:1:0:0:
291,214,125784,6,0,P|285:293|278:375,1,161.999995056153,8|2,0:1|0:0,0:0:0:0:
195,271,126819,1,8,0:0:0:0:
109,308,127164,2,0,P|69:302|39:276,1,80.9999975280763,0|0,0:0|0:0,0:0:0:0:
98,141,127853,6,0,P|104:181|107:222,2,80.9999975280763,8|0|0,0:1|0:0|0:0,0:0:0:0:
219,51,128888,2,0,P|295:61|331:131,1,161.999995056153,8|0,0:0|0:0,0:0:0:0:
275,283,129922,6,0,P|235:276|194:271,1,80.9999975280763,8|0,0:1|0:0,0:0:0:0:
107,222,130612,1,0,0:0:0:0:
223,350,130957,1,2,0:0:0:0:
194,271,131302,1,0,0:0:0:0:
275,283,131647,1,0,0:0:0:0:
400,209,131991,6,0,P|407:162|414:124,2,80.9999975280763,8|0|0,0:1|0:0|0:0,0:0:0:0:
331,360,133026,1,8,0:0:0:0:
405,309,133371,2,0,P|448:313|486:300,1,80.9999975280763,0|8,0:0|0:1,0:0:0:0:
315,254,134060,6,0,P|311:213|307:174,1,80.9999975280763,8|0,0:1|0:0,0:0:0:0:
295,73,134750,1,0,0:0:0:0:
131,125,135095,2,0,P|128:175|141:203,1,80.9999975280763,8|2,0:0|0:0,0:0:0:0:
218,256,135784,1,0,0:0:0:0:
213,89,136129,6,0,P|131:81|51:74,1,161.999995056153,8|0,0:1|0:0,0:0:0:0:
1,178,137164,1,8,0:0:0:0:
45,259,137509,2,0,P|50:303|54:342,1,80.9999975280763
112,197,138198,6,0,P|152:196|189:212,1,80.9999975280763,8|0,0:1|0:0,0:0:0:0:
137,280,138888,1,0,0:0:0:0:
237,357,139233,2,0,P|286:350|321:345,1,80.9999975280763,2|0,0:0|0:0,0:0:0:0:
404,328,139922,1,0,0:0:0:0:
285,144,140267,5,8,0:1:0:0:
265,271,140612,1,8,0:3:0:0:
265,271,140957,1,0,0:0:0:0:
441,243,141302,2,0,P|464:211|470:171,1,80.9999975280763,8|0,0:0|0:0,0:0:0:0:
427,91,141991,1,2,0:0:0:0:
263,33,142336,5,6,0:0:0:0:
185,98,142681,2,0,P|191:142|196:187,1,90,0|2,0:0|0:0,0:0:0:0:
163,346,143371,2,0,P|118:352|77:336,1,90,8|0,0:0|0:0,0:0:0:0:
77,336,144060,1,8,0:1:0:0:
16,203,144405,6,0,P|106:195|195:187,1,180,8|0,0:1|0:0,0:0:0:0:
303,283,145440,1,2,0:0:0:0:
303,283,145784,2,0,P|258:289|216:272,1,90,0|2,0:0|0:0,0:0:0:0:
197,99,146474,5,8,0:1:0:0:
290,129,146819,2,0,P|340:123|395:117,2,90,0|2|8,0:0|0:0|0:0,0:0:0:0:
268,36,147853,1,0,0:0:0:0:
268,36,148198,1,0,0:0:0:0:
120,147,148543,6,0,P|110:234|164:308,1,180,2|0,0:0|0:0,0:0:0:0:
392,237,149578,2,0,P|402:150|348:76,1,180,2|0,0:0|0:0,0:0:0:0:
185,98,150612,5,8,0:1:0:0:
232,181,150957,2,0,P|278:176|321:171,1,90
321,170,151647,1,8,0:0:0:0:
376,253,151991,1,0,0:0:0:0:
311,337,152336,1,2,0:0:0:0:
180,269,152681,6,0,P|90:260|0:253,1,180,8|0,0:1|0:0,0:0:0:0:
49,163,153716,2,0,P|102:167|156:173,1,90,2|2,0:0|0:0,0:0:0:0:
232,181,154405,1,2,0:0:0:0:
311,337,154750,5,8,0:1:0:0:
216,350,155095,2,0,P|197:309|199:264,1,90,0|0,0:0|0:0,0:0:0:0:
317,177,155784,2,0,P|361:182|406:186,2,90,2|0|8,0:0|0:0|0:1,0:0:0:0:
124,135,156819,6,0,P|119:87|114:45,1,90,8|0,0:1|0:0,0:0:0:0:
114,45,157509,1,0,0:0:0:0:
55,186,157853,1,2,0:0:0:0:
229,246,158198,1,0,0:0:0:0:
194,66,158543,1,2,0:0:0:0:
128,260,158888,5,6,0:0:0:0:
179,337,159233,2,0,P|221:351|265:343,1,90,2|0,0:0|0:0,0:0:0:0:
374,194,159922,2,0,P|381:241|385:291,1,90,8|0,0:0|0:0,0:0:0:0:
348,368,160612,1,8,0:1:0:0:
289,177,160957,6,0,P|347:112|433:131,1,180,8|0,0:1|0:0,0:0:0:0:
472,266,161991,1,2,0:0:0:0:
384,283,162336,2,0,P|336:273|289:266,1,90
136,133,163026,5,2,0:0:0:0:
81,207,163371,2,0,P|88:254|94:306,2,90,0|0|8,0:0|0:0|0:0,0:0:0:0:
46,124,164405,1,0,0:0:0:0:
46,124,164750,1,8,0:1:0:0:
166,87,165095,6,0,P|256:99|345:107,1,180,2|0,0:0|0:0,0:0:0:0:
345,297,166129,2,0,P|255:284|166:276,1,180,2|0,0:0|0:0,0:0:0:0:
37,211,167164,6,0,P|22:292|101:347,1,180,8|0,0:1|0:0,0:0:0:0:
232,324,168198,2,0,P|241:235|250:141,1,180,8|8,0:0|0:1,0:0:0:0:
111,36,169233,6,0,P|117:76|122:125,1,90,8|0,0:1|0:0,0:0:0:0:
100,265,169836,2,0,L|136:259,1,22.5,0|2,0:0|0:0,0:0:0:0:
27,356,170267,1,2,0:0:0:0:
27,356,170612,1,0,0:0:0:0:
56,187,170957,1,8,0:1:0:0:
168,361,171302,6,0,P|254:362|298:288,1,180,8|0,0:1|0:0,0:0:0:0:
251,119,172336,2,0,P|340:130|429:139,1,180,8|0,0:0|0:0,0:0:0:0:
502,252,173371,5,2,0:0:0:0:
377,376,173715,1,8,0:3:0:0:
323,207,174060,2,0,L|290:203,3,30,0|0|0|8,3:0|3:0|3:0|3:2,0:0:0:0:
400,280,174750,1,0,0:0:0:0:
310,305,175095,1,4,0:3:0:0:
183,181,175440,6,0,P|175:270|167:360,1,180,6|0,0:0|0:0,0:0:0:0:
60,341,176474,1,8,0:0:0:0:
60,341,176819,2,0,P|37:303|40:258,1,90,0|0,0:0|0:0,0:0:0:0:
154,95,177509,5,6,0:0:0:0:
66,76,177853,1,0,0:0:0:0:
94,162,178198,1,0,0:0:0:0:
178,87,178543,5,6,0:0:0:0:
46,59,178888,1,0,0:0:0:0:
88,187,179233,1,0,0:0:0:0:
204,77,179578,6,0,P|286:52|352:109,1,180,6|0,0:0|0:0,0:0:0:0:
301,215,180612,2,0,P|306:260|310:305,1,90,8|0,0:0|0:0,0:0:0:0:
310,305,181302,1,0,0:0:0:0:
430,371,181647,6,0,P|436:281|441:192,1,180,2|0,0:0|0:0,0:0:0:0:
405,94,182681,1,2,0:0:0:0:
338,173,183026,1,0,0:0:0:0:
303,76,183371,1,2,0:0:0:0:
206,227,183715,6,0,P|129:271|45:237,1,180,8|0,0:1|0:0,0:0:0:0:
10,106,184750,1,8,0:0:0:0:
81,39,185095,2,0,P|125:34|164:56,1,90,0|0,0:0|0:0,0:0:0:0:
220,205,185784,6,0,P|313:195|400:187,1,180,8|0,0:1|0:0,0:0:0:0:
512,285,186819,1,2,0:0:0:0:
433,337,187164,2,0,P|388:329|343:324,1,90,0|0,0:0|0:0,0:0:0:0:
160,272,187853,6,0,P|133:189|187:122,1,180,8|0,0:1|0:0,0:0:0:0:
289,147,188888,2,0,P|293:191|297:239,2,90,8|2|8,0:0|0:0|0:1,0:0:0:0:
258,42,189922,6,0,P|304:49|351:56,1,90,8|0,0:1|0:0,0:0:0:0:
448,74,190612,1,0,0:0:0:0:
384,185,190957,1,2,0:0:0:0:
410,277,191302,2,0,P|405:329|402:377,1,90,0|0,0:0|0:0,0:0:0:0:
305,234,191991,6,0,P|235:287|152:264,1,180,8|0,0:1|0:0,0:0:0:0:
81,197,193026,2,0,P|88:137|91:92,1,90,8|0,0:0|0:0,0:0:0:0:
66,293,193715,1,0,0:0:0:0:
186,165,194060,6,0,P|181:119|176:76,2,90,8|0|2,0:1|0:0|0:0,0:0:0:0:
206,328,195095,1,2,0:0:0:0:
268,251,195440,1,0,0:0:0:0:
307,341,195784,1,0,0:0:0:0:
428,295,196129,6,0,P|452:257|455:213,1,90,8|0,0:1|0:0,0:0:0:0:
436,119,196819,1,0,0:0:0:0:
360,227,197164,2,0,P|273:217|181:206,1,180,8|0,0:0|0:0,0:0:0:0:
54,247,198198,5,8,0:1:0:0:
54,247,198543,2,0,P|61:291|66:336,1,90,2|0,0:0|0:0,0:0:0:0:
186,372,199233,1,2,0:0:0:0:
246,307,199578,2,0,P|208:285|163:287,1,90,0|0,0:0|0:0,0:0:0:0:
26,203,200267,6,0,P|112:216|165:149,1,180,8|0,0:1|0:0,0:0:0:0:
139,23,201302,1,8,0:0:0:0:
221,56,201647,2,0,P|265:50|310:47,1,90,0|2,0:0|0:0,0:0:0:0:
442,192,202336,6,0,B|353:213|357:146|268:165,1,180,2|0,0:0|0:0,0:0:0:0:
161,242,203371,1,2,0:0:0:0:
224,314,203715,2,0,P|269:319|308:298,1,90,0|2,0:0|0:0,0:0:0:0:
405,117,204405,6,0,P|415:208|424:300,1,180,2|0,0:0|0:0,0:0:0:0:
499,195,205440,1,8,0:0:0:0:
320,128,205784,1,0,0:0:0:0:
351,44,206129,1,0,0:0:0:0:
373,205,206474,5,8,0:1:0:0:
373,205,206819,1,8,0:3:0:0:
232,152,207164,1,0,0:0:0:0:
138,199,207509,2,0,P|143:243|146:288,1,90,2|0,0:0|0:0,0:0:0:0:
128,375,208198,1,2,0:0:0:0:
37,251,208543,6,0,P|15:175|57:108,1,161.999995056153,6|0,0:0|0:0,0:0:0:0:
172,57,209578,1,8,0:0:0:0:
242,122,209922,2,0,P|238:162|232:202,1,80.9999975280763,0|8,0:0|0:1,0:0:0:0:
318,69,210612,6,0,P|402:59|462:104,1,161.999995056153,8|0,0:1|0:0,0:0:0:0:
487,247,211647,1,2,0:0:0:0:
410,307,211991,2,0,P|359:298|325:293,1,80.9999975280763,2|0,0:0|0:0,0:0:0:0:
215,371,212681,6,0,P|208:290|200:209,1,161.999995056153,8|0,0:1|0:0,0:0:0:0:
186,71,213715,1,8,0:0:0:0:
102,113,214060,2,0,P|100:155|120:190,1,80.9999975280763,0|8,0:0|0:1,0:0:0:0:
236,286,214750,6,0,P|276:280|316:275,2,80.9999975280763,8|0|0,0:1|0:0|0:0,0:0:0:0:
154,344,215784,2,0,P|113:338|73:333,1,80.9999975280763,2|0,0:0|0:0,0:0:0:0:
12,275,216474,1,2,0:0:0:0:
81,183,216819,6,0,P|123:178|162:199,2,80.9999975280763,8|0|0,0:1|0:0|0:0,0:0:0:0:
5,92,217853,2,0,P|49:88|95:83,1,80.9999975280763,8|2,0:0|0:0,0:0:0:0:
167,68,218543,1,8,0:1:0:0:
262,171,218888,6,0,P|267:211|271:251,2,80.9999975280763,8|0|0,0:1|0:0|0:0,0:0:0:0:
324,100,219922,2,0,P|328:60|333:20,1,80.9999975280763,2|0,0:0|0:0,0:0:0:0:
247,43,220612,1,2,0:0:0:0:
403,116,220957,5,8,0:1:0:0:
448,190,221302,2,0,P|407:203|366:193,1,80.9999975280763
414,92,221991,2,0,P|468:86|503:82,2,80.9999975280763,8|2|0,0:0|0:0|0:0,0:0:0:0:
292,108,223026,5,8,0:1:0:0:
202,97,223371,1,0,0:0:0:0:
258,26,223715,1,0,0:0:0:0:
233,187,224060,2,0,P|189:180|146:175,1,80.9999975280763,2|0,0:0|0:0,0:0:0:0:
62,164,224750,1,0,0:0:0:0:
15,285,225095,6,0,P|40:357|117:366,1,161.999995056153,6|0,0:0|0:0,0:0:0:0:
256,276,226129,1,8,0:0:0:0:
327,342,226474,2,0,P|373:337|421:332,1,80.9999975280763,0|2,0:0|0:0,0:0:0:0:
472,203,227164,6,0,L|306:189,1,161.999995056153,2|0,0:0|0:0,0:0:0:0:
202,97,228198,1,2,0:0:0:0:
254,31,228543,2,0,P|280:61|286:100,1,80.9999975280763,2|0,0:0|0:0,0:0:0:0:
177,196,229233,6,0,P|137:190|96:186,2,80.9999975280763,8|0|0,0:1|0:0|0:0,0:0:0:0:
260,262,230267,1,8,0:0:0:0:
206,340,230612,2,0,P|169:355|129:351,1,80.9999975280763
43,264,231302,6,0,P|52:184|60:102,1,161.999995056153,2|0,0:0|0:0,0:0:0:0:
151,29,232336,2,0,P|228:40|267:108,1,161.999995056153,2|0,0:0|0:0,0:0:0:0:
186,202,233371,6,0,P|181:161|174:122,2,80.9999975280763,8|0|0,0:1|0:0|0:0,0:0:0:0:
206,340,234405,2,0,P|244:354|288:349,1,80.9999975280763,8|2,0:0|0:0,0:0:0:0:
365,313,235095,1,8,0:1:0:0:
343,146,235440,6,0,P|303:139|262:133,2,80.9999975280763,8|0|0,0:1|0:0|0:0,0:0:0:0:
512,233,236474,2,0,P|472:239|431:245,1,80.9999975280763,2|0,0:0|0:0,0:0:0:0:
365,313,237164,1,2,0:0:0:0:
206,340,237509,6,0,P|151:282|170:205,1,161.999995056153,8|0,0:1|0:0,0:0:0:0:
260,93,238543,1,8,0:0:0:0:
173,50,238888,2,0,P|133:45|91:40,1,80.9999975280763,0|2,0:0|0:0,0:0:0:0:
23,200,239578,6,0,P|103:192|184:185,1,161.999995056153,8|0,0:1|0:3,0:0:0:0:
339,275,240612,1,2,0:0:0:0:
251,312,240957,2,0,P|255:271|259:231,1,80.9999975280763,2|0,0:0|0:0,0:0:0:0:
279,54,241647,6,0,P|317:42|357:44,2,80.9999975280763,8|0|0,0:1|0:0|0:0,0:0:0:0:
173,152,242681,2,0,P|136:148|93:141,1,80.9999975280763,8|0,0:0|0:0,0:0:0:0:
6,114,243371,1,2,0:0:0:0:
28,286,243715,5,6,0:0:0:0:
28,286,244060,2,0,P|60:300|96:300,1,72,2|0,0:0|0:0,0:0:0:0:
189,280,244750,2,0,P|194:315|199:351,2,72,2|0|0,0:0|0:0|0:0,0:0:0:0:
281,229,245784,6,0,B|293:294|302:371,1,144,2|2,0:0|0:0,0:0:0:0:
391,337,246819,1,2,0:0:0:0:
391,336,247164,2,0,P|408:305|410:269,1,72,0|2,0:0|0:0,0:0:0:0:
342,131,247853,5,0,0:0:0:0:
418,182,248198,2,0,P|453:176|489:172,2,72,2|2|2,0:0|0:0|0:0,0:0:0:0:
339,221,249233,1,0,0:0:0:0:
339,221,249578,1,0,0:0:0:0:
274,328,249922,6,0,P|204:341|143:306,1,144,2|0,0:0|0:0,0:0:0:0:
94,219,250957,2,0,P|60:231|21:225,2,72,2|0|0,0:0|0:0|0:0,0:0:0:0:
207,168,251991,6,0,P|211:115|214:76,2,72,2|0|0,0:0|0:0|0:0,0:0:0:0:
218,262,253026,1,8,0:0:0:0:
309,199,253371,2,0,P|344:195|380:215,1,72,0|2,0:0|0:0,0:0:0:0:
454,347,254060,6,0,P|383:354|321:319,1,144,2|0,0:0|0:0,0:0:0:0:
218,282,255095,2,0,P|213:328|208:364,2,72,2|0|0,0:0|0:0|0:0,0:0:0:0:
116,197,256129,6,0,P|121:232|124:273,1,72,2|0,0:0|0:0,0:0:0:0:
58,331,256819,1,0,0:0:0:0:
10,238,257164,2,0,P|12:202|17:166,1,72,2|0,0:0|0:0,0:0:0:0:
29,77,257853,2,0,L|50:72,3,18,0|0|0|0,3:0|3:0|3:0|3:0,0:0:0:0:
77,63,258198,5,2,0:0:0:0:
229,144,258543,1,8,0:3:0:0:
229,144,258888,1,0,0:0:0:0:
123,268,259233,2,0,P|156:281|207:278,1,80.9999975280763,8|0,0:1|0:0,0:0:0:0:
331,236,259922,1,2,0:0:0:0:
271,45,260267,5,6,0:0:0:0:
352,83,260612,2,0,P|394:78|443:74,1,90,0|2,0:0|0:0,0:0:0:0:
498,196,261302,2,0,P|456:212|412:206,1,90,8|0,0:0|0:0,0:0:0:0:
412,206,261991,1,8,0:1:0:0:
239,176,262336,6,0,P|249:265|257:355,1,180,8|0,0:1|0:0,0:0:0:0:
167,303,263371,1,2,0:0:0:0:
82,347,263715,1,0,0:0:0:0:
18,266,264060,1,2,0:0:0:0:
162,132,264405,5,8,0:1:0:0:
87,80,264750,2,0,P|72:127|78:167,2,90,0|2|8,0:0|0:0|0:0,0:0:0:0:
171,42,265784,1,0,0:0:0:0:
171,42,266129,1,0,0:0:0:0:
351,68,266474,6,0,P|386:148|367:235,1,180,2|0,0:0|0:0,0:0:0:0:
160,301,267509,2,0,P|118:224|129:135,1,180,2|0,0:0|0:0,0:0:0:0:
257,42,268543,5,8,0:1:0:0:
289,130,268888,1,0,0:0:0:0:
289,130,269233,1,0,0:0:0:0:
217,244,269578,1,8,0:0:0:0:
247,332,269922,2,0,P|288:348|331:340,1,90,0|2,0:0|0:0,0:0:0:0:
476,241,270612,6,0,P|390:233|291:224,1,180,8|0,0:1|0:0,0:0:0:0:
184,266,271647,2,0,P|164:306|167:350,1,90,2|2,0:0|0:0,0:0:0:0:
251,323,272336,1,2,0:0:0:0:
207,165,272681,6,0,P|162:171|117:176,2,90,8|0|0,0:1|0:0|0:0,0:0:0:0:
318,54,273715,2,0,P|278:33|234:40,1,90,2|0,0:0|0:0,0:0:0:0:
161,89,274405,1,8,0:1:0:0:
207,252,274750,6,0,P|263:245|310:239,1,90,8|0,0:1|0:0,0:0:0:0:
386,229,275440,1,0,0:0:0:0:
262,336,275784,1,2,0:0:0:0:
237,157,276129,1,0,0:0:0:0:
404,224,276474,1,2,0:0:0:0:
262,336,276819,5,6,0:0:0:0:
179,299,277164,2,0,P|136:295|87:290,1,90,2|0,0:0|0:0,0:0:0:0:
4,180,277853,2,0,P|0:136|13:93,1,90,8|0,0:0|0:0,0:0:0:0:
72,15,278543,1,8,0:1:0:0:
159,107,278888,6,0,P|246:99|339:91,1,180,8|0,0:1|0:0,0:0:0:0:
460,116,279922,1,2,0:0:0:0:
329,271,280267,1,0,0:0:0:0:
298,181,280612,1,0,0:0:0:0:
434,286,280957,5,2,0:0:0:0:
359,364,281302,2,0,P|315:372|275:353,1,90,0|0,0:0|0:0,0:0:0:0:
298,181,281991,2,0,P|342:173|382:192,2,90,8|0|8,0:0|0:0|0:1,0:0:0:0:
180,330,283026,6,0,P|174:250|165:134,1,180,2|0,0:0|0:0,0:0:0:0:
332,54,284061,2,0,P|338:134|347:250,1,180,2|0,0:0|0:0,0:0:0:0:
412,355,285095,6,0,P|327:374|257:322,1,180,8|0,0:1|0:0,0:0:0:0:
188,222,286129,2,0,P|118:169|32:188,1,180,8|8,0:0|0:1,0:0:0:0:
81,345,287164,5,8,0:1:0:0:
99,257,287509,1,0,0:0:0:0:
191,371,287853,2,0,L|222:367,1,22.5,2|0,0:0|0:0,0:0:0:0:
345,284,288198,2,0,L|255:272,1,90,2|0,0:0|0:0,0:0:0:0:
99,257,288888,1,8,0:1:0:0:
223,184,289233,6,0,P|231:251|241:364,1,180,8|0,0:1|0:0,0:0:0:0:
379,369,290267,2,0,P|441:310|419:227,1,180,8|0,0:0|0:0,0:0:0:0:
316,174,291302,5,2,0:0:0:0:
398,124,291647,1,8,0:3:0:0:
268,64,291991,2,0,L|235:69,3,30,0|0|0|8,3:0|3:0|3:0|3:2,0:0:0:0:
360,25,292681,2,0,P|405:32|453:38,1,90,0|0,0:0|0:0,0:0:0:0:
340,118,293371,6,0,P|346:168|350:204,2,62.9999980773926,6|0|0,0:0|0:0|0:0,0:0:0:0:
252,161,294405,1,0,0:0:0:0:
252,161,294750,2,0,P|248:192|244:223,1,62.9999980773926,0|2,0:0|0:0,0:0:0:0:
262,325,295440,6,0,L|404:310,1,125.999996154785,2|2,0:0|0:0,0:0:0:0:
404,316,296874,2,0,P|424:276|419:232,1,90,0|0,0:0|0:0,0:0:0:0:
349,158,297619,6,0,P|304:161|259:166,1,90,2|2,0:0|0:0,0:0:0:0:
186,215,298279,5,0,0:0:0:0:
92,186,298619,6,0,P|49:153|61:36,1,180,2|2,0:0|0:0,0:0:0:0:
166,15,299761,6,0,P|213:12|266:9,2,90,2|0|0,0:0|0:0|0:0,0:0:0:0:
125,100,300742,6,0,P|171:96|218:93,1,90,2|2,0:0|0:0,0:0:0:0:
309,129,301464,5,2,0:0:0:0:
256,192,301932,12,2,307248,0:0:0:0:
