osu file format v14

[General]
AudioFilename: Sharlo - Melancholy.mp3
AudioLeadIn: 1200
PreviewTime: 71082
Countdown: 0
SampleSet: Normal
StackLeniency: 0.4
Mode: 0
LetterboxInBreaks: 0
WidescreenStoryboard: 0

[Editor]
DistanceSpacing: 1
BeatDivisor: 4
GridSize: 4
TimelineZoom: 1.1

[Metadata]
Title:Melancholic
TitleUnicode:メランコリック
Artist:Sharlo
ArtistUnicode:Sharlo
Creator:Zero__wind
Version:Normal
Source:
Tags:夏萝 Vocaloid Junky Kagamine Rin 鏡音リン Melancholy
BeatmapID:856115
BeatmapSetID:366406

[Difficulty]
HPDrainRate:3
CircleSize:3
OverallDifficulty:4
ApproachRate:4.5
SliderMultiplier:1
SliderTickRate:1

[Events]
//Background and Video events
0,0,"melancholic.jpg",0,0
//Break Periods
2,98828,111082
2,139971,149868
//Storyboard Layer 0 (Background)
//Storyboard Layer 1 (Fail)
//Storyboard Layer 2 (Pass)
//Storyboard Layer 3 (Foreground)
//Storyboard Sound Samples

[TimingPoints]
914,428.571428571429,4,2,1,50,1,0
10235,-100,4,2,1,35,0,0
11199,-100,4,2,1,50,0,0
14199,-100,4,1,1,50,0,0
14628,-100,4,1,1,60,0,0
28128,-100,4,1,1,40,0,0
28342,-100,4,2,1,40,0,0
40985,-100,4,1,1,40,0,0
41842,-100,4,2,1,40,0,0
42271,-100,4,2,1,50,0,0
47842,-100,4,2,1,35,0,0
48271,-100,4,1,1,35,0,0
48485,-100,4,2,1,50,0,0
51699,-100,4,1,1,35,0,0
51914,-100,4,2,1,50,0,0
53414,-100,4,1,1,40,0,0
54056,-100,4,1,1,50,0,0
71199,-100,4,1,1,60,0,1
91771,-100,4,1,1,50,0,1
92199,-100,4,1,1,70,0,1
92414,-100,4,1,1,60,0,1
98628,-100,4,1,1,60,0,0
118771,-100,4,1,1,70,0,0
119199,-100,4,1,1,60,0,0
124342,-100,4,1,1,70,0,0
126056,-100,4,1,1,60,0,0
136342,-100,4,1,1,40,0,0
136771,-100,4,1,1,45,0,0
137199,-100,4,1,1,50,0,0
137628,-100,4,1,1,55,0,0
138056,-100,4,1,1,60,0,0
139771,-100,4,2,1,50,0,0
151342,-100,4,1,1,60,0,0
151771,-100,4,1,1,40,0,0
153056,-100,4,1,1,50,0,0
153485,-100,4,1,1,40,0,0
153699,-100,4,1,1,50,0,0
154342,-100,4,1,1,55,0,0
155199,-100,4,1,1,60,0,0
158199,-100,4,1,1,70,0,0
158628,-100,4,1,1,70,0,1
172342,-100,4,1,1,60,0,1
179199,-100,4,1,1,50,0,1
179628,-100,4,1,1,70,0,1
179842,-100,4,1,1,60,0,1
184235,-100,4,1,1,60,0,0
186485,-100,4,1,1,50,0,0
187342,-100,4,1,1,60,0,0

[Colours]
Combo1 : 138,251,132
Combo2 : 233,230,98
Combo3 : 85,251,255
Combo4 : 255,163,140

[HitObjects]
264,124,914,5,2,0:0:0:0:
360,92,1342,1,2,0:0:0:0:
460,112,1771,2,0,P|465:149|464:172,1,50,2|0,0:0|0:0,0:0:0:0:
464,211,2199,1,2,0:0:0:0:
452,260,2414,2,0,P|406:286|360:292,1,100,0|2,0:0|0:0,0:0:0:0:
292,220,3271,1,2,0:0:0:0:
244,204,3485,2,0,P|194:211|151:235,1,100,0|2,0:0|0:0,0:0:0:0:
112,328,4342,5,2,0:0:0:0:
208,356,4771,1,2,0:0:0:0:
304,328,5199,2,0,P|335:330|364:324,2,50,2|0|2,0:0|0:0|0:0,0:0:0:0:
272,288,5842,2,0,P|260:236|272:180,1,100,2|0,0:0|0:0,0:0:0:0:
288,144,6485,2,0,L|340:132,1,50,0|2,0:0|0:0,0:0:0:0:
320,36,7128,2,0,L|271:47,1,50,0|2,0:0|0:0,0:0:0:0:
172,52,7771,6,0,L|123:41,2,50,2|0|2,0:0|0:0|0:0,0:0:0:0:
207,87,8414,1,0,0:0:0:0:
212,136,8628,2,0,P|201:201|185:249,1,100,2|2,0:0|0:0,0:0:0:0:
164,276,9271,1,0,0:0:0:0:
80,224,9699,2,0,P|64:168|76:124,1,100,2|2,0:0|0:0,0:0:0:0:
100,84,10342,1,0,1:0:0:0:
200,80,10771,2,0,L|256:84,1,50,0|0,1:0|1:0,0:0:0:0:
300,88,11199,5,0,1:0:0:0:
380,24,11628,1,2,1:2:0:0:
436,104,12056,1,0,1:0:0:0:
356,168,12485,1,0,1:0:0:0:
452,204,12914,2,0,P|460:256|448:304,1,100,2|0,1:2|1:0,0:0:0:0:
412,336,13556,1,0,0:0:0:0:
364,346,13771,2,0,P|305:344|248:338,1,100,2|10,1:2|0:0,0:0:0:0:
172,300,14628,5,6,1:0:0:0:
204,204,15056,1,10,0:0:0:0:
264,120,15485,2,0,P|279:87|285:58,2,50,0|2|10,0:0|2:0|0:0,0:0:0:0:
214,123,16128,1,2,2:0:0:0:
124,80,16556,2,0,P|68:84|26:102,1,100,2|2,2:0|2:0,0:0:0:0:
12,148,17199,2,2,B|12:188|12:188|6:214|6:214|8:252,1,100,2|8,0:0|0:0,0:0:0:0:
36,344,18056,6,0,P|84:356|144:348,1,100,2|10,0:0|0:0,0:0:0:0:
232,336,18914,2,0,L|292:348,2,50,0|2|10,0:0|2:0|0:0,0:0:0:0:
170,259,19771,2,0,P|170:226|172:208,1,50,0|2,0:0|2:0,0:0:0:0:
168,160,20199,2,0,P|139:143|122:136,2,50,8|0|2,0:0|2:0|0:2,0:0:0:0:
213,182,20842,2,2,B|252:176|252:176|288:180|288:180|312:180,1,100,2|8,0:0|0:0,0:0:0:0:
364,176,21485,5,6,0:0:0:0:
396,80,21914,2,2,B|357:74|357:74|321:78|321:78|297:78,1,100,10|0,0:0|0:0,0:0:0:0:
196,76,22771,1,10,0:0:0:0:
148,80,22985,2,0,P|96:100|60:132,2,100,2|2|2,2:0|2:1|2:1,0:0:0:0:
188,108,24056,2,2,B|192:140|192:140|188:172|188:212,1,100,2|10,0:0|0:2,0:0:0:0:
184,308,24914,5,0,0:0:0:0:
91,344,25342,2,0,P|68:336|46:324,2,50,10|0|0,0:2|2:0|0:0,0:0:0:0:
106,246,26199,1,10,0:0:0:0:
200,208,26628,2,2,B|232:204|232:204|256:212|300:204,1,100,2|8,0:0|0:0,0:0:0:0:
348,192,27271,1,2,2:1:0:0:
399,194,27485,2,2,B|432:194|432:194|447:198|447:198|468:197|468:197|503:201,2,100,2|8|0,0:0|0:0|0:0,0:0:0:0:
336,116,28771,6,0,P|320:60|332:16,2,100,2|0|2,0:0|0:0|0:0,0:0:0:0:
348,216,30056,2,0,P|319:266|280:289,1,100,2|0,0:0|0:0,0:0:0:0:
236,296,30699,2,0,P|188:300|128:292,1,100,2|0,0:0|0:0,0:0:0:0:
72,220,31556,1,0,0:0:0:0:
64,172,31771,6,0,P|64:120|80:76,1,100,2|0,0:0|0:0,0:0:0:0:
164,20,32628,2,0,P|216:20|260:36,1,100,2|0,0:0|0:0,0:0:0:0:
302,64,33271,2,0,B|357:73|399:52|399:52|440:30|496:40,1,200,2|2,0:0|0:0,0:0:0:0:
508,140,34556,2,0,P|510:173|509:196,1,50
508,239,34985,2,0,P|504:263|497:287,1,50,2|0,0:0|0:0,0:0:0:0:
408,241,35628,6,0,P|356:241|308:221,2,100,0|2|2,0:0|0:0|0:0,0:0:0:0:
384,340,36914,2,0,P|332:340|284:360,1,100,0|2,0:0|0:0,0:0:0:0:
240,372,37556,2,0,P|189:368|144:347,1,100
116,252,38414,1,0,0:0:0:0:
116,204,38628,6,0,L|120:100,1,100,2|2,0:0|0:0,0:0:0:0:
216,84,39485,2,0,L|212:183,1,100,0|2,0:0|0:0,0:0:0:0:
212,236,40128,2,0,P|232:284|272:320,1,100
368,324,40985,2,0,B|416:328|416:328|468:324,2,100,2|2|0,2:1|2:1|0:0,0:0:0:0:
322,307,42056,5,4,1:0:0:0:
372,220,42485,2,0,P|396:168|394:120,2,100,2|0|2,1:2|1:0|1:2,0:0:0:0:
300,152,43771,2,0,L|197:154,1,100,2|0,1:2|1:0,0:0:0:0:
149,155,44414,2,0,P|120:163|101:175,1,50,0|0,0:0|1:0,0:0:0:0:
44,256,45056,1,0,1:0:0:0:
112,328,45485,6,0,P|176:340|216:332,2,100,2|0|2,1:2|1:0|1:2,0:0:0:0:
76,236,46771,1,2,1:2:0:0:
64,188,46985,2,0,P|70:107|115:54,1,150,2|0,0:0|1:0,0:0:0:0:
212,44,48056,1,0,1:0:0:0:
261,45,48271,2,2,L|316:49,1,50,2|8,2:1|0:0,0:0:0:0:
408,68,48914,5,0,1:0:0:0:
428,168,49342,2,0,L|424:272,2,100,2|0|2,1:2|1:0|1:2,0:0:0:0:
332,136,50628,2,0,P|287:133|236:112,1,100,2|0,1:2|1:0,0:0:0:0:
192,88,51271,2,0,P|172:156|180:236,1,150,2|0,0:0|1:0,0:0:0:0:
204,280,52128,1,8,0:0:0:0:
248,300,52342,6,0,P|336:304|364:300,2,100,2|2|0,1:2|1:2|1:0,0:0:0:0:
148,292,53628,2,0,L|80:304,1,50,2|0,1:2|2:0,0:0:0:0:
256,192,54056,12,2,55771,0:0:0:0:
148,92,56842,6,0,L|80:80,2,50,8|8|8,0:0|0:0|0:0,0:0:0:0:
196,108,57485,2,0,P|221:109|248:104,1,50,12|8,0:0|0:0,0:0:0:0:
287,75,57914,2,0,P|311:73|336:78,1,50,8|8,0:0|0:0,0:0:0:0:
400,156,58556,2,0,L|400:220,1,50,0|8,0:0|0:0,0:0:0:0:
356,296,59199,6,0,P|331:297|304:292,1,50,8|8,0:0|0:0,0:0:0:0:
265,263,59628,2,0,P|240:261|215:266,1,50,8|8,0:0|0:0,0:0:0:0:
124,308,60271,1,0,0:0:0:0:
75,305,60485,2,0,L|27:285,1,50,8|8,0:0|0:0,0:0:0:0:
1,246,60914,6,0,P|-2:196|24:152,1,100,2|0,0:2|0:0,0:0:0:0:
108,104,61771,2,0,L|172:96,2,50,2|0|8,0:2|2:0|0:0,0:0:0:0:
140,200,62628,2,0,L|257:214,1,100,2|0,0:2|0:0,0:0:0:0:
340,212,63485,2,0,B|388:204|388:204|416:192,2,75,8|8|8,0:0|0:0|0:0,0:0:0:0:
312,172,64342,6,0,L|316:120,1,50,12|8,0:0|0:0,0:0:0:0:
324,72,64771,2,0,L|320:20,1,50,8|8,0:0|0:0,0:0:0:0:
220,20,65414,2,0,L|168:24,1,50,0|12,0:0|0:2,0:0:0:0:
88,80,66056,6,0,L|84:132,1,50,8|8,0:0|0:0,0:0:0:0:
76,180,66485,2,0,L|80:232,1,50,8|8,0:0|0:0,0:0:0:0:
76,328,67128,2,0,P|52:340|28:344,2,50,8|8|4,0:0|3:0|3:0,0:0:0:0:
120,304,67771,5,4,1:0:0:0:
207,349,68199,1,0,0:0:0:0:
305,349,68628,1,0,0:0:0:0:
392,304,69056,1,0,1:0:0:0:
444,220,69485,6,0,L|448:168,1,50,8|8,0:0|0:0,0:0:0:0:
464,124,69914,2,0,L|460:72,1,50,8|8,0:0|0:0,0:0:0:0:
448,24,70342,1,14,0:2:0:0:
348,12,70771,1,14,0:2:0:0:
248,20,71199,6,0,P|201:40|152:72,1,100,6|10,0:0|0:0,0:0:0:0:
100,144,72056,2,0,L|96:196,1,50,2|2,0:0|2:0,0:0:0:0:
94,244,72485,1,10,0:0:0:0:
116,288,72699,2,2,P|181:301|231:288,1,100,2|2,2:1|2:0,0:0:0:0:
300,244,73556,1,2,2:0:0:0:
348,232,73771,2,2,L|452:236,1,100,2|8,0:0|0:0,0:0:0:0:
508,316,74628,5,2,0:0:0:0:
420,360,75056,1,10,0:0:0:0:
324,332,75485,2,0,L|274:330,1,50,2|2,0:0|2:0,0:0:0:0:
224,320,75914,2,0,P|194:312|172:300,1,50,8|2,0:0|2:1,0:0:0:0:
148,208,76556,2,0,P|156:178|168:156,2,50,2|8|2,2:0|0:0|2:1,0:0:0:0:
248,216,77414,1,0,0:0:0:0:
296,224,77628,2,0,L|346:222,1,50,10|8,0:0|0:0,0:0:0:0:
396,224,78056,6,0,P|445:206|476:172,1,100,6|10,0:0|0:0,0:0:0:0:
476,72,78914,2,0,P|442:36|396:20,1,100,2|10,0:0|0:0,0:0:0:0:
348,20,79556,2,2,P|308:24|244:20,1,100,2|2,2:1|2:0,0:0:0:0:
148,24,80414,1,2,2:0:0:0:
112,60,80628,2,2,B|104:104|104:104|104:164,1,100,2|10,0:0|0:0,0:0:0:0:
116,209,81271,1,2,2:1:0:0:
136,256,81485,5,0,0:0:0:0:
226,212,81914,1,10,0:2:0:0:
295,287,82342,1,0,0:0:0:0:
246,373,82771,1,10,0:0:0:0:
147,355,83199,2,2,B|96:356|96:356|48:344,1,100,4|8,3:0|0:0,0:0:0:0:
20,304,83842,1,8,3:0:0:0:
8,256,84056,2,2,P|8:200|28:148,1,100,10|8,0:0|0:0,0:0:0:0:
96,88,84914,5,6,0:0:0:0:
192,116,85342,1,10,0:0:0:0:
288,88,85771,2,0,L|340:76,1,50,2|2,0:0|2:0,0:0:0:0:
385,66,86199,1,10,0:0:0:0:
436,68,86414,2,2,B|444:92|444:92|444:124|444:124|456:176,1,100,2|2,2:1|2:0,0:0:0:0:
444,264,87271,1,2,2:0:0:0:
404,296,87485,2,2,B|368:296|368:296|304:288,1,100,2|8,0:0|0:0,0:0:0:0:
220,236,88342,6,0,L|116:240,1,100,2|10,0:0|0:0,0:0:0:0:
20,260,89199,2,0,P|17:227|25:201,1,50,2|2,0:0|2:0,0:0:0:0:
33,163,89628,1,8,0:0:0:0:
74,135,89842,2,2,B|106:133|106:133|125:139|125:139|173:139,1,100,2|2,2:1|2:0,0:0:0:0:
224,144,90485,2,0,L|276:140,1,50,8|2,0:0|2:1,0:0:0:0:
372,140,91128,1,0,0:0:0:0:
416,116,91342,2,0,L|452:76,1,50,10|8,0:0|0:0,0:0:0:0:
464,32,91771,5,6,0:0:0:0:
368,12,92199,2,0,L|264:16,1,100,14|2,0:0|0:0,0:0:0:0:
219,17,92842,1,2,2:0:0:0:
172,28,93056,2,0,P|148:46|135:62,1,50,10|2,0:0|2:1,0:0:0:0:
156,160,93699,2,0,P|208:176|252:160,1,100,2|2,2:0|2:0,0:0:0:0:
296,144,94342,2,2,L|396:152,1,100,2|10,0:0|0:0,0:0:0:0:
445,159,94985,1,2,2:1:0:0:
492,172,95199,5,0,0:0:0:0:
487,270,95627,1,10,0:2:0:0:
426,347,96056,1,0,0:0:0:0:
332,376,96484,1,10,0:0:0:0:
236,340,96914,2,2,B|229:288|229:288|237:236,1,100,2|8,0:0|0:0,0:0:0:0:
265,200,97556,1,4,3:0:0:0:
313,192,97771,2,0,L|417:196,1,100,8|8,0:0|0:0,0:0:0:0:
509,216,98628,1,6,0:0:0:0:
240,296,112342,6,0,P|184:312|140:296,1,100,4|10,0:0|0:0,0:0:0:0:
88,216,113199,2,0,L|92:160,1,50,2|0,0:0|2:0,0:0:0:0:
108,120,113628,1,8,0:0:0:0:
152,96,113842,2,2,B|176:92|176:92|204:100|204:100|264:96,1,100,2|0,2:1|2:0,0:0:0:0:
300,88,114485,1,10,0:0:0:0:
400,80,114914,2,0,P|425:54|432:36,2,50,0|2|8,0:0|2:0|0:0,0:0:0:0:
356,170,115771,6,2,P|368:212|392:284,1,100,2|8,0:0|0:0,0:0:0:0:
316,336,116628,2,2,P|268:351|220:365,1,100,2|8,0:0|0:0,0:0:0:0:
172,376,117271,2,2,P|116:378|68:368,1,100,2|0,2:1|2:0,0:0:0:0:
40,332,117914,1,8,0:0:0:0:
36,232,118342,2,0,L|36:168,1,50,0|2,0:0|0:0,0:0:0:0:
36,132,118771,1,14,0:2:0:0:
108,60,119199,6,0,P|158:47|204:60,1,100,4|8,0:0|0:0,0:0:0:0:
235,98,119842,1,2,2:0:0:0:
272,132,120056,2,0,P|319:144|367:131,1,100,0|8,0:0|0:0,0:0:0:0:
452,76,120914,1,0,0:0:0:0:
456,176,121342,2,0,L|456:232,1,50,8|2,0:0|2:0,0:0:0:0:
456,276,121771,2,2,B|452:312|452:312|437:320|437:320|424:332|424:332|388:336,1,100,2|8,0:0|0:0,0:0:0:0:
296,328,122628,6,0,P|267:333|240:332,2,50,0|2|8,0:0|2:0|0:0,0:0:0:0:
352,244,123485,1,0,0:0:0:0:
296,160,123914,2,0,P|267:155|240:156,1,50,8|2,0:0|2:0,0:0:0:0:
196,156,124342,2,2,B|160:160|160:160|148:156|148:156|128:160|128:160|88:156,1,100,2|8,0:0|0:0,0:0:0:0:
92,256,125199,2,2,B|128:260|128:260|140:256|140:256|160:260|160:260|200:256,1,100,10|8,0:0|0:0,0:0:0:0:
240,252,125842,1,4,3:0:0:0:
288,260,126056,6,0,L|344:272,1,50,4|4,0:0|0:0,0:0:0:0:
488,72,127342,1,12,0:2:0:0:
400,24,127771,6,0,L|344:24,1,50,4|4,0:0|0:0,0:0:0:0:
152,28,128842,2,0,L|124:76,1,50,0|8,0:0|0:0,0:0:0:0:
112,172,129485,6,0,L|111:222,1,50,4|4,0:0|0:0,0:0:0:0:
212,224,130128,2,0,L|211:174,1,50,0|8,0:0|0:0,0:0:0:0:
212,72,130771,1,12,0:2:0:0:
300,124,131199,6,0,L|400:124,1,100,4|8,0:0|0:0,0:0:0:0:
500,140,132056,1,0,0:0:0:0:
508,240,132485,2,0,L|500:296,1,50,8|8,0:0|0:0,0:0:0:0:
484,336,132914,6,0,L|438:369,1,50,4|4,0:0|0:0,0:0:0:0:
316,288,133771,1,8,0:0:0:0:
228,332,134199,1,0,0:0:0:0:
140,288,134628,6,0,L|88:288,1,50,4|4,0:0|0:0,0:0:0:0:
100,188,135271,2,0,L|48:188,2,50,8|0|8,0:0|0:0|0:0,0:0:0:0:
149,179,135914,2,0,L|205:187,1,50,0|4,0:0|0:3,0:0:0:0:
248,196,136342,5,4,0:0:0:0:
332,250,136771,1,0,0:0:0:0:
409,187,137199,1,2,0:2:0:0:
374,94,137628,1,2,0:2:0:0:
273,99,138056,6,0,L|212:92,1,50,0|8,0:0|0:0,0:0:0:0:
172,88,138485,2,0,L|111:95,1,50,0|8,0:0|0:0,0:0:0:0:
72,100,138914,1,8,0:0:0:0:
28,192,139342,1,8,0:0:0:0:
72,284,139771,1,2,0:0:0:0:
172,280,151128,6,0,L|232:280,1,50,0|12,1:0|0:2,0:0:0:0:
320,292,151771,2,0,P|369:274|405:240,1,100
403,141,152628,2,0,P|367:108|320:92,1,100,2|8,0:2|0:0,0:0:0:0:
272,84,153271,1,8,0:0:0:0:
224,84,153485,5,12,0:0:0:0:
141,142,153914,1,0,0:0:0:0:
141,242,154342,1,0,0:0:0:0:
224,300,154771,1,0,0:0:0:0:
256,192,155199,12,0,156914,0:0:0:0:
108,264,157771,5,8,0:0:0:0:
108,164,158199,1,12,0:2:0:0:
148,72,158628,6,0,P|188:36|232:24,1,100,6|10,0:0|0:0,0:0:0:0:
332,16,159485,2,0,L|390:22,1,50,2|2,0:0|2:0,0:0:0:0:
431,30,159914,1,10,0:0:0:0:
472,56,160128,2,2,P|480:100|472:172,1,100,2|2,2:1|2:0,0:0:0:0:
417,237,160985,1,2,2:0:0:0:
368,244,161199,2,2,P|296:244|264:240,1,100,2|8,0:0|0:0,0:0:0:0:
172,216,162056,5,2,0:0:0:0:
76,248,162485,1,10,0:0:0:0:
12,172,162914,2,0,P|8:148|8:120,1,50,2|2,0:0|2:0,0:0:0:0:
15,73,163342,2,0,L|27:21,1,50,8|2,0:0|2:1,0:0:0:0:
128,20,163985,2,0,L|184:24,2,50,2|8|2,2:0|0:0|2:1,0:0:0:0:
144,120,164842,1,0,0:0:0:0:
192,120,165056,2,0,L|248:116,1,50,10|8,0:0|0:0,0:0:0:0:
288,100,165485,6,0,P|330:61|371:52,1,100,6|10,0:0|0:0,0:0:0:0:
421,138,166342,2,0,P|385:172|337:185,1,100,2|8,0:0|0:0,0:0:0:0:
287,186,166985,2,2,B|231:190|231:190|183:186,1,100,2|2,2:1|2:0,0:0:0:0:
96,144,167842,1,2,2:0:0:0:
72,188,168056,2,2,L|52:292,1,100,2|8,0:0|0:0,0:0:0:0:
56,336,168699,1,2,2:0:0:0:
87,374,168914,5,0,0:0:0:0:
174,325,169342,1,10,0:2:0:0:
274,325,169771,1,0,0:0:0:0:
361,374,170199,1,10,0:0:0:0:
456,344,170628,2,0,L|497:304,1,50,0|8,0:0|0:0,0:0:0:0:
508,261,171056,2,0,L|510:203,1,50,0|8,0:0|0:0,0:0:0:0:
509,161,171485,1,14,0:2:0:0:
484,64,171914,1,14,0:2:0:0:
413,134,172342,6,0,P|361:140|312:128,1,100,6|10,0:0|0:0,0:0:0:0:
224,92,173199,1,2,0:0:0:0:
176,80,173414,2,0,P|144:75|112:76,2,50,2|10|2,2:0|0:0|2:0,0:0:0:0:
138,172,174271,2,0,L|86:172,2,50,2|8|2,2:0|0:0|2:0,0:0:0:0:
176,264,175128,2,0,P|144:269|112:268,2,50,2|10|2,2:0|0:0|2:1,0:0:0:0:
224,252,175771,6,0,L|344:256,1,100,0|10,0:0|0:0,0:0:0:0:
416,216,176628,2,0,L|420:96,1,100,0|10,0:0|0:0,0:0:0:0:
392,20,177485,2,0,P|336:8|296:20,1,100,0|10,0:0|0:0,0:0:0:0:
252,44,178128,1,2,2:0:0:0:
217,80,178342,2,0,L|181:120,2,50,0|0|8,0:0|0:0|0:0,0:0:0:0:
312,116,179199,5,6,0:0:0:0:
320,216,179628,1,14,0:0:0:0:
292,312,180056,1,2,0:0:0:0:
252,344,180271,2,0,P|228:352|202:353,1,50,2|10,2:0|0:0,0:0:0:0:
156,344,180699,1,2,2:1:0:0:
116,252,181128,1,2,2:0:0:0:
112,204,181342,2,0,L|112:144,1,50,10|2,0:0|2:1,0:0:0:0:
200,104,181985,1,2,2:0:0:0:
204,152,182199,2,0,L|204:212,1,50,10|2,0:0|2:1,0:0:0:0:
204,252,182628,5,0,0:0:0:0:
292,296,183056,1,8,0:0:0:0:
380,252,183485,1,0,0:0:0:0:
468,296,183914,2,0,L|509:323,1,50,4|8,3:0|0:0,0:0:0:0:
104,320,186485,5,0,0:0:0:0:
68,228,186914,1,0,0:0:0:0:
68,128,187342,2,0,L|76:76,1,50,0|8,0:0|0:0,0:0:0:0:
88,28,187771,5,6,0:0:0:0:
188,36,188199,2,2,B|225:39|225:39|257:34|257:34|293:38,1,100,10|0,0:0|0:0,0:0:0:0:
383,64,189056,1,10,0:0:0:0:
433,71,189271,2,0,P|481:57|510:19,2,100,2|2|2,2:1|2:1|2:1,0:0:0:0:
402,110,190342,2,2,B|400:136|400:136|404:156|404:156|400:184|400:184|400:216,1,100,2|10,0:0|0:0,0:0:0:0:
396,308,191199,5,2,0:0:0:0:
320,372,191628,2,2,P|264:376|220:368,1,100,10|0,0:0|0:0,0:0:0:0:
176,344,192271,2,0,L|132:320,1,50,2|10,2:0|0:0,0:0:0:0:
92,228,192914,2,0,P|91:193|96:168,1,50,0|2,0:0|2:0,0:0:0:0:
104,128,193342,2,0,P|148:98|197:81,1,100,10|2,0:0|0:2,0:0:0:0:
239,67,193985,1,2,0:0:0:0:
288,72,194199,1,10,0:0:0:0:
368,132,194628,6,0,P|368:180|372:240,1,100,6|10,0:0|0:0,0:0:0:0:
408,324,195485,2,0,P|436:328|464:328,2,50,0|2|10,0:0|2:0|0:0,0:0:0:0:
360,312,196128,1,2,2:1:0:0:
272,264,196556,2,0,B|216:260|216:260|168:268,1,100,2|2,2:1|2:1,0:0:0:0:
124,272,197199,2,2,B|96:276|96:276|72:276|72:276|16:288,1,100,2|10,0:0|0:0,0:0:0:0:
76,372,198056,5,0,0:0:0:0:
176,356,198485,1,10,0:0:0:0:
260,300,198914,1,2,0:2:0:0:
344,352,199342,1,8,0:0:0:0:
428,296,199771,2,0,L|464:256,1,50,2|8,0:0|0:0,0:0:0:0:
476,212,200199,2,0,L|482:158,1,50,2|8,0:0|0:0,0:0:0:0:
481,112,200628,1,12,0:2:0:0:
412,40,201056,1,12,0:2:0:0:
316,16,201485,6,0,P|265:32|232:67,1,100,6|10,0:0|0:0,0:0:0:0:
216,164,202342,2,0,P|216:200|220:224,1,50,0|2,0:0|2:0,0:0:0:0:
228,264,202771,1,10,0:0:0:0:
230,313,202985,2,2,P|194:349|142:357,1,100,2|2,2:1|2:1,0:0:0:0:
48,336,203842,1,2,2:1:0:0:
40,288,204056,6,0,P|38:256|41:236,2,50,0|2|8,0:0|2:1|0:0,0:0:0:0:
88,304,204699,2,2,B|116:300|116:300|144:304|144:304|168:300|168:300|196:304,1,100,2|0,2:1|2:0,0:0:0:0:
236,308,205342,2,2,B|264:312|264:312|292:308|292:308|316:312|316:312|344:308,1,100,10|0,0:0|0:0,0:0:0:0:
432,292,206199,1,10,0:0:0:0:
440,244,206414,2,2,B|444:216|444:216|436:184|436:184|439:144,1,100,2|2,2:1|2:1,0:0:0:0:
498,62,207271,1,2,2:1:0:0:
452,44,207485,2,0,P|404:48|360:80,1,100,2|10,0:0|0:0,0:0:0:0:
340,121,208128,1,8,0:0:0:0:
332,172,208342,6,0,L|328:284,1,100,6|8,0:0|0:0,0:0:0:0:
228,272,209199,2,0,L|231:172,1,100,2|8,0:0|0:0,0:0:0:0:
220,72,210056,2,2,P|172:44|116:48,1,100,2|10,0:0|0:0,0:0:0:0:
84,64,210699,1,0,2:0:0:0:
56,104,210914,2,2,B|52:140|52:140|56:156|56:156|52:176|52:176|52:220,1,100,2|8,0:0|0:0,0:0:0:0:
48,304,211771,5,0,0:0:0:0:
136,257,212199,1,10,0:0:0:0:
236,268,212628,1,2,0:2:0:0:
312,332,213056,1,8,0:0:0:0:
400,376,213485,2,2,P|468:364|492:340,1,100,2|8,0:0|0:0,0:0:0:0:
500,296,214128,2,0,L|498:240,1,50,4|10,3:0|0:0,0:0:0:0:
488,148,214771,1,12,0:2:0:0:
