osu file format v14

[General]
AudioFilename: audio.mp3
AudioLeadIn: 0
PreviewTime: 93737
Countdown: 0
SampleSet: Soft
StackLeniency: 0.7
Mode: 0
LetterboxInBreaks: 0
WidescreenStoryboard: 0

[Editor]
DistanceSpacing: 0.9
BeatDivisor: 4
GridSize: 4
TimelineZoom: 1.4

[Metadata]
Title:Ifuudoudou
TitleUnicode:威風堂々
Artist:Sharlo
ArtistUnicode:Sharlo
Creator:Chaoslitz
Version:Normal
Source:
Tags:夏萝 梅とら idol umetora moans vocaloid
BeatmapID:959587
BeatmapSetID:445251

[Difficulty]
HPDrainRate:4
CircleSize:3
OverallDifficulty:4
ApproachRate:5
SliderMultiplier:1.2
SliderTickRate:1

[Events]
//Background and Video events
0,0,"bg.jpg",0,0
//Break Periods
2,118168,124614
//Storyboard Layer 0 (Background)
//Storyboard Layer 1 (Fail)
//Storyboard Layer 2 (Pass)
//Storyboard Layer 3 (Foreground)
//Storyboard Sound Samples

[TimingPoints]
11353,461.538461538462,4,2,1,40,1,0
11814,-100,4,2,1,40,0,0
12737,-100,4,2,1,50,0,0
13660,-100,4,2,1,60,0,0
14583,-100,4,2,1,70,0,0
15045,-100,4,2,1,40,0,0
15506,-100,4,2,1,40,0,0
16429,-100,4,2,1,50,0,0
17353,-100,4,2,1,60,0,0
18276,-100,4,2,1,70,0,0
18737,-100,4,2,1,70,0,0
32583,-100,4,2,1,60,0,0
33045,-100,4,2,1,50,0,0
33506,-100,4,2,1,70,0,0
47122,-100,4,2,1,70,0,0
48276,-100,4,2,1,80,0,1
63045,-100,4,2,1,40,0,0
63506,-100,4,2,1,40,0,0
64429,-100,4,2,1,50,0,0
65353,-100,4,2,1,60,0,0
66276,-100,4,2,1,70,0,0
66737,-100,4,2,1,40,0,0
67199,-100,4,2,1,40,0,0
68122,-100,4,2,1,50,0,0
69045,-100,4,2,1,60,0,0
70429,-100,4,2,1,70,0,0
76891,-100,4,2,1,100,0,0
77353,-100,4,2,1,100,0,0
78276,-100,4,2,1,100,0,0
78737,-100,4,2,1,100,0,0
79199,-100,4,2,1,100,0,0
80583,-100,4,2,1,100,0,0
81506,-100,4,2,1,100,0,0
94429,-100,4,2,1,80,0,1
109083,-100,4,2,1,80,0,0
109199,-100,4,2,1,80,0,1
116583,-100,4,2,1,40,0,0
116814,-100,4,2,1,50,0,0
117045,-100,4,2,1,60,0,0
117276,-100,4,2,1,70,0,0
118429,-100,4,2,1,60,0,0
125814,-100,4,2,2,70,0,0
140583,-100,4,2,1,70,0,0
151660,-100,4,2,2,70,0,0
153506,-100,4,2,1,70,0,0
155353,-100,4,2,1,80,0,1
170006,-100,4,2,1,80,0,0
170122,-100,4,2,1,80,0,1
181199,-100,4,2,1,40,0,0
181660,-100,4,2,1,40,0,0
182583,-100,4,2,1,50,0,0
183506,-100,4,2,1,60,0,0
184429,-100,4,2,1,70,0,0
185353,-100,4,2,1,40,0,0
186276,-100,4,2,1,50,0,0
187199,-100,4,2,1,60,0,0
188122,-100,4,2,1,70,0,0

[Colours]
Combo1 : 125,183,255
Combo2 : 237,135,150
Combo3 : 154,115,198

[HitObjects]
58,193,11352,6,0,P|63:238|65:265,1,60,4|4,0:0|0:0,0:0:0:0:
65,304,11814,2,0,P|120:282|179:288,1,120,2|0,0:0|0:0,0:0:0:0:
227,312,12506,1,0,0:0:0:0:
280,301,12737,2,0,P|310:303|340:307,2,60,2|0|0,0:0|0:0|0:0,0:0:0:0:
230,205,13660,2,0,P|293:203|359:198,1,120,2|0,0:0|0:0,0:0:0:0:
398,175,14353,1,0,0:0:0:0:
448,194,14583,2,0,P|442:238|439:271,2,60,2|0|4,0:0|0:0|0:0,0:0:0:0:
467,89,15506,6,0,P|416:58|358:69,1,120,2|0,0:0|0:0,0:0:0:0:
315,101,16199,1,0,0:0:0:0:
267,76,16429,2,0,P|271:30|271:8,2,60,2|0|0,0:0|0:0|0:0,0:0:0:0:
191,154,17353,2,0,L|181:285,1,120,2|0,0:0|0:0,0:0:0:0:
166,325,18045,1,0,0:0:0:0:
115,343,18276,2,0,P|83:343|38:334,1,60,2|0,0:0|0:0,0:0:0:0:
24,294,18737,6,0,P|9:236|25:179,1,120,4|8,0:0|0:0,0:0:0:0:
98,100,19660,2,0,P|94:52|92:23,2,60,0|0|8,0:0|0:0|0:0,0:0:0:0:
191,154,20583,2,0,P|256:150|325:145,1,120,0|8,0:0|0:0,0:0:0:0:
357,118,21276,1,0,0:0:0:0:
399,151,21506,2,0,P|402:200|403:226,1,60,2|0,0:0|0:0,0:0:0:0:
419,262,21968,2,0,P|416:313|414:330,1,60,10|0,0:0|0:0,0:0:0:0:
377,360,22429,6,0,P|326:329|258:333,1,120,4|8,0:0|0:0,0:0:0:0:
184,259,23353,2,0,P|159:255|122:252,2,60,0|0|8,0:0|0:0|0:0,0:0:0:0:
285,222,24276,2,0,L|279:91,1,120,0|8,0:0|0:0,0:0:0:0:
254,54,24968,1,0,0:0:0:0:
200,61,25199,2,0,P|161:67|133:67,1,60,2|0,0:0|0:0,0:0:0:0:
107,110,25660,2,0,P|64:107|25:116,1,60,2|0,0:0|0:0,0:0:0:0:
22,157,26122,6,0,P|6:214|23:271,1,120,0|2,0:0|0:0,0:0:0:0:
104,342,27045,2,0,P|81:361|53:371,2,60,0|0|2,0:0|0:0|0:0,0:0:0:0:
142,303,27737,1,0,0:0:0:0:
195,313,27968,2,0,P|254:309|314:305,1,120,0|2,0:0|0:0,0:0:0:0:
414,264,28891,2,0,P|418:223|420:191,1,60,0|0,0:0|0:0,0:0:0:0:
379,167,29353,2,0,P|383:126|385:94,1,60,2|0,0:0|0:0,0:0:0:0:
388,53,29814,5,0,0:0:0:0:
288,13,30276,1,2,0:0:0:0:
219,96,30737,2,0,P|213:141|211:170,2,60,0|0|2,0:0|0:0|0:0,0:0:0:0:
184,54,31429,1,0,0:0:0:0:
133,72,31660,2,0,P|99:125|101:193,1,120,0|0,0:0|0:0,0:0:0:0:
128,284,32583,2,0,P|189:278|248:274,1,120,2|4,0:0|0:3,0:0:0:0:
316,357,33506,6,0,P|374:365|437:334,1,120,4|2,3:0|0:0,0:0:0:0:
453,235,34429,2,0,P|492:239|526:242,2,60,0|0|2,0:0|0:0|0:0,0:0:0:0:
399,244,35122,1,0,0:0:0:0:
351,217,35353,2,0,P|355:151|358:96,1,120,0|2,0:0|0:0,0:0:0:0:
266,40,36276,2,0,P|236:32|206:31,1,60,0|0,0:0|0:0,0:0:0:0:
167,68,36737,2,0,P|137:72|107:71,1,60,2|0,0:0|0:0,0:0:0:0:
55,56,37199,5,0,0:0:0:0:
10,154,37660,1,2,0:0:0:0:
96,218,38122,2,0,P|131:215|165:214,1,60,0|0,0:0|0:0,0:0:0:0:
197,248,38583,2,0,P|236:243|264:242,1,60,2|0,0:0|0:0,0:0:0:0:
306,264,39045,2,0,P|291:320|317:373,2,120,0|0|2,0:0|0:0|0:0,0:0:0:0:
359,254,40199,2,0,P|371:286|381:316,2,60,0|2|0,0:0|0:0|0:0,0:0:0:0:
386,207,40891,5,2,0:0:0:0:
348,105,41353,2,0,P|313:108|286:113,1,60,0|2,0:0|0:0,0:0:0:0:
243,142,41814,2,0,P|184:137|110:131,1,120,0|2,0:0|0:0,0:0:0:0:
80,98,42506,1,0,0:0:0:0:
29,118,42737,2,0,P|9:164|35:251,1,120,2|2,0:0|0:0,0:0:0:0:
108,294,43660,2,0,P|103:333|100:366,2,60,0|0|2,0:0|0:0|0:0,0:0:0:0:
194,229,44583,6,0,P|259:225|317:224,1,120,2|0,0:0|0:0,0:0:0:0:
359,254,45276,1,2,0:0:0:0:
412,246,45506,2,0,P|432:190|421:132,1,120,0|2,0:0|0:0,0:0:0:0:
366,39,46429,2,0,P|311:16|253:28,1,120,0|0,0:0|0:0,0:0:0:0:
207,56,47122,2,0,P|202:115|198:175,1,120,2|2,0:0|0:0,0:0:0:0:
194,229,47814,1,2,0:0:0:0:
227,331,48276,6,0,P|292:334|359:340,2,120,4|8|2,0:0|0:0|0:0,0:0:0:0:
179,356,49429,1,0,0:0:0:0:
128,336,49660,2,0,P|89:330|66:326,1,60,8|0,0:0|0:0,0:0:0:0:
32,284,50122,2,0,P|19:227|37:170,1,120,0|8,0:0|0:0,0:0:0:0:
119,99,51045,1,2,0:0:0:0:
169,119,51276,2,0,P|174:163|177:199,2,60,0|8|0,0:0|0:0|0:0,0:0:0:0:
215,91,51968,6,0,P|270:70|327:85,1,120,0|8,0:0|0:0,0:0:0:0:
421,138,52891,2,0,P|418:168|415:198,1,60,2|0,0:0|0:0,0:0:0:0:
371,230,53353,2,0,P|368:260|365:290,1,60,8|0,0:0|0:0,0:0:0:0:
340,338,53814,2,0,P|402:331|465:328,2,120,0|8|2,0:0|0:0|0:0,0:0:0:0:
270,255,55199,1,8,0:0:0:0:
182,316,55660,6,0,P|137:311|109:310,1,60,4|0,0:0|0:0,0:0:0:0:
80,275,56122,2,0,P|42:281|12:283,2,60,4|0|6,0:0|0:0|0:0,0:0:0:0:
37,175,57045,1,8,0:0:0:0:
129,119,57506,2,0,P|132:89|136:60,1,60,4|0,0:0|0:0,0:0:0:0:
176,23,57968,2,0,P|212:19|244:27,1,60,4|0,0:0|0:0,0:0:0:0:
284,46,58429,1,6,0:0:0:0:
391,31,58891,1,8,0:0:0:0:
382,138,59353,6,0,P|415:135|453:125,2,60,4|0|4,0:0|0:0|0:0,0:0:0:0:
328,131,60045,1,0,0:0:0:0:
285,164,60276,2,0,P|259:217|266:278,1,120,4|8,0:0|0:0,0:0:0:0:
337,360,61199,2,0,P|370:361|397:361,1,60,4|0,0:0|0:0,0:0:0:0:
443,334,61660,2,0,P|447:300|449:274,1,60,4|2,0:0|0:0,0:0:0:0:
467,223,62122,2,0,P|411:244|350:233,2,120,6|10|4,0:0|0:0|0:0,0:0:0:0:
402,137,63506,5,2,0:0:0:0:
323,62,63968,2,0,P|284:58|242:54,1,60,0|0,0:0|0:0,0:0:0:0:
219,88,64429,2,0,P|189:92|160:91,1,60,2|0,0:0|0:0,0:0:0:0:
106,78,64891,1,0,0:0:0:0:
39,160,65353,2,0,P|25:216|50:270,1,120,2|0,0:0|0:0,0:0:0:0:
95,300,66045,1,0,0:0:0:0:
138,267,66276,2,0,P|179:263|214:262,2,60,2|0|4,0:0|0:0|0:0,0:0:0:0:
204,352,67199,6,0,P|257:345|324:341,1,120,2|0,0:0|0:0,0:0:0:0:
376,352,67891,1,0,0:0:0:0:
407,308,68122,2,0,P|404:278|402:248,2,60,2|0|0,0:0|0:0|0:0,0:0:0:0:
504,354,69045,2,0,L|494:228,1,120,2|0,0:0|3:0,0:0:0:0:
432,145,69968,1,0,3:0:0:0:
332,185,70429,6,0,P|272:176|213:169,1,120,0|2,0:0|0:0,0:0:0:0:
108,195,71353,2,0,P|115:242|119:269,2,60,0|0|2,0:0|0:0|0:0,0:0:0:0:
72,154,72045,1,0,0:0:0:0:
80,99,72276,2,0,P|121:59|179:67,1,120,0|2,0:0|0:0,0:0:0:0:
213,169,73199,2,0,P|211:201|208:228,1,60,0|0,0:0|0:0,0:0:0:0:
247,267,73660,2,0,P|241:320|238:351,1,60,2|0,0:0|0:0,0:0:0:0:
280,364,74122,5,0,0:0:0:0:
370,304,74583,1,2,0:0:0:0:
478,307,75045,2,0,P|484:346|487:371,2,60,0|0|2,0:0|0:0|0:0,0:0:0:0:
449,261,75737,1,0,0:0:0:0:
472,212,75968,2,0,P|475:174|477:148,1,60,0|2,0:0|0:0,0:0:0:0:
482,98,76429,2,0,P|456:78|412:62,1,60,0|2,0:0|0:0,0:0:0:0:
380,47,76891,2,0,P|364:76|281:90,1,120,2|4,0:0|0:3,0:0:0:0:
233,73,77583,1,0,0:0:0:0:
190,106,77814,6,0,P|134:102|70:97,2,120,6|0|2,0:0|3:0|0:0,0:0:0:0:
233,205,79199,2,0,P|189:201|156:199,1,60,0|0,3:0|0:0,0:0:0:0:
137,240,79660,2,0,P|81:236|17:231,2,120,2|0|2,0:0|3:0|0:0,0:0:0:0:
201,326,81045,2,0,P|230:328|260:331,1,60,0|2,0:0|0:0,0:0:0:0:
312,346,81506,6,0,P|367:328|393:276,1,120,2|0,0:0|3:0,0:0:0:0:
340,184,82429,2,0,P|344:132|351:96,2,60,2|0|0,0:0|0:0|3:0,0:0:0:0:
233,205,83353,2,0,P|236:137|247:72,1,120,2|0,0:0|3:0,0:0:0:0:
277,43,84045,1,0,0:0:0:0:
329,27,84276,2,0,P|387:35|428:77,1,120,2|2,0:0|0:0,0:0:0:0:
434,185,85199,6,0,P|436:234|440:323,1,120,2|0,0:0|0:0,0:0:0:0:
402,344,85891,1,2,0:0:0:0:
348,351,86122,2,0,P|316:339|284:331,1,60,0|0,0:0|0:0,0:0:0:0:
238,343,86583,2,0,P|204:349|171:351,1,60,2|0,0:0|0:0,0:0:0:0:
129,329,87045,2,0,P|98:274|107:211,1,120,2|0,0:0|0:0,0:0:0:0:
132,173,87737,1,0,0:0:0:0:
167,132,87968,2,0,P|163:87|160:55,2,60,2|0|2,0:0|0:0|0:0,0:0:0:0:
260,186,88891,6,0,P|264:103|266:53,1,120,2|0,0:0|0:0,0:0:0:0:
311,37,89583,1,2,0:0:0:0:
362,54,89814,2,0,P|401:51|434:48,2,60,0|2|2,0:0|0:0|0:0,0:0:0:0:
356,161,90737,2,0,P|354:197|352:244,1,60,2|0,0:0|0:0,0:0:0:0:
376,269,91199,2,0,P|371:307|366:337,1,60,2|0,0:0|0:0,0:0:0:0:
316,346,91660,2,0,P|282:338|239:331,1,60,2|0,0:0|0:0,0:0:0:0:
206,351,92122,2,0,P|176:348|146:344,1,60,2|0,0:0|0:0,0:0:0:0:
99,316,92583,6,0,P|94:272|92:253,1,60,0|0,3:0|3:0,0:0:0:0:
103,203,93045,2,0,P|105:161|108:125,2,60,0|0|0,3:0|3:0|3:0,0:0:0:0:
194,259,93968,1,2,0:0:0:0:
246,164,94429,6,0,P|243:108|239:40,2,120,4|8|2,0:0|0:0|0:0,0:0:0:0:
285,201,95583,1,0,0:0:0:0:
312,247,95814,2,0,P|309:289|308:313,1,60,8|0,0:0|0:0,0:0:0:0:
347,343,96276,2,0,P|400:334|427:258,1,120,0|8,0:0|0:0,0:0:0:0:
391,178,97199,1,2,0:0:0:0:
411,128,97429,2,0,P|458:123|481:122,2,60,0|8|0,0:0|0:0|0:0,0:0:0:0:
382,81,98122,6,0,P|322:76|246:70,1,120,0|8,0:0|0:0,0:0:0:0:
159,37,99045,2,0,P|155:72|157:102,1,60,2|0,0:0|0:0,0:0:0:0:
122,138,99506,2,0,P|126:187|126:200,1,60,8|0,0:0|0:0,0:0:0:0:
138,249,99968,2,0,P|85:224|27:234,2,120,0|8|2,0:0|0:0|0:0,0:0:0:0:
204,336,101353,1,8,0:0:0:0:
277,256,101814,6,0,P|335:253|360:253,1,60,4|0,0:0|0:0,0:0:0:0:
383,281,102276,2,0,P|380:307|377:342,2,60,4|0|4,0:0|0:0|0:0,0:0:0:0:
433,185,103199,1,8,0:0:0:0:
335,139,103660,2,0,P|330:94|328:70,1,60,4|0,0:0|0:0,0:0:0:0:
285,46,104122,2,0,P|255:40|213:42,1,60,4|0,0:0|0:0,0:0:0:0:
172,52,104583,1,4,0:0:0:0:
181,159,105045,1,8,0:0:0:0:
76,131,105506,6,0,P|70:101|67:71,2,60,4|0|4,0:0|0:0|0:0,0:0:0:0:
84,184,106199,1,0,0:0:0:0:
52,227,106429,2,0,P|50:295|101:347,1,120,4|8,0:0|0:0,0:0:0:0:
171,277,107353,2,0,P|218:272|249:270,1,60,4|0,0:0|0:0,0:0:0:0:
276,299,107814,2,0,P|321:300|345:301,1,60,4|0,0:0|0:0,0:0:0:0:
385,321,108276,2,0,P|422:313|454:236,1,120,4|8,0:0|0:0,0:0:0:0:
367,181,109199,6,0,P|369:122|373:51,1,120,4|2,0:0|0:0,0:0:0:0:
334,22,109891,1,0,0:0:0:0:
284,41,110122,2,0,P|254:48|224:49,1,60,2|0,0:0|0:0,0:0:0:0:
187,88,110583,2,0,P|144:83|110:82,1,60,0|2,0:0|0:0,0:0:0:0:
87,119,111045,2,0,P|58:156|71:241,1,120,0|0,0:0|0:0,0:0:0:0:
135,304,111968,2,0,P|128:336|121:362,2,60,2|0|0,0:0|0:0|0:0,0:0:0:0:
172,265,112660,1,2,0:0:0:0:
221,286,112891,6,0,P|267:282|297:279,1,60,4|2,0:0|0:0,0:0:0:0:
334,278,113353,2,0,P|338:236|340:197,1,60,0|0,0:0|0:0,0:0:0:0:
305,175,113814,2,0,P|309:128|309:105,1,60,2|0,0:0|0:0,0:0:0:0:
337,68,114276,2,0,P|373:54|411:61,1,60,0|2,0:0|0:0,0:0:0:0:
444,74,114737,2,0,P|467:127|447:182,1,120,2|2,0:0|0:0,0:0:0:0:
339,218,115660,2,0,P|277:209|201:202,1,120,2|2,0:0|0:0,0:0:0:0:
256,192,116583,12,0,117968,3:0:0:0:
40,337,125814,6,0,P|19:279|26:216,1,120,0|2,0:0|0:0,0:0:0:0:
42,115,126737,2,0,P|71:111|101:110,1,60
136,68,127199,2,0,P|172:69|211:70,1,60,2|2,0:0|0:0,0:0:0:0:
250,70,127660,2,0,P|302:53|373:60,1,120,0|2,0:0|0:0,0:0:0:0:
392,156,128583,2,0,P|394:185|396:215,2,60,0|0|2,0:0|0:0|0:0,0:0:0:0:
483,98,129506,6,0,L|494:241,1,120,0|2,0:0|0:0,0:0:0:0:
437,310,130429,2,0,L|369:315,1,60,0|0,0:0|0:0,0:0:0:0:
328,291,130891,2,0,L|260:286,1,60,2|2,0:0|0:0,0:0:0:0:
225,319,131353,2,0,P|172:330|105:303,1,120,0|0,0:0|0:0,0:0:0:0:
102,200,132276,2,0,P|62:205|36:208,2,60,0|0|2,0:0|0:0|0:0,0:0:0:0:
108,92,133199,6,0,P|64:96|19:100,2,90,4|2|0,0:0|0:0|0:0,0:0:0:0:
153,62,134122,2,0,P|201:66|221:66,1,60,0|2,0:0|0:0,0:0:0:0:
257,96,134583,2,0,P|299:88|331:86,1,60,10|0,0:0|0:0,0:0:0:0:
364,110,135045,2,0,P|359:154|354:199,2,90,0|2|0,0:0|0:0|0:0,0:0:0:0:
411,84,135968,1,0,0:0:0:0:
464,177,136429,1,10,0:0:0:0:
420,275,136891,6,0,P|467:281|513:290,2,90,2|2|0,0:0|0:0|0:0,0:0:0:0:
371,301,137814,2,0,P|341:301|313:293,1,60,0|2,0:0|0:0,0:0:0:0:
260,276,138276,2,0,P|230:272|201:273,1,60,8|0,0:0|0:0,0:0:0:0:
146,266,138737,2,0,P|153:309|159:362,2,90,0|2|0,0:0|0:0|0:0,0:0:0:0:
96,243,139660,1,0,0:0:0:0:
20,165,140122,2,0,P|24:123|27:99,1,60,2|2,0:0|0:0,0:0:0:0:
55,60,140583,6,0,P|112:49|174:90,1,120,6|8,0:0|0:0,0:0:0:0:
189,125,141276,1,0,0:0:0:0:
182,178,141506,2,0,P|243:173|316:172,1,120,0|8,0:0|0:0,0:0:0:0:
346,142,142199,1,0,0:0:0:0:
394,165,142429,2,0,P|391:223|345:265,2,120,2|10|0,0:0|0:0|0:0,0:0:0:0:
434,64,143814,2,0,P|399:51|369:51,1,60,10|0,0:0|0:0,0:0:0:0:
325,68,144276,6,0,P|262:61|196:53,1,120,2|8,0:0|0:0,0:0:0:0:
151,56,144968,1,0,0:0:0:0:
105,85,145199,2,0,P|77:141|92:209,1,120,2|8,0:0|0:0,0:0:0:0:
120,237,145891,1,2,0:0:0:0:
167,263,146122,2,0,P|225:258|289:251,1,120,2|8,0:0|0:0,0:0:0:0:
391,246,147045,2,0,P|382:299|372:353,2,80,4|4|4,0:0|0:0|0:0,0:0:0:0:
343,179,147968,6,0,P|338:116|333:39,1,120,4|8,0:0|0:0,0:0:0:0:
291,26,148660,1,0,0:0:0:0:
241,47,148891,2,0,P|210:44|175:41,1,60,0|2,0:0|0:0,0:0:0:0:
139,76,149353,2,0,P|108:79|73:82,1,60,8|0,0:0|0:0,0:0:0:0:
35,113,149814,2,0,P|25:154|42:233,1,120,2|8,0:0|0:0,0:0:0:0:
82,262,150506,2,0,P|121:256|159:254,1,60,2|0,0:0|0:0,0:0:0:0:
246,226,151199,2,0,P|255:270|257:289,1,60,10|2,0:0|0:0,0:0:0:0:
274,336,151660,6,0,P|366:357|444:310,1,180,0|0,0:0|0:0,0:0:0:0:
451,265,152583,2,0,P|480:268|510:271,2,60,0|2|0,0:0|0:0|0:0,0:0:0:0:
345,240,153506,2,0,P|348:193|350:166,1,60,0|2,0:0|0:0,0:0:0:0:
314,138,153968,2,0,P|311:87|309:61,2,60,2|2|6,0:0|0:0|0:0,0:0:0:0:
248,224,154891,1,2,0:0:0:0:
278,327,155353,6,0,P|343:340|401:316,2,120,4|8|2,0:0|0:0|0:0,0:0:0:0:
225,315,156506,1,0,0:0:0:0:
172,326,156737,2,0,P|132:329|105:333,1,60,8|0,0:0|0:0,0:0:0:0:
63,307,157199,2,0,P|37:253|42:192,1,120,0|8,0:0|0:0,0:0:0:0:
111,109,158122,1,2,0:0:0:0:
156,137,158352,2,0,P|161:184|162:207,2,60,0|8|0,0:0|0:0|0:0,0:0:0:0:
195,99,159045,6,0,P|253:83|320:91,1,120,0|8,0:0|0:0,0:0:0:0:
403,146,159968,2,0,P|399:181|397:211,1,60,2|0,0:0|0:0,0:0:0:0:
353,237,160429,2,0,P|349:286|349:299,1,60,8|0,0:0|0:0,0:0:0:0:
337,348,160891,2,0,P|390:323|448:333,2,120,0|8|2,0:0|0:0|0:0,0:0:0:0:
250,282,162276,1,8,0:0:0:0:
157,337,162737,6,0,P|127:337|97:340,1,60,4|0,0:0|0:0,0:0:0:0:
59,301,163199,2,0,P|29:303|0:306,2,60,4|0|4,0:0|0:0|0:0,0:0:0:0:
149,242,164122,1,8,0:0:0:0:
66,172,164583,2,0,P|61:127|59:103,1,60,4|0,0:0|0:0,0:0:0:0:
82,63,165045,2,0,P|111:57|141:58,1,60,4|0,0:0|0:0,0:0:0:0:
194,67,165506,1,4,0:0:0:0:
262,150,165968,1,8,0:0:0:0:
343,79,166429,6,0,P|337:49|334:19,2,60,4|0|4,0:0|0:0|0:0,0:0:0:0:
394,97,167122,1,0,0:0:0:0:
443,118,167352,2,0,P|445:186|394:238,1,120,4|8,0:0|0:0,0:0:0:0:
311,255,168276,2,0,P|281:257|251:260,1,60,4|0,0:0|0:0,0:0:0:0:
220,305,168737,2,0,P|175:306|151:307,1,60,8|2,0:0|0:0,0:0:0:0:
113,334,169199,2,0,P|76:326|44:249,1,120,2|10,0:0|0:0,0:0:0:0:
64,151,170122,6,0,P|123:153|194:157,1,120,4|2,0:0|0:0,0:0:0:0:
230,183,170814,1,2,0:0:0:0:
280,164,171045,2,0,P|278:133|282:103,1,60,2|0,0:0|0:0,0:0:0:0:
309,57,171506,2,0,P|347:51|386:53,1,60,2|0,0:0|0:0,0:0:0:0:
421,62,171968,2,0,P|450:99|437:184,1,120,0|0,0:0|0:0,0:0:0:0:
387,259,172891,2,0,P|394:291|401:317,2,60,2|0|0,0:0|0:0|0:0,0:0:0:0:
342,228,173583,1,2,0:0:0:0:
297,258,173814,6,0,P|251:254|221:251,1,60,0|2,0:0|0:0,0:0:0:0:
193,284,174276,2,0,P|151:288|112:290,1,60,0|2,0:0|0:0,0:0:0:0:
83,268,174737,2,0,P|79:221|79:198,1,60,2|0,0:0|0:0,0:0:0:0:
109,163,175199,2,0,P|111:130|111:103,1,60,2|2,0:0|0:0,0:0:0:0:
143,59,175660,2,0,P|193:33|257:44,1,120,2|2,0:0|0:0,0:0:0:0:
337,108,176583,2,0,P|340:170|342:229,1,120,0|2,0:0|0:0,0:0:0:0:
342,335,177506,6,0,P|283:319|223:316,1,120,0|0,0:0|0:0,0:0:0:0:
181,349,178199,1,2,0:0:0:0:
133,323,178429,2,0,P|95:319|71:317,1,60,0|2,0:0|0:0,0:0:0:0:
31,283,178891,2,0,P|26:246|30:204,1,60,0|2,0:0|0:0,0:0:0:0:
59,180,179353,2,0,P|57:135|55:47,1,120,2|2,0:0|0:0,0:0:0:0:
157,24,180276,2,0,P|154:102|153:147,1,120,0|2,0:0|0:0,0:0:0:0:
201,240,181199,6,0,P|249:248|325:203,1,120,4|2,0:0|0:0,0:0:0:0:
328,165,181891,1,0,0:0:0:0:
317,111,182122,2,0,P|320:75|321:40,2,60,0|0|2,0:0|0:0|0:0,0:0:0:0:
425,114,183045,2,0,P|429:204|431:235,1,120,0|2,0:0|0:0,0:0:0:0:
408,282,183737,1,0,0:0:0:0:
429,331,183968,2,0,P|476:335|506:338,2,60,0|0|2,0:0|0:0|0:0,0:0:0:0:
322,347,184891,6,0,P|287:330|208:334,1,120,4|2,0:0|0:0,0:0:0:0:
158,356,185583,1,0,0:0:0:0:
118,319,185814,2,0,P|114:275|111:248,2,60,0|0|2,0:0|0:0|0:0,0:0:0:0:
10,312,186737,2,0,P|21:234|30:183,1,120,0|2,0:0|0:0,0:0:0:0:
38,140,187429,1,0,0:0:0:0:
52,88,187660,2,0,P|81:82|111:83,1,60,0|0,0:0|0:0,0:0:0:0:
159,108,188122,2,0,P|200:112|240:105,1,60,2|0,0:0|0:0,0:0:0:0:
262,78,188583,6,0,P|333:73|383:71,1,120,4|8,0:0|0:0,0:0:0:0:
453,152,189506,2,0,P|499:146|529:145,2,60,0|0|8,0:0|0:0|0:0,0:0:0:0:
357,202,190429,2,0,P|355:255|352:331,1,120,0|8,0:0|0:0,0:0:0:0:
310,356,191122,1,0,0:0:0:0:
257,344,191352,2,0,P|208:347|182:348,1,60,2|0,0:0|0:0,0:0:0:0:
142,349,191814,2,0,P|133:307|131:284,1,60,10|0,0:0|0:0,0:0:0:0:
136,236,192275,6,0,P|151:186|144:107,1,120,0|8,0:0|0:0,0:0:0:0:
40,101,193199,2,0,P|36:126|33:163,2,60,0|0|8,0:0|0:0|0:0,0:0:0:0:
105,28,194122,2,0,P|166:23|224:48,1,120,0|8,0:0|0:0,0:0:0:0:
262,77,194814,1,0,0:0:0:0:
278,128,195045,2,0,P|276:165|274:195,1,60,2|0,0:0|0:0,0:0:0:0:
299,235,195506,2,0,P|298:260|295:297,1,60,10|0,0:0|0:0,0:0:0:0:
256,192,195968,12,0,197699,0:0:0:0:
