osu file format v14

[General]
AudioFilename: audio.mp3
AudioLeadIn: 0
PreviewTime: 93737
Countdown: 0
SampleSet: Soft
StackLeniency: 0.7
Mode: 0
LetterboxInBreaks: 0
WidescreenStoryboard: 0

[Editor]
DistanceSpacing: 0.6
BeatDivisor: 4
GridSize: 4
TimelineZoom: 1.4

[Metadata]
Title:Ifuudoudou
TitleUnicode:威風堂々
Artist:Sharlo
ArtistUnicode:Sharlo
Creator:Chaoslitz
Version:Ifuuidol
Source:
Tags:夏萝 梅とら idol umetora moans vocaloid
BeatmapID:956456
BeatmapSetID:445251

[Difficulty]
HPDrainRate:6
CircleSize:4
OverallDifficulty:8
ApproachRate:8.5
SliderMultiplier:1.8
SliderTickRate:1

[Events]
//Background and Video events
0,0,"bg.jpg",0,0
//Break Periods
//Storyboard Layer 0 (Background)
//Storyboard Layer 1 (Fail)
//Storyboard Layer 2 (Pass)
//Storyboard Layer 3 (Foreground)
//Storyboard Sound Samples

[TimingPoints]
11353,461.538461538462,4,2,1,40,1,0
11814,-125,4,2,1,40,0,0
12737,-111.111111111111,4,2,1,50,0,0
13660,-100,4,2,1,60,0,0
14583,-90.9090909090909,4,2,1,70,0,0
15045,-100,4,2,1,40,0,0
15506,-125,4,2,1,40,0,0
16429,-111.111111111111,4,2,1,50,0,0
17353,-100,4,2,1,60,0,0
18276,-90.9090909090909,4,2,1,70,0,0
18737,-100,4,2,1,70,0,0
32583,-100,4,2,1,60,0,0
33045,-200,4,2,1,50,0,0
33506,-100,4,2,1,70,0,0
47122,-133.333333333333,4,2,1,70,0,0
48276,-83.3333333333333,4,2,1,80,0,1
63045,-83.3333333333333,4,2,1,40,0,0
63506,-125,4,2,1,40,0,0
64429,-111.111111111111,4,2,1,50,0,0
65353,-100,4,2,1,60,0,0
66276,-90.9090909090909,4,2,1,70,0,0
66737,-100,4,2,1,40,0,0
67199,-125,4,2,1,40,0,0
68122,-111.111111111111,4,2,1,50,0,0
69045,-100,4,2,1,60,0,0
70429,-100,4,2,1,70,0,0
76891,-133.333333333333,4,2,1,100,0,0
77353,-200,4,2,1,100,0,0
78276,-100,4,2,1,100,0,0
78737,-200,4,2,1,100,0,0
79199,-100,4,2,1,100,0,0
80583,-200,4,2,1,100,0,0
81506,-100,4,2,1,100,0,0
94429,-83.3333333333333,4,2,1,80,0,1
109083,-83.3333333333333,4,2,1,80,0,0
109199,-83.3333333333333,4,2,1,80,0,1
116583,-200,4,2,1,40,0,0
116814,-133.333333333333,4,2,1,50,0,0
117045,-100,4,2,1,60,0,0
117276,-83.3333333333333,4,2,1,70,0,0
118429,-100,4,2,1,60,0,0
125814,-100,4,2,2,70,0,0
140583,-133.333333333333,4,2,1,70,0,0
151660,-133.333333333333,4,2,2,70,0,0
153506,-133.333333333333,4,2,1,70,0,0
155353,-83.3333333333333,4,2,1,80,0,1
170006,-83.3333333333333,4,2,1,80,0,0
170122,-83.3333333333333,4,2,1,80,0,1
181199,-83.3333333333333,4,2,1,40,0,0
181660,-125,4,2,1,40,0,0
182583,-111.111111111111,4,2,1,50,0,0
183506,-100,4,2,1,60,0,0
184429,-90.9090909090909,4,2,1,70,0,0
185353,-125,4,2,1,40,0,0
186276,-111.111111111111,4,2,1,50,0,0
187199,-100,4,2,1,60,0,0
188122,-90.9090909090909,4,2,1,70,0,0

[Colours]
Combo1 : 125,183,255
Combo2 : 237,135,150
Combo3 : 154,115,198

[HitObjects]
158,215,11353,6,0,P|131:254|91:267,1,90,4|0,0:0|0:0,0:0:0:0:
68,264,11699,1,0,0:0:0:0:
80,176,11814,6,0,L|90:103,1,72,2|0,0:0|0:0,0:0:0:0:
158,215,12276,1,0,0:0:0:0:
228,165,12506,1,0,0:0:0:0:
138,242,12737,6,0,L|126:322,1,80.9999975280763,2|0,0:0|0:0,0:0:0:0:
237,192,13199,1,0,0:0:0:0:
326,258,13429,1,0,0:0:0:0:
228,165,13660,6,0,L|241:65,1,90,2|0,0:0|0:0,0:0:0:0:
342,234,14122,1,0,0:0:0:0:
437,129,14353,1,0,0:0:0:0:
326,258,14583,6,0,L|313:356,1,99.0000030212403,2|0,0:0|0:0,0:0:0:0:
243,272,14929,1,0,0:0:0:0:
243,272,15045,6,0,P|198:269|154:280,1,90,4|0,0:0|0:0,0:0:0:0:
131,194,15391,1,0,0:0:0:0:
113,207,15506,6,0,P|78:217|43:213,1,72,2|0,0:0|0:0,0:0:0:0:
150,103,15968,1,0,0:0:0:0:
237,192,16199,1,0,0:0:0:0:
352,122,16429,6,0,P|312:108|270:109,1,80.9999975280763,2|0,0:0|0:0,0:0:0:0:
327,257,16891,1,0,0:0:0:0:
453,205,17122,1,0,0:0:0:0:
426,337,17353,6,0,P|473:336|516:315,1,90,2|0,0:0|0:0,0:0:0:0:
374,196,17814,1,0,0:0:0:0:
280,333,18045,1,0,0:0:0:0:
206,172,18276,6,0,P|251:153|300:154,1,99.0000030212403,2|0,0:0|0:0,0:0:0:0:
374,196,18622,1,0,0:0:0:0:
426,130,18737,6,0,P|432:78|435:36,1,90,4|0,0:0|0:0,0:0:0:0:
434,40,19083,1,0,0:0:0:0:
434,40,19199,1,8,0:0:0:0:
238,72,19429,1,0,0:0:0:0:
238,72,19545,1,2,0:0:0:0:
237,72,19660,2,0,P|193:73|149:62,1,90
69,112,20006,1,0,0:0:0:0:
91,141,20122,2,0,P|98:199|102:230,1,90,8|0,0:0|0:0,0:0:0:0:
113,324,20468,1,0,0:0:0:0:
146,304,20583,6,0,P|192:306|233:325,1,90
245,334,20929,1,0,0:0:0:0:
256,344,21045,1,8,0:0:0:0:
297,191,21276,1,0,0:0:0:0:
297,191,21391,1,2,0:0:0:0:
297,191,21506,2,0,P|304:255|308:292,1,90,2|0,0:0|0:0,0:0:0:0:
404,342,21968,2,0,P|411:278|415:240,1,90,10|0,0:0|0:0,0:0:0:0:
260,94,22429,6,0,P|308:90|353:108,1,90,4|0,0:0|0:0,0:0:0:0:
387,177,22776,1,0,0:0:0:0:
415,156,22891,2,0,P|461:159|505:163,1,90,8|0,0:0|0:0,0:0:0:0:
504,162,23237,1,2,0:0:0:0:
504,162,23353,1,0,0:0:0:0:
399,37,23583,1,0,0:0:0:0:
399,37,23699,1,0,0:0:0:0:
399,37,23814,1,8,0:0:0:0:
295,192,24045,1,0,0:0:0:0:
179,106,24276,6,0,P|135:102|84:96,1,90
21,155,24622,1,0,0:0:0:0:
7,184,24737,2,0,P|3:228|25:273,1,90,8|0,0:0|0:0,0:0:0:0:
97,328,25083,1,2,0:0:0:0:
121,300,25199,2,0,P|125:256|129:208,1,90,2|0,0:0|0:0,0:0:0:0:
132,187,25545,1,0,0:0:0:0:
143,206,25660,1,2,0:0:0:0:
159,222,25775,1,2,0:0:0:0:
178,234,25891,1,0,0:0:0:0:
200,241,26006,1,0,0:0:0:0:
222,241,26122,6,0,P|266:233|311:234,1,90
387,259,26468,1,0,0:0:0:0:
387,259,26583,2,0,P|381:299|378:319,1,45,2|0,0:0|0:0,0:0:0:0:
462,221,26814,2,0,P|455:180|452:168,1,45
407,290,27045,2,0,P|394:333|385:377,1,90
368,176,27506,1,2,0:0:0:0:
267,324,27737,1,0,0:0:0:0:
212,161,27968,6,0,P|218:112|225:57,1,90
293,34,28314,1,0,0:0:0:0:
320,58,28430,2,0,P|323:84|327:115,1,45,2|0,0:0|0:0,0:0:0:0:
402,41,28660,2,0,P|436:35|461:34,1,45
346,133,28891,2,0,P|339:173|332:225,1,90
192,246,29353,2,0,P|199:290|205:334,1,90,2|0,0:0|0:0,0:0:0:0:
276,286,29699,1,0,0:0:0:0:
304,306,29814,6,0,P|351:309|389:291,1,90
422,216,30160,1,0,0:0:0:0:
442,190,30276,2,0,P|471:179|492:173,1,45,2|0,0:0|0:0,0:0:0:0:
372,147,30506,2,0,P|391:122|406:107,1,45
300,199,30737,2,0,P|253:189|208:177,1,90
115,301,31199,2,0,P|120:256|126:211,1,90,2|0,0:0|0:0,0:0:0:0:
205,334,31660,5,0,0:0:0:0:
198,154,31891,1,2,0:0:0:0:
100,253,32122,1,0,0:0:0:0:
272,279,32353,1,2,0:0:0:0:
240,84,32583,6,0,P|177:74|124:125,1,135,2|0,0:0|0:0,0:0:0:0:
189,219,33045,6,0,B|196:197|196:197|193:173|193:173|198:154,1,67.5,4|0,0:3|0:0,0:0:0:0:
240,83,33506,6,0,P|284:77|325:94,1,90,4|0,3:0|0:0,0:0:0:0:
365,165,33853,1,0,0:0:0:0:
365,165,33968,2,0,P|360:204|358:221,1,45,2|0,0:0|0:0,0:0:0:0:
437,267,34199,2,0,P|468:254|484:248,1,45
409,148,34429,2,0,P|404:103|400:58,1,90
279,163,34891,1,2,0:0:0:0:
349,303,35122,1,0,0:0:0:0:
449,180,35353,5,0,0:0:0:0:
258,252,35583,1,0,0:0:0:0:
258,252,35699,1,0,0:0:0:0:
258,252,35814,2,0,P|265:291|269:313,1,45,2|0,0:0|0:0,0:0:0:0:
196,180,36045,2,0,P|200:147|203:132,1,45
145,260,36276,2,0,P|101:253|56:246,1,90
116,147,36737,2,0,P|125:103|136:58,1,90,2|0,0:0|0:0,0:0:0:0:
218,221,37199,5,0,0:0:0:0:
343,146,37429,2,0,P|351:210|355:241,1,90,0|2,0:0|0:0,0:0:0:0:
324,301,37776,1,0,0:0:0:0:
349,308,37891,1,0,0:0:0:0:
376,305,38006,1,0,0:0:0:0:
400,294,38122,2,0,P|394:336|385:396,1,90
476,211,38583,1,2,0:0:0:0:
357,113,38814,1,0,0:0:0:0:
300,287,39045,5,0,0:0:0:0:
451,186,39276,2,0,P|458:109|461:78,1,90,2|0,0:0|0:0,0:0:0:0:
503,298,39737,1,2,0:0:0:0:
342,197,39968,1,2,0:0:0:0:
314,182,40083,1,0,0:0:0:0:
283,180,40198,1,0,0:0:0:0:
253,191,40314,1,0,0:0:0:0:
231,213,40429,1,2,0:0:0:0:
209,235,40544,1,0,0:0:0:0:
179,245,40660,1,0,0:0:0:0:
148,244,40775,1,0,0:0:0:0:
120,229,40891,6,0,P|116:183|113:140,1,90,2|0,0:0|0:0,0:0:0:0:
42,284,41353,1,0,0:0:0:0:
209,235,41583,2,0,P|212:279|215:327,1,90,2|0,0:0|0:0,0:0:0:0:
154,114,42045,1,0,0:0:0:0:
283,180,42276,1,2,0:0:0:0:
179,245,42506,1,0,0:0:0:0:
298,323,42737,6,0,P|344:326|399:328,1,90,2|0,0:0|0:0,0:0:0:0:
387,327,43083,1,0,0:0:0:0:
387,327,43199,1,2,0:0:0:0:
479,249,43429,1,0,0:0:0:0:
356,137,43660,2,0,P|361:95|363:80,2,45,0|2|0,0:0|0:0|0:0,0:0:0:0:
371,243,44122,1,2,0:0:0:0:
440,88,44353,1,2,0:0:0:0:
440,88,44468,1,2,0:0:0:0:
440,88,44583,6,0,P|423:41|376:15,1,90,2|0,0:0|0:0,0:0:0:0:
280,104,45045,1,0,0:0:0:0:
432,173,45276,2,0,P|481:164|515:122,1,90,2|0,0:0|0:0,0:0:0:0:
391,18,45737,1,0,0:0:0:0:
346,222,45968,1,2,0:0:0:0:
269,84,46199,1,0,0:0:0:0:
432,173,46429,5,0,0:0:0:0:
250,259,46660,2,0,P|213:251|155:241,1,90,2|0,0:0|0:0,0:0:0:0:
269,345,47122,6,0,P|324:309|336:244,1,135.000005149842,2|2,0:0|0:0,0:0:0:0:
322,212,47699,1,2,0:0:0:0:
299,191,47814,1,2,0:0:0:0:
76,316,48045,1,2,0:0:0:0:
76,316,48160,1,2,0:0:0:0:
76,316,48276,6,0,P|70:263|63:192,1,107.999996704102,4|0,0:0|0:0,0:0:0:0:
211,85,48737,2,0,P|217:138|224:209,1,107.999996704102,8|0,0:0|0:0,0:0:0:0:
259,260,49083,1,0,0:0:0:0:
336,244,49199,2,0,P|389:227|453:244,1,107.999996704102,2|0,0:0|0:0,0:0:0:0:
501,191,49545,1,0,0:0:0:0:
491,156,49660,2,0,P|498:132|509:101,1,53.9999983520508,8|0,0:0|0:0,0:0:0:0:
396,86,49891,2,0,P|398:61|404:28,1,53.9999983520508
439,236,50122,5,0,0:0:0:0:
300,113,50353,1,0,0:0:0:0:
300,342,50583,2,0,P|246:336|192:330,1,107.999996704102,8|0,0:0|0:0,0:0:0:0:
115,341,50929,1,0,0:0:0:0:
54,291,51045,2,0,P|46:232|63:185,1,107.999996704102,2|0,0:0|0:0,0:0:0:0:
113,120,51391,1,0,0:0:0:0:
150,123,51506,1,8,0:0:0:0:
188,126,51621,1,0,0:0:0:0:
225,107,51737,1,0,0:0:0:0:
262,110,51852,1,0,0:0:0:0:
300,113,51967,5,0,0:0:0:0:
227,296,52199,1,0,0:0:0:0:
469,296,52429,2,0,P|462:232|458:186,1,107.999996704102,8|0,0:0|0:0,0:0:0:0:
417,121,52776,1,0,0:0:0:0:
362,196,52891,2,0,P|311:221|243:200,1,107.999996704102,2|0,0:0|0:0,0:0:0:0:
186,210,53237,1,0,0:0:0:0:
160,205,53353,1,8,0:0:0:0:
134,200,53468,1,0,0:0:0:0:
107,197,53583,2,0,P|97:229|95:250,1,53.9999983520508
41,143,53814,6,0,P|35:91|28:32,1,107.999996704102
172,303,54276,1,8,0:0:0:0:
2,253,54506,1,0,0:0:0:0:
126,97,54737,2,0,P|181:113|250:105,1,107.999996704102,2|0,0:0|0:0,0:0:0:0:
266,96,55083,1,0,0:0:0:0:
302,87,55198,1,8,0:0:0:0:
338,98,55313,1,0,0:0:0:0:
363,125,55429,1,0,0:0:0:0:
372,162,55544,1,0,0:0:0:0:
296,167,55660,6,0,L|283:294,1,107.999996704102,4|0,0:0|0:0,0:0:0:0:
443,118,56122,2,0,L|432:10,1,107.999996704102,4|0,0:0|0:0,0:0:0:0:
406,266,56583,1,6,0:0:0:0:
206,137,56814,1,0,0:0:0:0:
201,175,56929,1,0,0:0:0:0:
197,213,57044,1,8,0:0:0:0:
191,249,57160,1,0,0:0:0:0:
187,287,57275,1,0,0:0:0:0:
183,325,57390,1,0,0:0:0:0:
256,352,57506,6,0,P|311:353|360:322,1,107.999996704102,4|0,0:0|0:0,0:0:0:0:
290,97,57968,1,4,0:0:0:0:
112,200,58199,1,0,0:0:0:0:
293,275,58429,2,0,P|366:282|410:287,1,107.999996704102,6|0,0:0|0:0,0:0:0:0:
438,283,58776,1,0,0:0:0:0:
471,266,58891,1,8,0:0:0:0:
493,235,59006,1,0,0:0:0:0:
498,198,59122,1,0,0:0:0:0:
486,163,59237,1,0,0:0:0:0:
422,206,59353,5,4,0:0:0:0:
371,58,59583,1,0,0:0:0:0:
227,214,59814,2,0,P|174:206|112:199,1,107.999996704102,4|0,0:0|0:0,0:0:0:0:
256,352,60276,1,4,0:0:0:0:
358,235,60506,1,0,0:0:0:0:
376,201,60621,1,0,0:0:0:0:
382,164,60736,1,8,0:0:0:0:
372,128,60852,1,0,0:0:0:0:
348,98,60967,1,0,0:0:0:0:
315,82,61082,1,0,0:0:0:0:
235,106,61199,6,0,P|230:170|226:216,1,107.999996704102,4|0,0:0|0:0,0:0:0:0:
101,319,61660,1,4,0:0:0:0:
86,175,61891,1,2,0:0:0:0:
254,237,62122,2,0,P|260:307|264:354,1,107.999996704102,6|0,0:0|0:0,0:0:0:0:
426,175,62583,1,10,0:0:0:0:
411,319,62814,1,0,0:0:0:0:
282,163,63045,6,0,P|230:158|187:189,1,107.999996704102,4|0,0:0|0:0,0:0:0:0:
177,217,63391,1,0,0:0:0:0:
254,237,63506,6,0,P|292:241|332:251,1,72,2|0,0:0|0:0,0:0:0:0:
333,90,63968,1,0,0:0:0:0:
426,175,64199,1,0,0:0:0:0:
238,258,64429,6,0,P|221:294|211:333,1,80.9999975280763,2|0,0:0|0:0,0:0:0:0:
73,192,64891,1,0,0:0:0:0:
89,372,65122,1,0,0:0:0:0:
222,228,65353,6,0,P|204:187|178:150,1,90,2|0,0:0|0:0,0:0:0:0:
372,108,65815,1,0,0:0:0:0:
216,42,66046,1,0,0:0:0:0:
336,246,66276,6,0,P|332:292|327:343,1,99.0000030212403,2|0,0:0|0:0,0:0:0:0:
418,234,66622,1,0,0:0:0:0:
418,234,66737,6,0,P|422:187|427:136,1,90,4|0,0:0|0:0,0:0:0:0:
362,74,67083,1,0,0:0:0:0:
335,82,67199,6,0,P|339:118|343:165,1,72,2|0,0:0|0:0,0:0:0:0:
342,153,67545,1,0,0:0:0:0:
342,153,67660,1,0,0:0:0:0:
165,198,67891,2,0,P|161:165|158:151,1,36
115,274,68122,6,0,P|109:312|102:353,1,80.9999975280763,2|0,0:0|0:0,0:0:0:0:
102,354,68468,1,0,0:0:0:0:
102,354,68583,1,0,0:0:0:0:
258,210,68814,2,0,P|254:177|251:159,1,40.4999987640381
251,304,69045,6,0,P|296:305|340:312,1,90,2|0,0:0|0:0,0:0:0:0:
412,272,69391,1,0,0:0:0:0:
431,298,69506,2,0,L|419:351,1,45,0|0,3:0|0:0,0:0:0:0:
483,238,69737,2,0,L|489:207,3,22.5
474,175,69968,2,0,L|467:139,7,22.5,0|0|0|0|0|0|0|0,3:0|0:0|0:0|0:0|0:0|0:0|0:0|0:0,0:0:0:0:
388,190,70429,6,0,L|393:100,1,90
318,41,70776,1,0,0:0:0:0:
318,41,70891,2,0,P|286:49|253:52,1,45,2|0,0:0|0:0,0:0:0:0:
213,123,71122,2,0,P|234:130|256:135,1,45
149,188,71353,2,0,P|106:176|62:177,1,90
91,288,71814,1,2,0:0:0:0:
175,101,72045,1,0,0:0:0:0:
238,274,72276,6,0,P|242:322|246:373,1,90
322,305,72621,1,0,0:0:0:0:
320,269,72737,2,0,L|325:224,1,45,2|0,0:0|0:0,0:0:0:0:
422,275,72968,2,0,P|446:278|470:282,1,45
394,354,73199,1,0,0:0:0:0:
422,179,73429,1,0,0:0:0:0:
246,147,73660,2,0,P|242:191|239:236,1,90,2|0,0:0|0:0,0:0:0:0:
340,125,74006,1,0,0:0:0:0:
340,125,74122,6,0,P|337:73|335:26,1,90
256,13,74468,1,0,0:0:0:0:
229,18,74583,1,2,0:0:0:0:
202,24,74699,1,0,0:0:0:0:
176,31,74814,2,0,P|151:27|128:20,1,45
110,115,75045,2,0,P|63:99|13:100,1,90
200,216,75506,2,0,L|208:123,1,90,2|0,0:0|0:0,0:0:0:0:
133,282,75968,5,0,0:0:0:0:
300,199,76199,1,2,0:0:0:0:
107,262,76429,2,0,P|99:306|90:358,1,90,0|2,0:0|0:0,0:0:0:0:
38,135,76891,6,0,P|46:183|51:215,1,67.5000025749208,2|0,0:0|0:0,0:0:0:0:
109,32,77353,6,0,P|107:55|103:76,1,45,4|0,0:3|0:0,0:0:0:0:
38,135,77699,1,0,0:0:0:0:
38,135,77814,5,6,0:0:0:0:
283,218,78045,1,2,0:0:0:0:
128,254,78276,2,0,P|133:214|141:160,1,90,0|0,3:0|0:0,0:0:0:0:
175,323,78737,6,0,L|181:369,1,45,2|0,0:0|0:0,0:0:0:0:
267,291,79083,1,0,0:0:0:0:
294,310,79199,6,0,P|324:312|349:315,1,45,0|0,3:0|0:0,0:0:0:0:
329,228,79429,2,0,P|359:230|383:232,1,45
361,138,79660,6,0,P|406:138|449:127,1,90,2|0,0:0|0:0,0:0:0:0:
275,128,80122,2,0,P|252:167|238:211,1,90,0|2,3:0|0:0,0:0:0:0:
323,54,80583,6,0,P|305:24|288:0,1,45,2|0,0:0|3:0,0:0:0:0:
299,15,80929,1,0,0:0:0:0:
299,15,81045,1,0,0:0:0:0:
329,228,81276,1,2,0:0:0:0:
461,109,81506,6,0,P|457:57|454:18,1,90,2|0,0:0|0:0,0:0:0:0:
422,226,81968,1,0,3:0:0:0:
270,135,82199,1,0,0:0:0:0:
416,254,82429,2,0,P|409:298|404:343,1,90,2|0,0:0|0:0,0:0:0:0:
404,343,82776,1,0,0:0:0:0:
404,343,82891,1,0,3:0:0:0:
245,269,83122,1,2,0:0:0:0:
392,136,83353,6,0,P|397:181|402:226,1,90,2|0,0:0|0:0,0:0:0:0:
328,284,83699,1,0,0:0:0:0:
324,314,83814,2,0,L|317:362,1,45,0|0,3:0|0:0,0:0:0:0:
245,269,84045,2,0,L|235:316,1,45
103,320,84276,5,2,0:0:0:0:
75,305,84391,1,2,0:0:0:0:
54,282,84506,1,0,0:0:0:0:
44,252,84622,1,0,0:0:0:0:
45,221,84737,1,2,0:0:0:0:
57,192,84852,1,0,0:0:0:0:
79,170,84968,1,2,0:0:0:0:
108,158,85083,1,0,0:0:0:0:
139,157,85199,6,0,P|143:122|149:66,1,90,2|0,0:0|0:0,0:0:0:0:
127,241,85660,1,0,0:0:0:0:
234,108,85891,2,0,P|238:73|244:17,1,90,2|0,0:0|0:0,0:0:0:0:
222,192,86352,1,0,0:0:0:0:
148,67,86583,1,2,0:0:0:0:
331,45,86814,1,0,0:0:0:0:
123,93,87045,6,0,P|81:84|34:76,1,90,2|0,0:0|0:0,0:0:0:0:
127,241,87506,1,0,0:0:0:0:
234,108,87737,1,0,0:0:0:0:
48,172,87968,2,0,P|41:206|39:222,2,45,2|0|0,0:0|0:0|0:0,0:0:0:0:
158,19,88429,1,2,0:0:0:0:
325,128,88660,1,0,0:0:0:0:
325,128,88776,1,0,0:0:0:0:
325,128,88891,6,0,P|368:116|413:115,1,90,2|0,0:0|0:0,0:0:0:0:
254,82,89353,1,0,0:0:0:0:
382,201,89583,2,0,P|426:204|469:218,1,90,2|0,0:0|0:0,0:0:0:0:
325,128,90045,1,2,0:0:0:0:
415,293,90276,1,2,0:0:0:0:
455,98,90506,1,0,0:0:0:0:
341,232,90737,6,0,P|335:285|331:329,1,90,2|0,0:0|0:0,0:0:0:0:
256,189,91199,1,2,0:0:0:0:
355,40,91429,1,0,0:0:0:0:
232,169,91660,6,0,P|179:175|135:179,1,90,2|0,0:0|0:0,0:0:0:0:
261,77,92122,1,2,0:0:0:0:
382,201,92353,1,0,0:0:0:0:
275,44,92583,5,0,3:0:0:0:
316,246,92814,1,0,3:0:0:0:
365,16,93045,1,0,3:0:0:0:
129,137,93276,1,0,3:0:0:0:
382,201,93506,1,0,3:0:0:0:
170,269,93737,2,0,P|174:307|176:326,2,45,2|2|2,0:0|0:0|0:0,0:0:0:0:
342,118,94199,1,2,0:0:0:0:
342,118,94315,1,2,0:0:0:0:
342,118,94429,6,0,P|346:189|348:241,1,107.999996704102,4|0,0:0|0:0,0:0:0:0:
126,195,94891,2,0,P|93:236|90:289,1,107.999996704102,8|0,0:0|0:0,0:0:0:0:
147,346,95237,1,0,0:0:0:0:
226,320,95353,2,0,P|288:315|344:313,1,107.999996704102,2|0,0:0|0:0,0:0:0:0:
425,275,95699,1,0,0:0:0:0:
451,307,95814,2,0,P|481:313|507:318,1,53.9999983520508,8|0,0:0|0:0,0:0:0:0:
435,184,96045,2,0,P|439:141|442:113,1,53.9999983520508
267,236,96276,5,0,0:0:0:0:
90,123,96506,1,0,0:0:0:0:
316,71,96737,2,0,P|323:151|326:187,1,107.999996704102,8|0,0:0|0:0,0:0:0:0:
267,236,97083,1,0,0:0:0:0:
267,236,97199,1,2,0:0:0:0:
32,182,97429,2,0,P|79:204|138:190,1,107.999996704102,0|8,0:0|0:0,0:0:0:0:
175,127,97776,1,0,0:0:0:0:
175,127,97891,2,0,L|170:66,1,53.9999983520508
185,278,98122,5,0,0:0:0:0:
242,34,98353,1,0,0:0:0:0:
351,214,98583,2,0,P|356:269|362:331,1,107.999996704102,8|0,0:0|0:0,0:0:0:0:
302,372,98929,1,0,0:0:0:0:
227,363,99045,2,0,P|186:330|184:278,1,107.999996704102,2|0,0:0|0:0,0:0:0:0:
213,202,99391,1,0,0:0:0:0:
211,165,99506,1,8,0:0:0:0:
193,132,99621,1,0,0:0:0:0:
161,112,99737,1,0,0:0:0:0:
124,108,99852,1,0,0:0:0:0:
90,122,99967,5,0,0:0:0:0:
242,34,100199,1,0,0:0:0:0:
262,268,100429,1,8,0:0:0:0:
46,268,100660,2,0,P|99:261|153:254,1,107.999996704102,0|2,0:0|0:0,0:0:0:0:
184,277,101006,1,0,0:0:0:0:
218,296,101122,1,0,0:0:0:0:
255,309,101237,1,0,0:0:0:0:
292,312,101352,1,8,0:0:0:0:
324,293,101468,1,0,0:0:0:0:
360,282,101583,1,0,0:0:0:0:
398,281,101698,1,0,0:0:0:0:
455,331,101814,6,0,L|445:205,1,107.999996704102,4|0,0:0|0:0,0:0:0:0:
320,172,102276,2,0,L|330:46,1,107.999996704102,4|0,0:0|0:0,0:0:0:0:
324,293,102737,1,4,0:0:0:0:
219,139,102968,1,0,0:0:0:0:
183,127,103083,1,0,0:0:0:0:
146,133,103198,1,8,0:0:0:0:
116,155,103314,1,0,0:0:0:0:
100,189,103429,1,0,0:0:0:0:
101,226,103544,1,0,0:0:0:0:
177,203,103660,6,0,P|229:196|292:188,1,107.999996704102,4|0,0:0|0:0,0:0:0:0:
206,47,104122,1,4,0:0:0:0:
320,172,104353,1,0,0:0:0:0:
202,328,104583,2,0,P|150:321|87:313,1,107.999996704102,4|0,0:0|0:0,0:0:0:0:
58,303,104929,1,0,0:0:0:0:
33,274,105044,1,8,0:0:0:0:
20,239,105159,1,0,0:0:0:0:
18,201,105275,1,0,0:0:0:0:
28,165,105390,1,0,0:0:0:0:
76,102,105505,5,4,0:0:0:0:
204,241,105737,1,0,0:0:0:0:
342,133,105968,2,0,P|350:71|358:23,1,107.999996704102,4|0,0:0|0:0,0:0:0:0:
176,46,106429,1,4,0:0:0:0:
299,207,106660,1,0,0:0:0:0:
334,217,106775,1,0,0:0:0:0:
371,211,106890,1,8,0:0:0:0:
402,190,107006,1,0,0:0:0:0:
421,157,107121,1,0,0:0:0:0:
423,120,107236,1,0,0:0:0:0:
342,133,107353,6,0,P|288:126|234:119,1,107.999996704102,4|0,0:0|0:0,0:0:0:0:
309,307,107814,1,4,0:0:0:0:
402,190,108045,1,0,0:0:0:0:
231,284,108276,1,4,0:0:0:0:
295,76,108506,1,0,0:0:0:0:
420,227,108737,2,0,P|426:291|430:334,1,107.999996704102,8|0,0:0|0:0,0:0:0:0:
298,206,109199,6,0,P|246:193|193:196,1,107.999996704102,4|0,0:0|0:0,0:0:0:0:
117,230,109545,1,0,0:0:0:0:
117,230,109660,2,0,L|126:338,1,107.999996704102,2|0,0:0|0:0,0:0:0:0:
161,103,110122,1,2,0:0:0:0:
236,277,110353,1,0,0:0:0:0:
257,43,110583,1,0,0:0:0:0:
56,144,110814,1,2,0:0:0:0:
279,200,111045,6,0,P|336:195|391:192,1,107.999996704102,0|2,0:0|0:0,0:0:0:0:
203,117,111506,1,0,0:0:0:0:
338,251,111737,2,0,P|331:310|326:362,2,107.999996704102,0|2|0,0:0|0:0|0:0,0:0:0:0:
462,128,112429,2,0,P|470:198|474:244,1,107.999996704102,0|2,0:0|0:0,0:0:0:0:
415,294,112776,1,0,0:0:0:0:
415,294,112891,5,4,0:0:0:0:
327,122,113122,2,0,P|331:94|335:67,2,53.9999983520508,2|0|0,0:0|0:0|0:0,0:0:0:0:
200,250,113583,1,0,0:0:0:0:
113,129,113814,2,0,P|166:132|220:135,1,107.999996704102,2|0,0:0|0:0,0:0:0:0:
184,31,114276,1,0,0:0:0:0:
304,153,114506,1,2,0:0:0:0:
304,153,114622,1,0,0:0:0:0:
304,153,114737,6,0,P|356:134|416:140,1,107.999996704102,2|0,0:0|0:0,0:0:0:0:
475,193,115083,1,0,0:0:0:0:
475,193,115199,2,0,P|466:268|462:310,1,107.999996704102,2|0,0:0|0:0,0:0:0:0:
396,349,115545,1,0,0:0:0:0:
371,324,115660,2,0,P|318:317|264:308,1,107.999996704102,2|0,0:0|0:0,0:0:0:0:
264,308,116006,1,0,0:0:0:0:
264,308,116122,1,2,0:0:0:0:
167,214,116353,1,0,0:0:0:0:
315,74,116583,6,0,L|313:47,1,22.5,0|0,3:0|0:0,0:0:0:0:
349,151,116814,6,0,L|342:184,1,33.7500012874604,0|0,3:0|0:0,0:0:0:0:
392,83,117045,6,0,L|385:19,1,45,0|0,3:0|0:0,0:0:0:0:
425,158,117276,6,0,L|414:216,1,53.9999983520508,0|0,3:0|0:0,0:0:0:0:
272,143,117506,6,0,L|236:132,7,26.9999991760254,0|0|0|0|0|0|0|0,3:0|0:0|0:0|0:0|0:0|0:0|0:0|0:0,0:0:0:0:
211,139,117968,1,0,3:0:0:0:
54,177,118429,6,0,P|50:244|88:297,2,135
170,215,119583,2,0,P|216:218|264:223,1,90,2|2,0:0|0:0,0:0:0:0:
341,184,120045,1,0,0:0:0:0:
441,287,120276,6,0,L|427:152,2,135,0|2|0,0:0|0:0|0:0,0:0:0:0:
352,49,121314,2,0,L|340:189,1,135,0|2,0:0|0:0,0:0:0:0:
427,113,121891,1,2,0:0:0:0:
244,174,122122,6,0,P|178:176|121:130,2,135
330,273,123276,2,0,P|322:328|315:369,1,90,2|2,0:0|0:0,0:0:0:0:
238,312,123737,1,0,0:0:0:0:
405,349,123968,6,0,P|411:308|426:197,2,135,0|2|0,0:0|0:0|0:0,0:0:0:0:
339,182,125006,2,0,P|272:197|200:165,1,135,0|2,0:0|0:0,0:0:0:0:
280,106,125583,1,2,0:0:0:0:
214,277,125814,6,0,P|156:249|74:262,1,135,0|0,0:0|0:0,0:0:0:0:
58,276,126276,2,0,P|56:230|54:186,1,90,2|0,0:0|0:0,0:0:0:0:
139,338,126737,2,0,P|133:359|129:382,2,45
171,162,127199,1,2,0:0:0:0:
326,259,127429,1,2,0:0:0:0:
220,349,127660,6,0,P|225:275|229:214,1,135
257,191,128122,2,0,P|260:141|263:98,1,90,2|0,0:0|0:0,0:0:0:0:
326,259,128583,1,0,0:0:0:0:
326,259,128699,2,0,P|371:263|414:249,1,90,2|0,0:0|0:0,0:0:0:0:
462,180,129045,2,0,P|483:187|504:195,1,45,2|0,0:0|0:0,0:0:0:0:
428,109,129276,2,0,P|450:104|474:103,1,45,2|0,0:0|0:0,0:0:0:0:
334,58,129506,6,0,P|277:21|209:33,1,135
186,56,129968,2,0,P|140:60|93:63,1,90,2|0,0:0|0:0,0:0:0:0:
78,211,130429,2,0,P|85:247|89:267,2,45,0|2|0,0:0|0:0|0:0,0:0:0:0:
0,94,130891,1,2,0:0:0:0:
152,148,131122,1,2,0:0:0:0:
48,194,131353,6,0,P|42:249|32:331,1,135,0|2,0:0|0:0,0:0:0:0:
20,361,131814,2,0,P|62:348|107:344,1,90
184,236,132276,1,0,0:0:0:0:
184,236,132391,2,0,P|191:280|199:328,1,90,2|0,0:0|0:0,0:0:0:0:
272,354,132737,1,2,0:0:0:0:
302,362,132852,1,0,0:0:0:0:
333,357,132967,1,2,0:0:0:0:
359,341,133083,1,0,0:0:0:0:
377,316,133199,6,0,P|383:258|389:175,1,135,4|2,0:0|0:0,0:0:0:0:
363,108,133660,1,8,0:0:0:0:
488,207,133891,1,0,0:0:0:0:
307,258,134122,2,0,P|304:213|300:168,1,90,0|2,0:0|0:0,0:0:0:0:
452,129,134583,1,10,0:0:0:0:
413,285,134814,1,0,0:0:0:0:
286,137,135045,6,0,P|236:105|141:120,1,135,0|2,0:0|0:0,0:0:0:0:
107,160,135506,1,8,0:0:0:0:
250,8,135737,1,0,0:0:0:0:
204,193,135968,1,0,0:0:0:0:
201,215,136083,1,2,0:0:0:0:
198,237,136199,1,0,0:0:0:0:
144,69,136429,1,10,0:0:0:0:
300,168,136660,1,2,0:0:0:0:
114,249,136891,6,0,P|149:305|213:319,1,135,2|2,0:0|0:0,0:0:0:0:
276,262,137353,1,8,0:0:0:0:
162,108,137583,1,0,0:0:0:0:
88,271,137814,2,0,P|82:323|77:377,1,90,0|2,0:0|0:0,0:0:0:0:
25,180,138276,1,10,0:0:0:0:
144,69,138506,1,0,0:0:0:0:
201,215,138737,6,0,P|268:211|347:204,1,135,0|2,0:0|0:0,0:0:0:0:
407,182,139199,1,8,0:0:0:0:
310,324,139429,1,0,0:0:0:0:
265,123,139660,1,0,0:0:0:0:
262,101,139776,1,2,0:0:0:0:
259,79,139891,1,0,0:0:0:0:
427,106,140122,1,2,0:0:0:0:
454,120,140237,1,2,0:0:0:0:
474,144,140352,1,2,0:0:0:0:
484,174,140468,1,2,0:0:0:0:
481,205,140583,6,0,P|477:238|473:272,1,67.5000025749208,6|0,0:0|0:0,0:0:0:0:
404,359,141045,1,8,0:0:0:0:
352,247,141276,2,0,P|286:239|233:278,1,135.000005149842
99,206,141968,2,0,P|133:206|165:212,1,67.5000025749208,8|0,0:0|0:0,0:0:0:0:
245,122,142429,5,2,0:0:0:0:
127,286,142660,2,0,P|121:337|116:369,1,67.5000025749208,0|10,0:0|0:0,0:0:0:0:
165,212,143122,2,0,L|156:63,1,135.000005149842
68,178,143814,1,10,0:0:0:0:
154,45,144045,1,0,0:0:0:0:
255,162,144276,6,0,P|249:222|243:290,1,101.250003862381,2|0,0:0|0:0,0:0:0:0:
251,292,144737,1,8,0:0:0:0:
165,212,144968,1,0,0:0:0:0:
345,112,145199,2,0,P|339:172|333:240,1,101.250003862381,2|0,0:0|0:0,0:0:0:0:
341,242,145660,1,8,0:0:0:0:
255,162,145891,2,0,P|253:136|251:123,1,33.7500012874604,2|0,0:0|0:0,0:0:0:0:
284,36,146122,5,2,0:0:0:0:
253,188,146353,1,0,0:0:0:0:
366,103,146583,2,0,P|399:99|433:99,1,67.5000025749208,8|2,0:0|0:0,0:0:0:0:
383,203,147045,5,4,0:0:0:0:
312,12,147353,1,4,0:0:0:0:
512,48,147660,1,4,0:0:0:0:
310,247,147968,6,0,P|306:291|302:323,1,67.5000025749208,4|0,0:0|0:0,0:0:0:0:
303,314,148314,1,0,0:0:0:0:
303,314,148429,1,8,0:0:0:0:
376,155,148660,1,0,0:0:0:0:
390,289,148891,2,0,P|396:347|398:377,1,67.5000025749208,0|2,0:0|0:0,0:0:0:0:
223,270,149353,1,8,0:0:0:0:
408,257,149583,1,0,0:0:0:0:
267,189,149814,6,0,P|218:176|171:192,1,101.250003862381,2|0,0:0|0:0,0:0:0:0:
151,214,150276,1,8,0:0:0:0:
231,360,150506,1,2,0:0:0:0:
304,179,150737,2,0,P|307:145|312:112,1,67.5000025749208
363,250,151199,1,10,0:0:0:0:
366,273,151314,1,2,0:0:0:0:
370,296,151429,1,2,0:0:0:0:
374,319,151545,1,2,0:0:0:0:
377,343,151660,5,0,0:0:0:0:
392,148,151891,2,0,P|400:81|403:55,1,67.5000025749208,2|0,0:0|0:0,0:0:0:0:
276,262,152353,1,0,0:0:0:0:
434,223,152583,2,0,P|481:232|506:240,2,67.5000025749208,0|2|0,0:0|0:0|0:0,0:0:0:0:
377,343,153276,1,0,0:0:0:0:
314,146,153506,5,0,0:0:0:0:
285,349,153737,1,2,0:0:0:0:
388,96,153968,1,2,0:0:0:0:
189,276,154199,1,2,0:0:0:0:
460,322,154429,1,6,0:0:0:0:
276,138,154660,2,0,P|274:121|272:104,2,33.7500012874604,2|2|2,0:0|0:0|0:0,0:0:0:0:
377,343,155122,1,2,0:0:0:0:
377,343,155237,1,2,0:0:0:0:
377,343,155353,6,0,P|385:270|390:227,1,107.999996704102,4|0,0:0|0:0,0:0:0:0:
185,89,155814,2,0,P|191:142|196:196,1,107.999996704102,8|0,0:0|0:0,0:0:0:0:
161,269,156160,1,0,0:0:0:0:
84,259,156276,2,0,P|48:209|65:147,1,107.999996704102,2|0,0:0|0:0,0:0:0:0:
93,93,156622,1,0,0:0:0:0:
93,93,156737,2,0,P|91:70|85:37,1,53.9999983520508,8|0,0:0|0:0,0:0:0:0:
174,67,156968,2,0,P|178:44|180:10,1,53.9999983520508
276,228,157199,5,0,0:0:0:0:
264,34,157429,1,0,0:0:0:0:
456,174,157660,2,0,P|402:181|349:187,1,107.999996704102,8|0,0:0|0:0,0:0:0:0:
276,228,158006,1,0,0:0:0:0:
276,228,158122,1,2,0:0:0:0:
383,72,158353,1,0,0:0:0:0:
383,72,158468,1,0,0:0:0:0:
383,72,158583,2,0,P|387:34|389:13,1,53.9999983520508,8|0,0:0|0:0,0:0:0:0:
477,141,158814,2,0,P|481:103|483:82,1,53.9999983520508
276,228,159045,6,0,P|282:293|286:343,1,107.999996704102
68,263,159506,2,0,P|76:195|81:146,1,107.999996704102,8|0,0:0|0:0,0:0:0:0:
120,83,159853,1,0,0:0:0:0:
186,125,159968,2,0,P|236:129|288:101,1,107.999996704102,2|0,0:0|0:0,0:0:0:0:
352,49,160314,1,0,0:0:0:0:
389,43,160429,1,8,0:0:0:0:
425,54,160544,1,0,0:0:0:0:
453,79,160660,1,0,0:0:0:0:
467,113,160775,1,0,0:0:0:0:
466,151,160890,5,0,0:0:0:0:
250,176,161122,1,0,0:0:0:0:
387,120,161353,1,8,0:0:0:0:
382,331,161583,1,0,0:0:0:0:
466,151,161814,1,2,0:0:0:0:
266,260,162045,1,0,0:0:0:0:
228,258,162160,1,0,0:0:0:0:
195,242,162275,1,8,0:0:0:0:
171,212,162391,1,0,0:0:0:0:
163,175,162506,1,0,0:0:0:0:
172,139,162621,1,0,0:0:0:0:
208,70,162737,6,0,P|252:73|321:78,1,107.999996704102,4|0,0:0|0:0,0:0:0:0:
346,249,163199,2,0,P|390:252|459:257,1,107.999996704102,4|0,0:0|0:0,0:0:0:0:
351,54,163660,1,4,0:0:0:0:
247,176,163892,1,0,0:0:0:0:
243,213,164007,1,0,0:0:0:0:
239,251,164122,1,8,0:0:0:0:
220,284,164237,1,0,0:0:0:0:
216,321,164352,1,0,0:0:0:0:
212,359,164467,1,0,0:0:0:0:
132,368,164583,6,0,P|86:341|73:290,1,107.999996704102,4|0,0:0|0:0,0:0:0:0:
165,149,165045,1,4,0:0:0:0:
346,249,165276,1,0,0:0:0:0:
149,290,165506,2,0,L|164:162,1,107.999996704102,4|0,0:0|0:0,0:0:0:0:
165,149,165853,1,0,0:0:0:0:
200,159,165968,1,8,0:0:0:0:
237,153,166083,1,0,0:0:0:0:
267,130,166199,1,0,0:0:0:0:
283,96,166314,1,0,0:0:0:0:
207,82,166429,5,4,0:0:0:0:
52,186,166660,1,0,0:0:0:0:
232,292,166891,2,0,P|296:286|343:283,1,107.999996704102,4|0,0:0|0:0,0:0:0:0:
181,368,167353,1,4,0:0:0:0:
281,206,167583,1,0,0:0:0:0:
314,188,167698,1,0,0:0:0:0:
351,184,167813,1,8,0:0:0:0:
387,195,167929,1,0,0:0:0:0:
416,219,168044,1,0,0:0:0:0:
434,252,168159,1,0,0:0:0:0:
407,329,168276,5,4,0:0:0:0:
373,98,168506,1,0,0:0:0:0:
326,355,168737,1,8,0:0:0:0:
457,142,168968,1,2,0:0:0:0:
281,206,169199,1,2,0:0:0:0:
425,354,169429,1,0,0:0:0:0:
387,195,169660,1,10,0:0:0:0:
248,290,169891,1,0,0:0:0:0:
449,329,170122,6,0,P|458:254|463:209,1,107.999996704102,4|0,0:0|0:0,0:0:0:0:
461,221,170468,1,0,0:0:0:0:
461,221,170583,1,2,0:0:0:0:
326,355,170814,1,2,0:0:0:0:
221,267,171045,2,0,P|161:262|97:258,1,107.999996704102,2|0,0:0|0:0,0:0:0:0:
190,114,171506,1,2,0:0:0:0:
306,219,171737,1,0,0:0:0:0:
128,285,171968,5,0,0:0:0:0:
22,169,172199,2,0,P|17:116|11:58,1,107.999996704102,2|0,0:0|0:0,0:0:0:0:
165,102,172660,1,2,0:0:0:0:
113,258,172891,2,0,P|107:311|102:365,1,107.999996704102,2|0,0:0|0:0,0:0:0:0:
201,199,173353,2,0,P|258:203|307:190,1,107.999996704102,0|2,0:0|0:0,0:0:0:0:
370,145,173699,1,0,0:0:0:0:
370,145,173814,5,0,0:0:0:0:
286,321,174045,1,2,0:0:0:0:
249,118,174276,2,0,P|253:63|260:4,1,107.999996704102,0|2,0:0|0:0,0:0:0:0:
358,116,174737,1,2,0:0:0:0:
201,199,174968,1,0,0:0:0:0:
259,10,175199,1,2,0:0:0:0:
306,190,175429,1,2,0:0:0:0:
316,211,175545,1,0,0:0:0:0:
325,231,175660,6,0,P|320:293|316:345,1,107.999996704102,2|0,0:0|0:0,0:0:0:0:
472,251,176122,2,0,P|468:197|464:143,1,107.999996704102,2|0,0:0|0:0,0:0:0:0:
344,21,176583,2,0,P|338:66|336:84,1,53.9999983520508,0|2,0:0|0:0,0:0:0:0:
382,149,176814,1,0,0:0:0:0:
249,118,177045,1,2,0:0:0:0:
420,71,177276,1,2,0:0:0:0:
420,71,177391,1,2,0:0:0:0:
420,71,177506,5,0,0:0:0:0:
325,231,177737,2,0,P|329:264|332:290,2,53.9999983520508,0|2|0,0:0|0:0|0:0,0:0:0:0:
246,91,178199,1,2,0:0:0:0:
129,195,178429,2,0,P|183:190|242:186,1,107.999996704102,0|2,0:0|0:0,0:0:0:0:
211,72,178891,1,0,0:0:0:0:
325,231,179122,2,0,P|328:196|333:165,1,53.9999983520508,2|0,0:0|0:0,0:0:0:0:
249,266,179353,6,0,P|244:302|235:376,1,107.999996704102,2|0,0:0|0:0,0:0:0:0:
324,324,179699,1,0,0:0:0:0:
324,324,179814,2,0,P|376:303|441:316,1,107.999996704102,2|0,0:0|0:0,0:0:0:0:
456,231,180160,1,0,0:0:0:0:
494,249,180276,2,0,P|502:284|506:302,2,53.9999983520508,0|2|0,0:0|0:0|0:0,0:0:0:0:
420,71,180737,1,2,0:0:0:0:
325,231,180968,1,2,0:0:0:0:
314,220,181083,1,2,0:0:0:0:
304,208,181199,6,0,P|299:152|294:99,1,107.999996704102,4|0,0:0|0:0,0:0:0:0:
277,77,181545,1,0,0:0:0:0:
209,145,181660,6,0,P|168:141|129:136,1,72,2|0,0:0|0:0,0:0:0:0:
65,211,182122,1,0,0:0:0:0:
175,259,182353,1,0,0:0:0:0:
216,108,182583,6,0,P|215:71|210:20,1,80.9999975280763,2|0,0:0|0:0,0:0:0:0:
304,208,183045,1,0,0:0:0:0:
366,67,183276,1,0,0:0:0:0:
423,264,183506,6,0,P|474:259|512:256,1,90,2|0,0:0|0:0,0:0:0:0:
315,165,183968,1,0,0:0:0:0:
251,346,184199,1,0,0:0:0:0:
117,161,184429,6,0,P|120:97|123:46,1,99.0000030212403,2|0,0:0|0:0,0:0:0:0:
27,119,184776,1,0,0:0:0:0:
27,119,184891,6,0,P|32:171|36:218,1,99.0000030212403,4|0,0:0|0:0,0:0:0:0:
79,290,185237,1,0,0:0:0:0:
105,310,185353,6,0,P|150:301|185:301,1,72,2|0,0:0|0:0,0:0:0:0:
195,191,185814,1,0,0:0:0:0:
293,247,186045,1,0,0:0:0:0:
416,166,186276,6,0,P|376:157|336:154,1,80.9999975280763,2|0,0:0|0:0,0:0:0:0:
312,0,186737,1,0,0:0:0:0:
189,98,186968,1,0,0:0:0:0:
293,247,187199,6,0,P|288:296|283:352,1,90,2|0,0:0|0:0,0:0:0:0:
384,101,187660,1,0,0:0:0:0:
481,264,187891,1,0,0:0:0:0:
223,178,188122,6,0,P|214:226|201:288,1,99.0000030212403,2|0,0:0|0:0,0:0:0:0:
141,332,188468,1,0,0:0:0:0:
98,265,188583,6,0,P|49:261|5:236,1,99.0000030212403,4|0,0:0|0:0,0:0:0:0:
5,237,188929,1,0,0:0:0:0:
5,237,189045,1,8,0:0:0:0:
143,41,189276,1,0,0:0:0:0:
143,41,189391,1,2,0:0:0:0:
143,41,189506,2,0,P|148:108|151:142,1,99.0000030212403
223,178,189853,1,0,0:0:0:0:
254,164,189968,2,0,P|303:168|352:174,1,99.0000030212403,8|0,0:0|0:0,0:0:0:0:
426,210,190314,1,0,0:0:0:0:
444,239,190429,6,0,P|448:287|420:327,1,99.0000030212403
410,332,190776,1,0,0:0:0:0:
400,335,190891,1,8,0:0:0:0:
310,113,191122,1,0,0:0:0:0:
310,113,191237,1,2,0:0:0:0:
310,113,191353,2,0,P|370:119|429:123,1,99.0000030212403,2|0,0:0|0:0,0:0:0:0:
298,224,191814,2,0,P|248:226|199:229,1,99.0000030212403,10|0,0:0|0:0,0:0:0:0:
165,305,192160,1,0,0:0:0:0:
130,286,192276,6,0,P|112:237|121:189,1,99.0000030212403
191,146,192622,1,0,0:0:0:0:
191,146,192737,2,0,L|200:15,1,99.0000030212403,8|0,0:0|0:0,0:0:0:0:
199,34,193083,1,2,0:0:0:0:
200,21,193199,1,0,0:0:0:0:
298,224,193429,1,0,0:0:0:0:
298,224,193545,1,0,0:0:0:0:
298,224,193660,2,0,P|303:291|306:327,1,99.0000030212403,8|0,0:0|0:0,0:0:0:0:
377,357,194006,1,0,0:0:0:0:
415,344,194122,6,0,P|444:304|442:257,1,99.0000030212403
396,191,194468,1,0,0:0:0:0:
364,171,194583,2,0,L|369:69,1,99.0000030212403,8|0,0:0|0:0,0:0:0:0:
368,72,194929,1,2,0:0:0:0:
368,72,195045,1,2,0:0:0:0:
279,205,195276,2,0,P|275:231|271:258,1,49.5000015106202
219,141,195506,1,10,0:0:0:0:
184,142,195621,1,0,0:0:0:0:
149,143,195736,1,0,0:0:0:0:
115,144,195852,1,0,0:0:0:0:
80,146,195968,6,0,P|71:194|82:242,1,99.0000030212403
95,262,196314,1,0,0:0:0:0:
200,63,196660,2,0,L|208:7,1,49.5000015106202,0|2,0:0|0:0,0:0:0:0:
168,224,197122,2,0,L|175:273,1,49.5000015106202
288,91,197583,2,0,L|296:35,1,49.5000015106202
