osu file format v14

[General]
AudioFilename: audio.mp3
AudioLeadIn: 0
PreviewTime: 93737
Countdown: 0
SampleSet: Soft
StackLeniency: 0.7
Mode: 0
LetterboxInBreaks: 0
WidescreenStoryboard: 0

[Editor]
DistanceSpacing: 1
BeatDivisor: 4
GridSize: 4
TimelineZoom: 1.4

[Metadata]
Title:Ifuudoudou
TitleUnicode:威風堂々
Artist:Sharlo
ArtistUnicode:Sharlo
Creator:Chaoslitz
Version:Easy
Source:
Tags:夏萝 梅とら idol umetora moans vocaloid
BeatmapID:959147
BeatmapSetID:445251

[Difficulty]
HPDrainRate:2
CircleSize:3
OverallDifficulty:2
ApproachRate:3
SliderMultiplier:0.899999999999999
SliderTickRate:1

[Events]
//Background and Video events
0,0,"bg.jpg",0,0
//Break Periods
2,118168,124374
//Storyboard Layer 0 (Background)
//Storyboard Layer 1 (Fail)
//Storyboard Layer 2 (Pass)
//Storyboard Layer 3 (Foreground)
//Storyboard Sound Samples

[TimingPoints]
11353,461.538461538462,4,2,1,40,1,0
11814,-100,4,2,1,40,0,0
12737,-100,4,2,1,50,0,0
13660,-100,4,2,1,60,0,0
14583,-100,4,2,1,70,0,0
15045,-100,4,2,1,40,0,0
15506,-100,4,2,1,40,0,0
16429,-100,4,2,1,50,0,0
17353,-100,4,2,1,60,0,0
18276,-100,4,2,1,70,0,0
18737,-100,4,2,1,70,0,0
32583,-100,4,2,1,60,0,0
33045,-100,4,2,1,50,0,0
33506,-100,4,2,1,70,0,0
47122,-100,4,2,1,70,0,0
48276,-100,4,2,1,80,0,1
63045,-100,4,2,1,40,0,0
63506,-100,4,2,1,40,0,0
64429,-100,4,2,1,50,0,0
65353,-100,4,2,1,60,0,0
66276,-100,4,2,1,70,0,0
66737,-100,4,2,1,40,0,0
67199,-100,4,2,1,40,0,0
68122,-100,4,2,1,50,0,0
69045,-100,4,2,1,60,0,0
70429,-100,4,2,1,70,0,0
76891,-100,4,2,1,100,0,0
77353,-100,4,2,1,100,0,0
78276,-100,4,2,1,100,0,0
78737,-100,4,2,1,100,0,0
79199,-100,4,2,1,100,0,0
80583,-100,4,2,1,100,0,0
81506,-100,4,2,1,100,0,0
94429,-100,4,2,1,80,0,1
109083,-100,4,2,1,80,0,0
109199,-100,4,2,1,80,0,1
116583,-100,4,2,1,40,0,0
116814,-100,4,2,1,50,0,0
117045,-100,4,2,1,60,0,0
117276,-100,4,2,1,70,0,0
118429,-100,4,2,1,60,0,0
125814,-100,4,2,2,70,0,0
140583,-100,4,2,1,70,0,0
151660,-100,4,2,2,70,0,0
153506,-100,4,2,1,70,0,0
155353,-100,4,2,1,80,0,1
170006,-100,4,2,1,80,0,0
170122,-100,4,2,1,80,0,1
181199,-100,4,2,1,40,0,0
181660,-100,4,2,1,40,0,0
182583,-100,4,2,1,50,0,0
183506,-100,4,2,1,60,0,0
184429,-100,4,2,1,70,0,0
185353,-100,4,2,1,40,0,0
186276,-100,4,2,1,50,0,0
187199,-100,4,2,1,60,0,0
188122,-100,4,2,1,70,0,0

[Colours]
Combo1 : 125,183,255
Combo2 : 237,135,150
Combo3 : 154,115,198

[HitObjects]
57,201,11352,5,4,0:0:0:0:
112,272,11814,2,0,P|156:274|201:275,1,89.9999999999999,2|0,0:0|0:0,0:0:0:0:
252,350,12737,2,0,P|296:350|341:352,1,89.9999999999999,2|0,0:0|0:0,0:0:0:0:
435,342,13660,2,0,P|438:296|440:253,1,89.9999999999999,2|0,0:0|0:0,0:0:0:0:
373,190,14583,2,0,P|371:141|369:98,1,89.9999999999999,2|4,0:0|0:0,0:0:0:0:
301,40,15506,6,0,P|256:35|211:40,1,89.9999999999999,2|0,0:0|0:0,0:0:0:0:
142,100,16429,2,0,P|140:145|139:190,1,89.9999999999999,2|0,0:0|0:0,0:0:0:0:
71,252,17353,2,0,P|74:297|77:342,1,89.9999999999999,2|0,0:0|0:0,0:0:0:0:
163,365,18276,1,2,0:0:0:0:
252,350,18737,6,0,P|306:314|301:207,1,180,4|0,0:0|0:0,0:0:0:0:
241,141,20122,1,8,0:0:0:0:
168,194,20583,2,0,P|127:190|78:185,1,89.9999999999999,0|8,0:0|0:0,0:0:0:0:
66,95,21506,2,0,P|110:99|155:103,1,89.9999999999999,2|10,0:0|0:0,0:0:0:0:
230,53,22429,6,0,P|261:106|376:106,1,180,4|0,0:0|0:0,0:0:0:0:
438,51,23814,1,8,0:0:0:0:
491,123,24276,2,0,P|495:189|498:231,1,89.9999999999999,0|8,0:0|0:0,0:0:0:0:
457,293,25199,2,0,P|412:284|368:289,1,89.9999999999999,2|2,0:0|0:0,0:0:0:0:
299,346,26122,5,0,0:0:0:0:
217,308,26583,2,0,P|169:313|116:320,2,89.9999999999999,2|0|2,0:0|0:0|0:0,0:0:0:0:
259,228,27968,2,0,P|213:222|166:217,1,89.9999999999999,0|2,0:0|0:0,0:0:0:0:
82,196,28891,2,0,P|79:150|87:106,1,89.9999999999999,0|2,0:0|0:0,0:0:0:0:
149,41,29814,5,0,0:0:0:0:
236,61,30276,2,0,P|280:55|325:53,2,89.9999999999999,2|0|2,0:0|0:0|0:0,0:0:0:0:
174,126,31660,1,0,0:0:0:0:
235,195,32122,2,0,P|232:244|229:293,1,89.9999999999999,0|2,0:0|0:0,0:0:0:0:
299,346,33045,1,4,0:3:0:0:
366,286,33506,6,0,P|412:291|462:274,1,89.9999999999999,4|2,3:0|0:0,0:0:0:0:
488,196,34429,2,0,P|491:151|495:103,1,89.9999999999999,0|2,0:0|0:0,0:0:0:0:
420,54,35353,1,0,0:0:0:0:
352,112,35814,2,0,P|304:109|257:106,1,89.9999999999999,2|0,0:0|0:0,0:0:0:0:
182,64,36737,1,2,0:0:0:0:
97,94,37199,6,0,P|91:137|83:186,1,89.9999999999999,0|2,0:0|0:0,0:0:0:0:
156,236,38122,2,0,P|151:279|145:328,1,89.9999999999999,0|2,0:0|0:0,0:0:0:0:
224,369,39045,1,0,0:0:0:0:
288,306,39506,2,0,P|340:302|388:299,2,89.9999999999999,0|2|2,0:0|0:0|0:0,0:0:0:0:
252,223,40891,6,0,L|435:210,1,180,2|0,0:0|0:0,0:0:0:0:
493,144,42276,1,2,0:0:0:0:
437,73,42737,2,0,P|393:82|349:66,1,89.9999999999999,2|2,0:0|0:0,0:0:0:0:
266,36,43660,2,0,P|223:22|180:31,1,89.9999999999999,0|2,0:0|0:0,0:0:0:0:
139,111,44583,6,0,P|71:104|4:99,2,135,2|0|2,0:0|0:0|0:0,0:0:0:0:
181,190,46429,2,0,P|174:257|169:324,2,135,0|2|2,0:0|0:0|0:0,0:0:0:0:
266,218,48276,6,0,P|262:262|259:307,2,89.9999999999999,4|8|2,0:0|0:0|0:0,0:0:0:0:
280,129,49660,1,8,0:0:0:0:
228,57,50122,2,0,P|184:50|127:44,1,89.9999999999999,0|8,0:0|0:0,0:0:0:0:
63,95,51045,1,2,0:0:0:0:
117,166,51506,1,8,0:0:0:0:
69,242,51968,6,0,P|75:297|78:336,1,89.9999999999999,0|8,0:0|0:0,0:0:0:0:
160,366,52891,2,0,P|166:312|171:267,1,89.9999999999999,2|8,0:0|0:0,0:0:0:0:
208,194,53814,1,0,0:0:0:0:
290,230,54276,2,0,P|295:279|302:329,2,89.9999999999999,8|2|8,0:0|0:0|0:0,0:0:0:0:
370,189,55660,6,0,P|376:135|379:97,1,89.9999999999999,4|4,0:0|0:0,0:0:0:0:
308,40,56583,2,0,P|266:32|220:30,1,89.9999999999999,6|8,0:0|0:0,0:0:0:0:
153,91,57506,2,0,P|110:87|62:85,1,89.9999999999999,4|4,0:0|0:0,0:0:0:0:
32,169,58429,2,0,P|75:173|121:174,1,89.9999999999999,6|8,0:0|0:0,0:0:0:0:
202,215,59353,5,4,0:0:0:0:
255,142,59814,1,4,0:0:0:0:
310,215,60276,2,0,P|313:265|315:315,1,89.9999999999999,4|8,0:0|0:0,0:0:0:0:
395,344,61199,2,0,P|460:331|475:228,1,180,4|6,0:0|0:0,0:0:0:0:
397,188,62583,1,10,0:0:0:0:
310,215,63045,5,4,0:0:0:0:
226,248,63506,2,0,P|183:243|132:238,1,89.9999999999999,2|0,0:0|0:0,0:0:0:0:
48,214,64429,2,0,P|41:170|48:126,1,89.9999999999999,2|0,0:0|0:0,0:0:0:0:
110,60,65353,2,0,P|156:71|205:66,1,89.9999999999999,2|0,0:0|0:0,0:0:0:0:
285,46,66276,2,0,P|329:42|373:53,1,89.9999999999999,2|4,0:0|0:0,0:0:0:0:
446,105,67199,6,0,P|449:169|452:205,1,89.9999999999999,2|0,0:0|0:0,0:0:0:0:
382,253,68122,2,0,P|379:305|376:353,1,89.9999999999999,2|0,0:0|0:0,0:0:0:0:
288,362,69045,2,0,P|285:317|282:272,1,89.9999999999999,2|0,0:0|3:0,0:0:0:0:
256,185,69968,1,0,3:0:0:0:
171,214,70429,6,0,P|132:210|75:205,1,89.9999999999999,0|2,0:0|0:0,0:0:0:0:
27,133,71353,1,0,0:0:0:0:
74,56,71814,1,2,0:0:0:0:
147,108,72276,2,0,P|193:111|241:100,1,89.9999999999999,0|2,0:0|0:0,0:0:0:0:
321,73,73199,2,0,P|328:134|332:164,1,89.9999999999999,0|2,0:0|0:0,0:0:0:0:
306,248,74122,5,0,0:0:0:0:
385,289,74583,2,0,P|440:292|477:295,2,89.9999999999999,2|0|2,0:0|0:0|0:0,0:0:0:0:
308,336,75968,2,0,P|260:327|207:321,1,89.9999999999999,0|0,0:0|0:0,0:0:0:0:
140,277,76891,2,0,P|95:279|54:258,1,89.9999999999999,2|4,0:0|0:3,0:0:0:0:
21,176,77814,6,0,P|66:102|152:101,1,180,6|2,0:0|0:0,0:0:0:0:
232,144,79199,1,0,3:0:0:0:
275,65,79660,2,0,P|341:73|462:84,1,180,2|2,0:0|0:0,0:0:0:0:
496,163,81045,1,0,0:0:0:0:
423,216,81506,6,0,P|427:285|342:338,1,180,2|2,0:0|0:0,0:0:0:0:
258,305,82891,1,0,3:0:0:0:
173,335,83353,2,0,P|130:328|81:323,1,89.9999999999999,2|0,0:0|3:0,0:0:0:0:
73,236,84276,2,0,B|122:240|161:245|161:245|213:234|232:193,1,180,2|2,0:0|0:0,0:0:0:0:
199,109,85660,5,0,0:0:0:0:
269,52,86122,2,0,P|316:56|359:59,1,89.9999999999999,0|2,0:0|0:0,0:0:0:0:
444,86,87045,2,0,P|449:128|439:177,1,89.9999999999999,2|0,0:0|0:0,0:0:0:0:
355,204,87968,2,0,P|345:248|346:295,1,89.9999999999999,2|2,0:0|0:0,0:0:0:0:
260,320,88891,6,0,P|192:327|125:334,2,135,2|0|2,0:0|0:0|0:0,0:0:0:0:
257,230,90737,2,0,P|261:180|265:135,1,89.9999999999999,2|2,0:0|0:0,0:0:0:0:
278,51,91660,2,0,P|315:40|378:46,1,89.9999999999999,2|2,0:0|0:0,0:0:0:0:
413,119,92583,6,0,P|460:113|505:109,2,89.9999999999999,0|0|0,3:0|3:0|3:0,0:0:0:0:
345,178,93968,1,2,0:0:0:0:
264,140,94429,6,0,P|213:135|166:129,1,89.9999999999999,4|8,0:0|0:0,0:0:0:0:
100,78,95353,1,2,0:0:0:0:
33,138,95814,1,8,0:0:0:0:
76,217,96276,2,0,P|71:269|67:306,1,89.9999999999999,0|8,0:0|0:0,0:0:0:0:
143,353,97199,2,0,P|186:344|231:342,1,89.9999999999999,2|8,0:0|0:0,0:0:0:0:
318,364,98122,5,0,0:0:0:0:
376,295,98583,2,0,P|424:298|471:303,2,89.9999999999999,8|2|8,0:0|0:0|0:0,0:0:0:0:
340,212,99968,2,0,P|297:225|252:221,1,89.9999999999999,0|8,0:0|0:0,0:0:0:0:
172,180,100891,2,0,P|170:135|168:89,1,89.9999999999999,2|8,0:0|0:0,0:0:0:0:
237,32,101814,5,4,0:0:0:0:
301,94,102276,1,4,0:0:0:0:
383,58,102737,2,0,P|430:66|480:74,1,89.9999999999999,4|8,0:0|0:0,0:0:0:0:
498,158,103660,2,0,P|500:202|488:253,1,89.9999999999999,4|4,0:0|0:0,0:0:0:0:
408,285,104583,1,4,0:0:0:0:
342,223,105045,1,8,0:0:0:0:
266,272,105506,6,0,P|221:268|176:264,1,89.9999999999999,4|4,0:0|0:0,0:0:0:0:
93,231,106429,2,0,P|84:186|93:143,1,89.9999999999999,4|8,0:0|0:0,0:0:0:0:
168,90,107353,1,4,0:0:0:0:
241,141,107814,2,0,P|294:147|335:152,2,89.9999999999999,4|4|8,0:0|0:0|0:0,0:0:0:0:
271,56,109199,6,0,P|335:64|376:71,1,89.9999999999999,4|2,0:0|0:0,0:0:0:0:
444,37,110122,1,2,0:0:0:0:
499,107,110583,1,0,0:0:0:0:
417,145,111045,2,0,P|411:211|402:332,1,180,0|2,0:0|0:0,0:0:0:0:
320,362,112429,1,0,0:0:0:0:
274,282,112891,6,0,P|209:225|123:239,1,180,4|2,0:0|0:0,0:0:0:0:
49,290,114276,1,0,0:0:0:0:
15,208,114737,2,0,P|13:157|10:108,1,89.9999999999999,2|2,0:0|0:0,0:0:0:0:
66,47,115660,2,0,P|109:47|163:57,1,89.9999999999999,2|2,0:0|0:0,0:0:0:0:
256,192,116583,12,0,117968,3:0:0:0:
248,104,125814,6,0,P|251:174|256:288,1,180
333,328,127199,1,2,0:0:0:0:
383,253,127660,2,0,P|388:183|390:146,2,89.9999999999999,0|2|0,0:0|0:0|0:0,0:0:0:0:
460,298,129045,1,2,0:0:0:0:
478,210,129506,6,0,B|483:120|483:120|466:68|414:63,1,180,0|0,0:0|0:0,0:0:0:0:
333,88,130891,1,2,0:0:0:0:
256,40,131353,2,0,P|214:37|163:32,1,89.9999999999999,0|0,0:0|0:0,0:0:0:0:
92,84,132276,2,0,P|84:132|111:181,1,89.9999999999999,0|2,0:0|0:0,0:0:0:0:
180,207,133199,6,0,P|173:266|167:304,2,89.9999999999999,4|8|0,0:0|0:0|0:0,0:0:0:0:
166,118,134583,1,10,0:0:0:0:
250,149,135045,2,0,B|285:156|317:144|317:144|348:158|376:172|376:172|405:165|431:168,1,180,0|0,0:0|0:0,0:0:0:0:
491,224,136429,1,10,0:0:0:0:
446,302,136891,6,0,P|371:255|276:271,1,180,2|0,0:0|0:0,0:0:0:0:
237,344,138276,1,8,0:0:0:0:
169,284,138737,2,0,B|170:249|177:216|177:216|156:187|122:177|122:177|101:190|77:186,1,180,0|0,0:0|0:0,0:0:0:0:
13,128,140122,1,2,0:0:0:0:
78,66,140583,6,0,P|145:63|261:58,1,180,6|0,0:0|0:0,0:0:0:0:
338,99,141968,1,8,0:0:0:0:
403,160,142429,2,0,P|438:239|388:316,1,180,2|0,0:0|0:0,0:0:0:0:
349,233,143814,1,10,0:0:0:0:
266,269,144276,6,0,L|173:264,1,89.9999999999999,2|8,0:0|0:0,0:0:0:0:
98,219,145199,2,0,P|83:174|101:122,1,89.9999999999999,2|8,0:0|0:0,0:0:0:0:
144,60,146122,2,0,P|189:53|233:74,1,89.9999999999999,2|8,0:0|0:0,0:0:0:0:
276,149,147045,2,0,P|270:209|264:290,1,120,4|4,0:0|0:0,0:0:0:0:
302,316,147968,6,0,P|346:309|391:310,1,89.9999999999999,4|8,0:0|0:0,0:0:0:0:
467,263,148891,2,0,P|462:202|458:158,1,89.9999999999999,0|8,0:0|0:0,0:0:0:0:
466,83,149814,2,0,P|396:32|317:66,1,180,2|0,0:0|0:0,0:0:0:0:
276,149,151199,1,10,0:0:0:0:
209,89,151660,6,0,P|141:85|68:80,2,135,0|0|0,0:0|0:0|0:0,0:0:0:0:
194,177,153506,2,0,P|189:228|183:282,1,89.9999999999999,0|2,0:0|0:0,0:0:0:0:
256,320,154429,1,6,0:0:0:0:
328,266,154891,1,2,0:0:0:0:
375,342,155353,6,0,P|421:345|478:344,1,89.9999999999999,4|8,0:0|0:0,0:0:0:0:
510,266,156276,1,2,0:0:0:0:
474,183,156737,1,8,0:0:0:0:
383,193,157199,2,0,P|340:184|295:179,1,89.9999999999999,0|8,0:0|0:0,0:0:0:0:
211,212,158122,2,0,P|206:153|202:117,1,89.9999999999999,2|8,0:0|0:0,0:0:0:0:
195,32,159045,5,0,0:0:0:0:
123,86,159506,2,0,P|79:80|31:75,2,89.9999999999999,8|2|8,0:0|0:0|0:0,0:0:0:0:
202,122,160891,1,0,0:0:0:0:
273,68,161353,2,0,P|318:65|363:63,1,89.9999999999999,8|2,0:0|0:0,0:0:0:0:
434,118,162276,1,8,0:0:0:0:
383,193,162737,6,0,P|379:239|375:285,1,89.9999999999999,4|4,0:0|0:0,0:0:0:0:
301,334,163660,2,0,P|256:329|211:327,1,89.9999999999999,4|8,0:0|0:0,0:0:0:0:
135,278,164583,2,0,P|91:287|37:269,1,89.9999999999999,4|4,0:0|0:0,0:0:0:0:
5,196,165506,1,4,0:0:0:0:
59,124,165968,1,8,0:0:0:0:
130,178,166429,6,0,P|177:181|221:185,1,89.9999999999999,4|4,0:0|0:0,0:0:0:0:
304,215,167353,2,0,P|343:232|390:227,1,89.9999999999999,4|8,0:0|0:0,0:0:0:0:
444,156,168276,1,4,0:0:0:0:
382,90,168737,2,0,P|384:45|387:0,2,89.9999999999999,8|2|10,0:0|0:0|0:0,0:0:0:0:
296,118,170122,6,0,P|225:66|137:77,1,180,4|2,0:0|0:0,0:0:0:0:
59,124,171506,1,2,0:0:0:0:
97,205,171968,2,0,P|100:262|102:310,1,89.9999999999999,0|0,0:0|0:0,0:0:0:0:
176,345,172891,1,2,0:0:0:0:
240,282,173353,1,0,0:0:0:0:
315,331,173814,6,0,P|391:336|431:237,1,180,0|2,0:0|0:0,0:0:0:0:
386,177,175199,1,2,0:0:0:0:
305,217,175660,1,2,0:0:0:0:
250,145,176122,2,0,P|255:93|259:50,2,89.9999999999999,2|0|2,0:0|0:0|0:0,0:0:0:0:
204,222,177506,6,0,P|145:252|52:191,1,180,0|0,0:0|0:0,0:0:0:0:
31,111,178891,1,0,0:0:0:0:
80,35,179353,2,0,P|124:44|171:49,1,89.9999999999999,2|2,0:0|0:0,0:0:0:0:
258,55,180276,2,0,P|302:55|347:61,1,89.9999999999999,0|2,0:0|0:0,0:0:0:0:
418,117,181199,5,4,0:0:0:0:
369,192,181660,2,0,P|366:252|364:287,1,89.9999999999999,2|0,0:0|0:0,0:0:0:0:
274,278,182583,2,0,P|276:233|278:188,1,89.9999999999999,2|0,0:0|0:0,0:0:0:0:
228,113,183506,2,0,P|187:106|138:124,1,89.9999999999999,2|0,0:0|0:0,0:0:0:0:
73,179,184429,2,0,P|66:220|82:270,1,89.9999999999999,2|4,0:0|0:0,0:0:0:0:
121,345,185353,6,0,P|166:347|212:342,1,89.9999999999999,2|0,0:0|0:0,0:0:0:0:
274,278,186276,2,0,P|325:282|365:281,1,89.9999999999999,2|0,0:0|0:0,0:0:0:0:
430,220,187199,2,0,P|427:173|424:114,1,89.9999999999999,2|0,0:0|0:0,0:0:0:0:
364,63,188122,1,2,0:0:0:0:
307,132,188583,6,0,P|258:124|112:105,1,180,4|0,0:0|0:0,0:0:0:0:
64,170,189968,1,8,0:0:0:0:
138,219,190429,2,0,P|144:278|148:319,1,89.9999999999999,0|8,0:0|0:0,0:0:0:0:
233,335,191353,2,0,P|237:283|241:243,1,89.9999999999999,2|10,0:0|0:0,0:0:0:0:
271,159,192276,6,0,P|333:114|437:151,1,180,0|0,0:0|0:0,0:0:0:0:
461,221,193660,1,8,0:0:0:0:
404,291,194122,2,0,P|365:282|310:273,1,89.9999999999999,0|8,0:0|0:0,0:0:0:0:
254,339,195045,2,0,P|211:334|151:329,1,89.9999999999999,2|10,0:0|0:0,0:0:0:0:
256,192,195968,12,0,197699,0:0:0:0:
