osu file format v14

[General]
AudioFilename: audio.mp3
AudioLeadIn: 0
PreviewTime: 93737
Countdown: 0
SampleSet: Soft
StackLeniency: 0.7
Mode: 0
LetterboxInBreaks: 0
WidescreenStoryboard: 0

[Editor]
Bookmarks: 48254,94407,118407,140561,155331,170100,181177
DistanceSpacing: 1.1
BeatDivisor: 4
GridSize: 4
TimelineZoom: 1.1

[Metadata]
Title:Ifuudoudou
TitleUnicode:威風堂々
Artist:Sharlo
ArtistUnicode:Sharlo
Creator:Chaoslitz
Version:Collab Hard
Source:
Tags:夏萝 梅とら idol umetora moans vocaloid
BeatmapID:960585
BeatmapSetID:445251

[Difficulty]
HPDrainRate:5
CircleSize:4
OverallDifficulty:6
ApproachRate:7
SliderMultiplier:1.5
SliderTickRate:1

[Events]
//Background and Video events
0,0,"bg.jpg",0,0
//Break Periods
//Storyboard Layer 0 (Background)
//Storyboard Layer 1 (Fail)
//Storyboard Layer 2 (Pass)
//Storyboard Layer 3 (Foreground)
//Storyboard Sound Samples

[TimingPoints]
11353,461.538461538462,4,2,1,40,1,0
11814,-100,4,2,1,40,0,0
12737,-100,4,2,1,50,0,0
13660,-100,4,2,1,60,0,0
14583,-100,4,2,1,70,0,0
15045,-100,4,2,1,40,0,0
15506,-100,4,2,1,40,0,0
16429,-100,4,2,1,50,0,0
17353,-100,4,2,1,60,0,0
18276,-100,4,2,1,70,0,0
18737,-100,4,2,1,70,0,0
32583,-100,4,2,1,60,0,0
33045,-100,4,2,1,50,0,0
33506,-100,4,2,1,70,0,0
47122,-100,4,2,1,70,0,0
48276,-100,4,2,1,80,0,1
63045,-100,4,2,1,40,0,0
63506,-100,4,2,1,40,0,0
64429,-100,4,2,1,50,0,0
65353,-100,4,2,1,60,0,0
66276,-100,4,2,1,70,0,0
66737,-100,4,2,1,40,0,0
67199,-100,4,2,1,40,0,0
68122,-100,4,2,1,50,0,0
69045,-100,4,2,1,60,0,0
70429,-100,4,2,1,70,0,0
76891,-100,4,2,1,100,0,0
77353,-100,4,2,1,100,0,0
78276,-100,4,2,1,100,0,0
78737,-100,4,2,1,100,0,0
79199,-100,4,2,1,100,0,0
80583,-100,4,2,1,100,0,0
81506,-100,4,2,1,100,0,0
94429,-100,4,2,1,80,0,1
109083,-100,4,2,1,80,0,0
109199,-100,4,2,1,80,0,1
116583,-100,4,2,1,40,0,0
116814,-100,4,2,1,50,0,0
117045,-100,4,2,1,60,0,0
117276,-100,4,2,1,70,0,0
118429,-125,4,2,1,60,0,0
125814,-125,4,2,2,70,0,0
133199,-100,4,2,2,70,0,0
140583,-100,4,2,1,70,0,0
151660,-100,4,2,2,70,0,0
153506,-100,4,2,1,70,0,0
155353,-100,4,2,1,80,0,1
170006,-100,4,2,1,80,0,0
170122,-100,4,2,1,80,0,1
181199,-100,4,2,1,40,0,0
181660,-100,4,2,1,40,0,0
182583,-100,4,2,1,50,0,0
183506,-100,4,2,1,60,0,0
184429,-100,4,2,1,70,0,0
185353,-100,4,2,1,40,0,0
186276,-100,4,2,1,50,0,0
187199,-100,4,2,1,60,0,0
188122,-100,4,2,1,70,0,0
196199,-125,4,2,1,70,0,0

[Colours]
Combo1 : 125,183,255
Combo2 : 237,135,150
Combo3 : 154,115,198

[HitObjects]
59,323,11352,6,0,P|97:320|137:318,1,75,4|0,0:0|0:0,0:0:0:0:
170,337,11699,1,0,0:0:0:0:
170,337,11814,2,0,P|207:339|243:331,1,75,2|0,0:0|0:0,0:0:0:0:
294,265,12276,1,0,0:0:0:0:
256,192,12506,1,0,0:0:0:0:
175,211,12737,2,0,P|171:173|169:136,1,75,2|0,0:0|0:0,0:0:0:0:
200,59,13199,6,0,P|238:55|274:63,1,75,0|0,0:0|0:0,0:0:0:0:
322,128,13660,2,0,P|360:119|397:120,1,75,2|0,0:0|0:0,0:0:0:0:
449,184,14122,1,0,0:0:0:0:
401,251,14353,1,0,0:0:0:0:
429,327,14583,2,0,P|392:333|357:319,1,75,2|0,0:0|0:0,0:0:0:0:
327,291,14929,1,0,0:0:0:0:
327,291,15045,6,0,P|289:289|252:286,1,75,4|0,0:0|0:0,0:0:0:0:
185,335,15506,2,0,P|146:330|99:326,1,75,2|0,0:0|0:0,0:0:0:0:
46,273,15968,2,0,P|39:231|52:191,1,75,0|0,0:0|0:0,0:0:0:0:
96,132,16429,1,2,0:0:0:0:
162,181,16660,1,0,0:0:0:0:
230,134,16891,6,0,P|267:136|304:139,1,75,0|0,0:0|0:0,0:0:0:0:
378,177,17353,2,0,P|383:230|385:254,1,75,2|0,0:0|0:0,0:0:0:0:
463,278,17814,2,0,P|459:240|456:203,1,75,0|0,0:0|0:0,0:0:0:0:
447,120,18276,1,2,0:0:0:0:
373,82,18506,1,0,0:0:0:0:
373,82,18622,1,0,0:0:0:0:
373,82,18737,6,0,P|342:60|306:52,1,75,4|0,0:0|0:0,0:0:0:0:
304,139,19199,2,0,P|301:176|298:213,1,75,8|0,0:0|0:0,0:0:0:0:
246,277,19660,1,0,0:0:0:0:
168,248,19891,2,0,P|119:244|78:241,2,75,0|8|0,0:0|0:0|0:0,0:0:0:0:
226,189,20583,6,0,P|187:170|155:168,1,75,0|0,0:0|0:0,0:0:0:0:
168,248,21045,1,8,0:0:0:0:
186,328,21276,2,0,P|178:358|174:374,2,37.5,0|2|2,0:0|0:0|0:0,0:0:0:0:
244,270,21737,1,0,0:0:0:0:
311,318,21968,2,0,P|345:334|392:329,1,75,10|0,0:0|0:0,0:0:0:0:
360,253,22429,6,0,P|363:203|366:157,1,75,4|0,0:0|0:0,0:0:0:0:
321,107,22891,1,8,0:0:0:0:
255,157,23122,2,0,P|227:153|199:148,2,37.5,0|2|0,0:0|0:0|0:0,0:0:0:0:
264,239,23583,1,0,0:0:0:0:
264,239,23814,2,0,P|226:235|189:228,1,75,8|0,0:0|0:0,0:0:0:0:
126,174,24276,6,0,P|113:211|112:252,1,75
168,305,24737,1,8,0:0:0:0:
89,329,24968,2,0,P|68:330|51:332,2,37.5,0|2|2,0:0|0:0|0:0,0:0:0:0:
168,305,25429,1,0,0:0:0:0:
246,330,25660,2,0,P|290:332|327:334,1,75,2|0,0:0|0:0,0:0:0:0:
403,339,26122,6,0,P|418:305|420:268,1,75
397,188,26583,1,2,0:0:0:0:
316,205,26814,1,0,0:0:0:0:
245,162,27045,2,0,P|238:107|235:74,1,75,0|0,0:0|0:0,0:0:0:0:
161,51,27506,2,0,P|157:88|152:125,1,75,2|0,0:0|0:0,0:0:0:0:
101,191,27968,5,0,0:0:0:0:
152,258,28199,2,0,P|157:295|161:333,2,75,0|2|0,0:0|0:0|0:0,0:0:0:0:
234,268,28891,2,0,P|240:305|245:343,1,75,0|0,0:0|0:0,0:0:0:0:
324,363,29353,2,0,P|363:357|392:333,1,75,2|0,0:0|0:0,0:0:0:0:
402,253,29814,5,0,0:0:0:0:
332,211,30045,2,0,P|322:246|327:284,2,75,0|2|0,0:0|0:0|0:0,0:0:0:0:
404,170,30737,2,0,P|441:166|478:164,1,75,0|0,0:0|0:0,0:0:0:0:
498,83,31199,2,0,P|461:79|424:77,1,75,2|0,0:0|0:0,0:0:0:0:
349,39,31660,5,0,0:0:0:0:
278,82,31891,2,0,P|274:139|272:164,2,75,2|0|2,0:0|0:0|0:0,0:0:0:0:
203,42,32583,2,0,P|152:21|96:35,1,112.5,2|0,0:0|0:0,0:0:0:0:
72,65,33045,2,0,P|64:100|72:138,1,75,4|0,0:3|0:0,0:0:0:0:
146,102,33506,5,4,3:0:0:0:
136,184,33737,2,0,P|131:221|128:237,2,37.5,0|0|2,0:0|0:0|0:0,0:0:0:0:
213,154,34199,1,0,0:0:0:0:
205,235,34429,2,0,P|199:288|196:312,1,75,0|0,0:0|0:0,0:0:0:0:
275,333,34891,2,0,P|279:295|283:258,1,75,2|0,0:0|0:0,0:0:0:0:
295,176,35353,5,0,0:0:0:0:
371,206,35583,2,0,P|389:202|407:199,2,37.5,0|0|2,0:0|0:0|0:0,0:0:0:0:
370,288,36045,1,0,0:0:0:0:
450,267,36276,2,0,P|476:242|487:205,1,75
447,132,36737,2,0,P|444:89|441:55,1,75,2|0,0:0|0:0,0:0:0:0:
371,12,37199,5,0,0:0:0:0:
306,63,37429,1,0,0:0:0:0:
242,115,37660,1,2,0:0:0:0:
242,115,37776,1,0,0:0:0:0:
242,115,37891,2,0,P|223:112|204:111,2,37.5,0|0|0,0:0|0:0|0:0,0:0:0:0:
318,146,38353,1,0,0:0:0:0:
253,197,38583,2,0,P|215:192|178:188,1,75,2|0,0:0|0:0,0:0:0:0:
109,234,39045,6,0,P|120:282|125:315,1,75,0|2,0:0|0:0,0:0:0:0:
197,344,39506,2,0,P|202:302|207:266,1,75,0|2,0:0|0:0,0:0:0:0:
253,197,39968,2,0,P|267:209|281:224,3,37.5,2|0|0|0,0:0|0:0|0:0|0:0,0:0:0:0:
295,261,40429,2,0,P|293:278|291:300,3,37.5,2|0|0|0,0:0|0:0|0:0|0:0,0:0:0:0:
317,330,40891,6,0,P|353:335|389:326,1,75,2|0,0:0|0:0,0:0:0:0:
419,248,41353,1,0,0:0:0:0:
474,308,41583,2,0,P|497:271|498:235,1,75,2|0,0:0|0:0,0:0:0:0:
451,172,42045,1,0,0:0:0:0:
419,248,42276,2,0,P|391:225|374:191,1,75,2|0,0:0|0:0,0:0:0:0:
398,112,42737,6,0,P|401:68|404:36,1,75,2|0,0:0|0:0,0:0:0:0:
324,14,43199,2,0,P|320:67|317:94,1,75,2|0,0:0|0:0,0:0:0:0:
256,143,43660,1,0,0:0:0:0:
186,98,43891,2,0,P|148:101|111:104,1,75,0|2,0:0|0:0,0:0:0:0:
60,169,44353,1,2,0:0:0:0:
125,218,44583,6,0,P|132:275|135:299,1,75,2|0,0:0|0:0,0:0:0:0:
202,338,45045,1,0,0:0:0:0:
258,278,45276,2,0,P|294:267|334:271,1,75,2|0,0:0|0:0,0:0:0:0:
301,347,45737,1,0,0:0:0:0:
331,270,45968,2,0,P|335:217|337:187,1,75,2|0,0:0|0:0,0:0:0:0:
413,164,46429,6,0,P|417:208|420:243,2,75,0|2|0,0:0|0:0|0:0,0:0:0:0:
351,105,47122,2,0,P|278:117|212:85,1,150,2|2,0:0|0:0,0:0:0:0:
212,85,47699,1,2,0:0:0:0:
212,85,47814,1,2,0:0:0:0:
153,143,48045,1,2,0:0:0:0:
153,143,48160,1,2,0:0:0:0:
153,143,48276,6,0,P|160:179|165:216,1,75,4|0,0:0|0:0,0:0:0:0:
232,268,48737,2,0,P|225:304|220:341,2,75,8|0|2,0:0|0:0|0:0,0:0:0:0:
292,212,49429,1,0,0:0:0:0:
292,212,49545,1,0,0:0:0:0:
292,212,49660,2,0,P|332:208|392:224,1,75,8|0,0:0|0:0,0:0:0:0:
396,240,50006,1,0,0:0:0:0:
396,240,50122,6,0,L|384:314,1,75,0|0,0:0|0:0,0:0:0:0:
480,240,50583,2,0,L|468:165,1,75,8|0,0:0|0:0,0:0:0:0:
412,108,51045,2,0,P|344:132|280:88,1,150,2|8,0:0|0:0,0:0:0:0:
202,72,51737,1,0,0:0:0:0:
202,72,51853,1,0,0:0:0:0:
202,72,51968,6,0,P|210:112|205:164,1,75
168,217,52429,2,0,P|128:221|84:209,1,75,8|0,0:0|0:0,0:0:0:0:
260,212,52891,2,0,P|236:280|280:344,1,150,2|8,0:0|0:0,0:0:0:0:
356,360,53583,1,0,0:0:0:0:
356,360,53814,6,0,L|348:280,1,75,0|0,0:0|0:0,0:0:0:0:
428,316,54276,2,0,L|420:236,1,75,8|0,0:0|0:0,0:0:0:0:
500,268,54737,2,0,L|492:188,1,75,2|0,0:0|0:0,0:0:0:0:
468,160,55083,1,0,0:0:0:0:
468,160,55199,2,0,P|469:115|470:75,1,75,8|0,0:0|0:0,0:0:0:0:
394,50,55660,6,0,P|322:56|284:130,2,150,4|4|6,0:0|0:0|0:0,0:0:0:0:
366,127,56814,1,0,0:0:0:0:
366,127,56929,1,0,0:0:0:0:
366,127,57045,2,0,P|374:167|362:219,1,75,8|0,0:0|0:0,0:0:0:0:
341,278,57506,6,0,L|191:270,2,150,4|4|6,0:0|0:0|0:0,0:0:0:0:
424,272,58660,1,0,0:0:0:0:
424,272,58776,1,0,0:0:0:0:
424,272,58891,2,0,L|412:180,1,75,8|0,0:0|0:0,0:0:0:0:
340,164,59353,6,0,P|400:120|480:148,2,150,4|4|4,0:0|0:0|0:0,0:0:0:0:
340,246,60506,1,0,0:0:0:0:
340,246,60622,1,0,0:0:0:0:
340,246,60737,2,0,P|299:240|256:236,1,75,8|0,0:0|0:0,0:0:0:0:
283,317,61199,6,0,L|119:309,1,150,4|4,0:0|0:0,0:0:0:0:
76,250,61891,1,2,0:0:0:0:
100,170,62122,2,0,P|98:133|110:98,1,75,6|0,0:0|0:0,0:0:0:0:
184,60,62583,2,0,L|280:64,1,75,10|0,0:0|0:0,0:0:0:0:
324,116,63045,5,4,0:0:0:0:
336,36,63276,1,0,0:0:0:0:
248,144,63506,2,0,P|244:184|256:228,1,75,2|0,0:0|0:0,0:0:0:0:
328,252,63968,1,0,0:0:0:0:
376,184,64199,1,0,0:0:0:0:
395,99,64429,2,0,P|357:100|324:116,1,75,2|0,0:0|0:0,0:0:0:0:
376,184,64891,5,0,0:0:0:0:
456,204,65122,1,0,0:0:0:0:
480,124,65353,2,0,L|484:36,1,75,2|0,0:0|0:0,0:0:0:0:
376,184,65814,1,0,0:0:0:0:
400,264,66045,1,0,0:0:0:0:
456,204,66276,2,0,L|460:116,1,75,2|0,0:0|0:0,0:0:0:0:
392,80,66737,5,4,0:0:0:0:
319,119,66968,2,0,P|312:136|306:154,2,37.5,2|0|0,0:0|0:0|0:0,0:0:0:0:
319,36,67429,2,0,P|312:18|305:1,2,37.5,0|2|0,0:0|0:0|0:0,0:0:0:0:
392,80,67891,2,0,P|398:62|404:44,2,37.5,2|0|0,0:0|0:0|0:0,0:0:0:0:
459,129,68353,1,0,0:0:0:0:
459,129,68468,1,0,0:0:0:0:
459,129,68583,6,0,L|456:204,1,75
474,241,68929,1,0,0:0:0:0:
474,241,69045,2,0,L|466:337,1,75,2|0,0:0|0:0,0:0:0:0:
429,226,70429,5,0,0:0:0:0:
384,296,70660,1,0,0:0:0:0:
384,296,70776,1,0,0:0:0:0:
384,296,70891,2,0,P|348:304|304:292,1,75,2|0,0:0|0:0,0:0:0:0:
252,240,71353,2,0,L|240:160,1,75,0|0,0:0|0:0,0:0:0:0:
160,140,71814,2,0,L|171:214,1,75,2|0,0:0|0:0,0:0:0:0:
108,268,72276,5,0,0:0:0:0:
168,324,72506,1,0,0:0:0:0:
168,324,72622,1,0,0:0:0:0:
168,324,72737,2,0,P|204:332|248:320,1,75,2|0,0:0|0:0,0:0:0:0:
252,240,73199,2,0,L|264:160,1,75,0|0,0:0|0:0,0:0:0:0:
336,124,73660,2,0,L|324:44,2,75,2|0|0,0:0|0:0|0:0,0:0:0:0:
388,188,74353,5,0,0:0:0:0:
388,188,74468,1,0,0:0:0:0:
388,188,74583,2,0,L|436:196,2,37.5,2|0|0,0:0|0:0|0:0,0:0:0:0:
316,232,75045,2,0,P|312:276|336:328,1,75,0|0,0:0|0:0,0:0:0:0:
388,352,75506,2,0,P|400:320|396:278,1,75,2|0,0:0|0:0,0:0:0:0:
388,188,75968,5,0,0:0:0:0:
388,188,76199,1,2,0:0:0:0:
316,232,76429,1,0,0:0:0:0:
316,232,76660,1,2,0:0:0:0:
244,272,76891,2,0,P|190:250|166:165,1,150,2|4,0:0|0:3,0:0:0:0:
316,148,77583,1,0,0:0:0:0:
316,148,77699,1,0,0:0:0:0:
316,148,77814,5,6,0:0:0:0:
244,188,78045,1,2,0:0:0:0:
247,105,78276,2,0,P|212:89|174:87,1,75,0|0,3:0|0:0,0:0:0:0:
316,148,78737,2,0,P|352:156|389:152,1,75,2|0,0:0|0:0,0:0:0:0:
464,120,79199,2,0,L|472:76,3,37.5,0|0|0|0,3:0|0:0|0:0|0:0,0:0:0:0:
510,73,79660,6,0,L|489:175,1,75,2|0,0:0|0:0,0:0:0:0:
506,186,80006,1,0,0:0:0:0:
506,186,80122,2,0,P|482:214|470:258,1,75,0|2,3:0|0:0,0:0:0:0:
474,332,80583,2,0,L|434:344,3,37.5,2|0|0|0,0:0|0:0|3:0|0:0,0:0:0:0:
396,344,81045,2,0,P|356:340|316:352,1,75,0|2,0:0|0:0,0:0:0:0:
248,380,81506,5,2,0:0:0:0:
252,296,81737,1,0,0:0:0:0:
188,244,81968,1,0,3:0:0:0:
328,264,82199,1,0,0:0:0:0:
264,212,82429,2,0,L|260:172,4,37.5,2|0|0|0|0,0:0|0:0|0:0|0:0|3:0,0:0:0:0:
188,244,83122,6,0,P|120:256|64:204,1,150,2|0,0:0|0:0,0:0:0:0:
140,176,83814,2,0,L|136:136,3,37.5,0|0|0|0,3:0|0:0|0:0|0:0,0:0:0:0:
132,96,84276,2,0,P|168:84|224:96,1,75,2|0,0:0|0:0,0:0:0:0:
260,148,84737,1,2,0:0:0:0:
284,68,84968,1,2,0:0:0:0:
340,132,85199,6,0,P|376:136|416:128,1,75,2|0,0:0|0:0,0:0:0:0:
476,72,85660,1,0,0:0:0:0:
492,152,85891,2,0,P|480:188|480:244,1,75,2|0,0:0|0:0,0:0:0:0:
484,308,86353,2,0,L|400:320,2,75,0|2|0,0:0|0:0|0:0,0:0:0:0:
477,224,87045,6,0,L|397:236,1,75,2|0,0:0|0:0,0:0:0:0:
336,284,87506,2,0,P|296:288|252:272,1,75,0|0,0:0|0:0,0:0:0:0:
186,313,87968,2,0,P|179:276|188:240,1,75,2|0,0:0|0:0,0:0:0:0:
260,196,88429,1,2,0:0:0:0:
260,196,88660,1,0,0:0:0:0:
188,156,88891,6,0,L|108:160,1,75,2|0,0:0|0:0,0:0:0:0:
52,100,89353,1,0,0:0:0:0:
104,36,89583,2,0,L|178:32,1,75,2|0,0:0|0:0,0:0:0:0:
232,96,90045,2,0,P|220:132|224:180,2,75,2|2|0,0:0|0:0|0:0,0:0:0:0:
260,20,90737,5,2,0:0:0:0:
380,136,91199,1,2,0:0:0:0:
308,284,91660,1,2,0:0:0:0:
192,168,92122,1,2,0:0:0:0:
260,20,92583,5,0,3:0:0:0:
260,20,92814,1,0,3:0:0:0:
276,100,93045,1,0,3:0:0:0:
276,100,93276,1,0,3:0:0:0:
212,152,93506,1,0,3:0:0:0:
354,125,93737,2,0,P|377:120|394:117,2,37.5,2|2|2,0:0|0:0|0:0,0:0:0:0:
293,181,94199,1,2,0:0:0:0:
293,181,94315,1,2,0:0:0:0:
293,181,94429,6,0,P|290:227|288:271,1,75,4|0,0:0|0:0,0:0:0:0:
341,320,94891,2,0,P|381:321|417:312,1,75,8|0,0:0|0:0,0:0:0:0:
413,234,95353,1,2,0:0:0:0:
488,266,95583,1,0,0:0:0:0:
488,266,95699,1,0,0:0:0:0:
488,266,95814,2,0,P|492:224|494:204,3,37.5,8|0|0|0,0:0|0:0|0:0|0:0,0:0:0:0:
483,187,96276,6,0,P|480:147|478:112,1,75,0|0,0:0|0:0,0:0:0:0:
425,48,96737,2,0,P|458:31|495:30,2,75,8|0|2,0:0|0:0|0:0,0:0:0:0:
399,126,97429,1,0,0:0:0:0:
341,66,97660,1,8,0:0:0:0:
341,66,97776,1,0,0:0:0:0:
341,66,97891,2,0,P|303:59|285:55,1,37.5,0|0,0:0|0:0,0:0:0:0:
268,79,98122,6,0,P|230:81|193:84,1,75,0|0,0:0|0:0,0:0:0:0:
113,106,98583,2,0,P|113:68|126:33,2,75,8|0|2,0:0|0:0|0:0,0:0:0:0:
172,164,99276,1,0,0:0:0:0:
172,164,99391,1,0,0:0:0:0:
172,164,99506,2,0,L|164:213,3,37.5,8|0|0|0,0:0|0:0|0:0|0:0,0:0:0:0:
149,239,99968,6,0,P|151:281|152:316,1,75,0|0,0:0|0:0,0:0:0:0:
227,346,100429,1,8,0:0:0:0:
282,285,100660,1,0,0:0:0:0:
337,349,100891,2,0,P|380:345|432:343,1,75,2|0,0:0|0:0,0:0:0:0:
426,305,101237,1,0,0:0:0:0:
426,305,101353,2,0,L|420:267,3,37.5,8|0|0|0,0:0|0:0|0:0|0:0,0:0:0:0:
393,237,101814,6,0,P|394:200|396:163,1,75,4|0,0:0|0:0,0:0:0:0:
315,179,102276,2,0,P|316:141|318:104,1,75,4|0,0:0|0:0,0:0:0:0:
256,49,102737,1,4,0:0:0:0:
193,104,102968,1,0,0:0:0:0:
193,104,103083,1,0,0:0:0:0:
193,104,103199,2,0,P|174:104|155:106,3,37.5,8|0|0|0,0:0|0:0|0:0|0:0,0:0:0:0:
115,98,103660,6,0,P|50:130|37:201,2,150,4|4|4,0:0|0:0|0:0,0:0:0:0:
117,180,104814,1,0,0:0:0:0:
197,178,105045,2,0,L|240:173,3,37.5,8|0|0|0,0:0|0:0|0:0|0:0,0:0:0:0:
266,198,105506,6,0,P|261:272|255:347,2,150,4|4|4,0:0|0:0|0:0,0:0:0:0:
305,125,106660,1,0,0:0:0:0:
305,125,106776,1,0,0:0:0:0:
305,125,106891,2,0,P|338:134|367:136,3,37.5,8|0|0|0,0:0|0:0|0:0|0:0,0:0:0:0:
381,127,107353,6,0,P|451:139|485:204,1,150,4|4,0:0|0:0,0:0:0:0:
403,206,108045,1,0,0:0:0:0:
445,276,108276,2,0,P|439:322|436:353,1,75,4|0,0:0|0:0,0:0:0:0:
361,299,108737,2,0,P|355:345|352:376,1,75,8|0,0:0|0:0,0:0:0:0:
284,258,109199,6,0,P|226:243|160:299,1,150,4|2,0:0|0:0,0:0:0:0:
237,324,109891,1,0,0:0:0:0:
284,258,110122,2,0,P|290:203|294:165,1,75,2|0,0:0|0:0,0:0:0:0:
364,144,110583,2,0,P|358:89|354:51,1,75,0|2,0:0|0:0,0:0:0:0:
284,28,111045,5,0,0:0:0:0:
213,70,111276,2,0,P|179:59|131:62,2,75,2|0|0,0:0|0:0|0:0,0:0:0:0:
169,139,111968,2,0,P|117:140|56:66,2,150,2|0|4,0:0|0:0|0:0,0:0:0:0:
213,70,113122,5,2,0:0:0:0:
250,143,113353,2,0,P|246:186|243:224,1,75,0|0,0:0|0:0,0:0:0:0:
227,298,113814,2,0,P|267:296|300:272,1,75,2|0,0:0|0:0,0:0:0:0:
333,203,114276,2,0,P|376:215|408:215,1,75,0|2,0:0|0:0,0:0:0:0:
464,156,114737,6,0,P|462:96|382:50,2,150,2|2|2,0:0|0:0|0:0,0:0:0:0:
384,132,115891,1,0,0:0:0:0:
314,87,116122,2,0,P|276:84|239:81,1,75,2|0,0:0|0:0,0:0:0:0:
256,192,116583,12,0,117968,3:0:0:0:
239,81,118429,6,0,L|144:88,2,90,0|0|0,0:0|0:0|0:0,0:0:0:0:
239,81,119583,1,2,0:0:0:0:
264,160,119814,2,0,L|252:220,1,60,2|0,0:0|0:0,0:0:0:0:
320,268,120276,6,0,L|343:153,1,90,0|2,0:0|0:0,0:0:0:0:
448,120,120968,2,0,L|430:31,1,90,0|0,0:0|0:0,0:0:0:0:
324,100,121660,2,0,P|296:100|256:88,1,60,2|2,0:0|0:0,0:0:0:0:
188,56,122122,6,0,L|204:168,2,90,0|0|0,0:0|0:0|0:0,0:0:0:0:
76,184,123276,1,2,0:0:0:0:
76,184,123507,2,0,P|72:220|76:256,1,60,2|0,0:0|0:0,0:0:0:0:
128,308,123969,6,0,P|176:312|240:292,1,90,0|2,0:0|0:0,0:0:0:0:
296,208,124660,2,0,P|339:198|384:203,1,90,0|0,0:0|0:0,0:0:0:0:
408,328,125353,2,0,L|324:316,1,60,2|2,0:0|0:0,0:0:0:0:
288,264,125814,6,0,P|260:208|276:140,1,120,0|2,0:0|0:0,0:0:0:0:
232,76,126506,1,0,0:0:0:0:
148,72,126737,2,0,L|116:64,2,30,0|0|0,0:0|0:0|0:0,0:0:0:0:
184,148,127199,2,0,P|184:180|172:220,1,60,2|2,0:0|0:0,0:0:0:0:
128,272,127660,6,0,P|184:248|248:280,1,120,0|2,0:0|0:0,0:0:0:0:
268,348,128353,1,0,0:0:0:0:
184,332,128583,2,0,L|148:352,2,30,0|2|0,0:0|0:0|0:0,0:0:0:0:
320,280,129045,2,0,L|324:208,1,60,2|2,0:0|0:0,0:0:0:0:
255,167,129506,6,0,P|231:114|246:57,1,120,0|2,0:0|0:0,0:0:0:0:
315,107,130199,1,0,0:0:0:0:
380,160,130429,2,0,L|420:168,2,30,0|2|0,0:0|0:0|0:0,0:0:0:0:
315,107,130891,2,0,P|340:88|380:76,1,60,2|2,0:0|0:0,0:0:0:0:
380,160,131353,6,0,L|368:300,1,120,0|0,0:0|0:0,0:0:0:0:
319,347,132045,1,0,0:0:0:0:
253,294,132276,1,0,0:0:0:0:
253,294,132391,2,0,P|203:288|167:284,1,60,2|0,0:0|0:0,0:0:0:0:
154,271,132737,2,0,L|123:267,3,30,2|0|2|0,0:0|0:0|0:0|0:0,0:0:0:0:
88,244,133199,6,0,P|72:188|88:128,1,112.5,4|2,0:0|0:0,0:0:0:0:
104,100,133660,2,0,P|112:64|96:20,1,75,8|0,0:0|0:0,0:0:0:0:
28,68,134122,1,0,0:0:0:0:
36,152,134353,1,2,0:0:0:0:
112,184,134583,2,0,P|148:192|200:188,1,75,10|0,0:0|0:0,0:0:0:0:
252,244,135045,6,0,P|236:192|260:136,1,112.5,0|2,0:0|0:0,0:0:0:0:
288,112,135506,1,8,0:0:0:0:
352,160,135737,2,0,P|368:108|340:52,1,112.5,0|2,0:0|0:0,0:0:0:0:
312,32,136199,1,0,0:0:0:0:
158,47,136429,2,0,P|194:55|231:52,1,75,10|2,0:0|0:0,0:0:0:0:
256,139,136891,6,0,L|132:144,1,112.5,2|2,0:0|0:0,0:0:0:0:
124,180,137353,2,0,P|116:224|128:272,1,75,8|0,0:0|0:0,0:0:0:0:
148,332,137814,1,0,0:0:0:0:
228,304,138045,1,2,0:0:0:0:
272,231,138276,2,0,P|237:220|200:224,1,75,8|0,0:0|0:0,0:0:0:0:
328,292,138737,6,0,L|444:280,1,112.5,0|2,0:0|0:0,0:0:0:0:
480,288,139199,2,0,P|464:248|460:196,1,75,8|0,0:0|0:0,0:0:0:0:
460,132,139660,2,0,L|468:96,3,37.5,0|2|0|0,0:0|0:0|0:0|0:0,0:0:0:0:
448,60,140122,2,0,L|424:12,3,37.5,2|2|2|2,0:0|0:0|0:0|0:0,0:0:0:0:
392,40,140583,6,0,P|352:36|304:32,1,75,6|0,0:0|0:0,0:0:0:0:
256,88,141045,1,8,0:0:0:0:
191,36,141276,2,0,P|177:108|223:163,1,150,0|0,0:0|0:0,0:0:0:0:
282,219,141968,2,0,P|285:255|287:293,1,75,8|0,0:0|0:0,0:0:0:0:
207,315,142429,2,0,P|203:277|201:240,2,75,2|0|10,0:0|0:0|0:0,0:0:0:0:
125,329,143122,6,0,P|122:257|117:178,1,150,0|0,0:0|0:0,0:0:0:0:
53,126,143814,1,10,0:0:0:0:
89,51,144045,1,0,0:0:0:0:
169,69,144276,2,0,P|225:83|280:80,1,112.5,2|0,0:0|0:0,0:0:0:0:
320,76,144737,2,0,P|315:112|317:151,1,75,8|0,0:0|0:0,0:0:0:0:
323,233,145199,2,0,P|380:222|429:248,1,112.5,2|0,0:0|0:0,0:0:0:0:
455,274,145660,2,0,P|459:311|464:348,1,75,8|2,0:0|0:0,0:0:0:0:
384,370,146122,5,2,0:0:0:0:
301,367,146353,2,0,P|262:371|225:376,1,75,0|8,0:0|0:0,0:0:0:0:
145,358,146814,1,2,0:0:0:0:
167,278,147045,2,0,P|216:281|266:284,2,100,4|4|4,0:0|0:0|0:0,0:0:0:0:
61,246,147968,6,0,P|56:205|65:172,1,75,4|0,0:0|0:0,0:0:0:0:
64,172,148314,1,0,0:0:0:0:
64,172,148429,1,8,0:0:0:0:
35,95,148660,1,0,0:0:0:0:
116,105,148891,2,0,P|120:57|122:20,2,75,0|2|8,0:0|0:0|0:0,0:0:0:0:
147,181,149583,1,0,0:0:0:0:
215,135,149814,6,0,P|271:130|332:125,1,112.5,2|0,0:0|0:0,0:0:0:0:
364,143,150276,1,8,0:0:0:0:
414,78,150506,1,2,0:0:0:0:
445,154,150737,2,0,P|448:207|451:239,1,75
372,255,151199,2,0,P|370:273|369:292,3,37.5,10|2|2|2,0:0|0:0|0:0|0:0,0:0:0:0:
368,333,151660,5,0,0:0:0:0:
292,300,151891,2,0,P|296:245|300:203,2,75,2|0|0,0:0|0:0|0:0,0:0:0:0:
209,292,152583,2,0,P|212:328|215:378,2,75,0|2|0,0:0|0:0|0:0,0:0:0:0:
138,249,153276,1,0,0:0:0:0:
68,292,153506,6,0,P|57:254|62:213,1,75,0|2,0:0|0:0,0:0:0:0:
91,142,153968,2,0,L|83:67,2,75,2|2|6,0:0|0:0|0:0,0:0:0:0:
141,211,154660,2,0,P|139:230|138:249,2,37.5,2|2|2,0:0|0:0|0:0,0:0:0:0:
175,134,155122,1,2,0:0:0:0:
175,134,155237,1,2,0:0:0:0:
175,134,155353,6,0,P|211:140|249:138,1,75,4|0,0:0|0:0,0:0:0:0:
370,79,155814,2,0,P|333:73|296:76,1,75,8|0,0:0|0:0,0:0:0:0:
232,228,156276,2,0,P|228:280|248:340,1,112.5,2|0,0:0|0:0,0:0:0:0:
280,360,156737,2,0,L|324:360,3,37.5,8|0|0|0,0:0|0:0|0:0|0:0,0:0:0:0:
356,344,157199,6,0,P|391:333|436:336,1,75,0|0,0:0|0:0,0:0:0:0:
468,260,157660,2,0,P|456:220|460:176,1,75,8|0,0:0|0:0,0:0:0:0:
468,104,158122,2,0,L|360:92,1,75,2|0,0:0|0:0,0:0:0:0:
360,124,158468,1,0,0:0:0:0:
360,124,158583,2,0,L|312:128,3,37.5,8|0|0|0,0:0|0:0|0:0|0:0,0:0:0:0:
292,152,159045,6,0,P|280:188|280:236,1,75,0|0,0:0|0:0,0:0:0:0:
209,312,159506,2,0,P|207:275|196:240,1,75,8|0,0:0|0:0,0:0:0:0:
114,232,159968,2,0,P|148:172|228:164,1,150,2|8,0:0|0:0,0:0:0:0:
360,204,160660,1,0,0:0:0:0:
360,204,160776,1,0,0:0:0:0:
360,204,160891,6,0,P|348:244|352:296,1,75,0|0,0:0|0:0,0:0:0:0:
439,330,161353,2,0,L|428:256,1,75,8|0,0:0|0:0,0:0:0:0:
296,344,161814,2,0,L|212:340,1,75,2|0,0:0|0:0,0:0:0:0:
192,312,162160,1,0,0:0:0:0:
192,312,162276,2,0,L|136:316,3,37.5,8|0|0|0,0:0|0:0|0:0|0:0,0:0:0:0:
112,320,162737,5,4,0:0:0:0:
4,196,163199,1,4,0:0:0:0:
96,60,163660,1,4,0:0:0:0:
152,120,163891,1,0,0:0:0:0:
152,120,164006,1,0,0:0:0:0:
152,120,164122,2,0,L|212:108,3,37.5,8|0|0|0,0:0|0:0|0:0|0:0,0:0:0:0:
228,104,164583,5,4,0:0:0:0:
296,256,165045,1,4,0:0:0:0:
392,124,165506,1,4,0:0:0:0:
328,176,165737,1,0,0:0:0:0:
328,176,165853,1,0,0:0:0:0:
328,176,165968,2,0,L|280:176,3,37.5,8|0|0|0,0:0|0:0|0:0|0:0,0:0:0:0:
248,176,166429,6,0,P|208:236|224:312,2,150,4|4|4,0:0|0:0|0:0,0:0:0:0:
214,100,167583,1,0,0:0:0:0:
214,100,167699,1,0,0:0:0:0:
214,100,167814,2,0,L|156:105,3,37.5,8|0|0|0,0:0|0:0|0:0|0:0,0:0:0:0:
148,132,168276,6,0,P|140:180|156:232,1,75,4|0,0:0|0:0,0:0:0:0:
251,249,168737,2,0,P|256:212|248:176,1,75,8|2,0:0|0:0,0:0:0:0:
160,229,169199,2,0,L|168:321,1,75,2|0,0:0|0:0,0:0:0:0:
236,149,169660,2,0,L|242:74,1,75,10|0,0:0|0:0,0:0:0:0:
332,217,170122,6,0,P|402:211|484:204,1,150,4|2,0:0|0:0,0:0:0:0:
503,125,170814,1,2,0:0:0:0:
456,56,171045,2,0,P|419:44|376:50,1,75,2|0,0:0|0:0,0:0:0:0:
325,108,171506,2,0,P|287:111|252:99,1,75,2|0,0:0|0:0,0:0:0:0:
185,50,171968,5,0,0:0:0:0:
126,108,172199,2,0,P|131:157|134:187,2,75,2|0|2,0:0|0:0|0:0,0:0:0:0:
63,54,172891,1,2,0:0:0:0:
12,118,173122,1,0,0:0:0:0:
53,189,173353,2,0,P|48:236|46:263,1,75,0|2,0:0|0:0,0:0:0:0:
33,303,173699,1,0,0:0:0:0:
33,302,173814,6,0,P|70:302|106:310,1,75,0|2,0:0|0:0,0:0:0:0:
186,333,174276,2,0,P|223:345|267:338,1,75,0|2,0:0|0:0,0:0:0:0:
311,277,174737,1,2,0:0:0:0:
270,204,174968,2,0,P|241:231|229:271,2,75,0|2|2,0:0|0:0|0:0,0:0:0:0:
352,195,175660,6,0,P|324:141|230:133,1,150,2|2,0:0|0:0,0:0:0:0:
174,176,176353,1,0,0:0:0:0:
109,124,176583,2,0,P|91:127|68:130,2,37.5,0|2|0,0:0|0:0|0:0,0:0:0:0:
176,75,177045,1,2,0:0:0:0:
241,127,177276,1,2,0:0:0:0:
241,127,177391,1,2,0:0:0:0:
241,127,177506,5,0,0:0:0:0:
314,88,177737,2,0,P|311:58|310:34,2,37.5,0|2|0,0:0|0:0|0:0,0:0:0:0:
395,102,178199,1,2,0:0:0:0:
445,167,178429,2,0,P|441:211|437:253,1,75,0|2,0:0|0:0,0:0:0:0:
356,257,178891,2,0,P|352:294|349:331,1,75,0|2,0:0|0:0,0:0:0:0:
267,346,179353,6,0,P|236:318|127:328,1,150,2|2,0:0|0:0,0:0:0:0:
83,257,180045,1,0,0:0:0:0:
127,183,180276,2,0,P|141:196|152:212,2,37.5,0|2|0,0:0|0:0|0:0,0:0:0:0:
45,178,180737,1,2,0:0:0:0:
91,109,180968,1,2,0:0:0:0:
91,109,181083,1,2,0:0:0:0:
91,109,181199,1,4,0:0:0:0:
45,178,181429,1,0,0:0:0:0:
127,183,181660,6,0,L|208:176,1,75,2|0,0:0|0:0,0:0:0:0:
280,208,182122,1,0,0:0:0:0:
216,329,182353,1,0,0:0:0:0:
216,329,182468,1,0,0:0:0:0:
216,329,182583,2,0,P|207:293|212:256,1,75,2|0,0:0|0:0,0:0:0:0:
280,208,183045,5,0,0:0:0:0:
292,128,183276,1,0,0:0:0:0:
216,96,183506,2,0,L|141:102,1,75,2|0,0:0|0:0,0:0:0:0:
201,176,183968,1,0,0:0:0:0:
280,208,184199,1,0,0:0:0:0:
292,128,184429,2,0,P|296:88|280:44,1,75,2|0,0:0|0:0,0:0:0:0:
201,176,184891,5,4,0:0:0:0:
216,256,185122,1,0,0:0:0:0:
216,256,185237,1,0,0:0:0:0:
216,256,185353,2,0,L|308:260,1,75,2|0,0:0|0:0,0:0:0:0:
372,272,185814,1,0,0:0:0:0:
325,340,186045,1,0,0:0:0:0:
325,340,186160,1,0,0:0:0:0:
325,340,186276,2,0,L|250:336,1,75,2|0,0:0|0:0,0:0:0:0:
216,256,186737,5,0,0:0:0:0:
250,336,186968,1,0,0:0:0:0:
296,240,187199,2,0,P|304:212|300:160,1,75,2|0,0:0|0:0,0:0:0:0:
272,88,187660,1,0,0:0:0:0:
147,144,187891,1,0,0:0:0:0:
147,144,188006,1,0,0:0:0:0:
147,144,188122,2,0,P|182:155|220:152,1,75,2|0,0:0|0:0,0:0:0:0:
356,104,188583,6,0,P|393:100|428:111,1,75,4|0,0:0|0:0,0:0:0:0:
472,184,189045,2,0,P|460:216|456:268,1,75,8|0,0:0|0:0,0:0:0:0:
476,336,189506,2,0,L|380:344,1,75,0|0,0:0|0:0,0:0:0:0:
297,270,189968,2,0,L|372:264,1,75,8|0,0:0|0:0,0:0:0:0:
272,348,190429,6,0,P|240:328|220:284,1,75,0|0,0:0|0:0,0:0:0:0:
247,218,190891,2,0,P|279:238|299:282,1,75,8|0,0:0|0:0,0:0:0:0:
164,352,191353,2,0,L|84:348,1,75,2|0,0:0|0:0,0:0:0:0:
36,288,191814,2,0,P|36:248|52:216,1,75,10|0,0:0|0:0,0:0:0:0:
120,172,192276,6,0,L|108:84,1,75,0|0,0:0|0:0,0:0:0:0:
88,64,192622,1,0,0:0:0:0:
88,64,192737,2,0,P|132:68|176:52,1,75,8|0,0:0|0:0,0:0:0:0:
279,125,193199,2,0,P|270:89|244:63,1,75,0|0,0:0|0:0,0:0:0:0:
199,131,193660,2,0,L|203:219,1,75,8|0,0:0|0:0,0:0:0:0:
180,240,194006,1,0,0:0:0:0:
180,240,194122,6,0,P|200:280|208:328,1,75,0|0,0:0|0:0,0:0:0:0:
309,357,194583,2,0,P|291:325|288:288,1,75,8|0,0:0|0:0,0:0:0:0:
308,251,194929,1,2,0:0:0:0:
308,251,195045,2,0,L|304:199,3,37.5,2|0|0|0,0:0|0:0|0:0|0:0,0:0:0:0:
336,187,195506,2,0,L|332:135,3,37.5,10|0|0|0,0:0|0:0|0:0|0:0,0:0:0:0:
248,60,196199,6,0,L|204:52,1,30,0|0,0:0|0:0,0:0:0:0:
152,128,196660,2,0,L|108:120,1,30,0|2,0:0|0:0,0:0:0:0:
208,212,197122,2,0,L|237:217,1,30
303,143,197583,2,0,L|333:149,1,30,0|0,0:0|0:0,0:0:0:0:
