osu file format v14

[General]
AudioFilename: audio.mp3
AudioLeadIn: 0
PreviewTime: 78339
Countdown: 0
SampleSet: Soft
StackLeniency: 0.7
Mode: 0
LetterboxInBreaks: 0
WidescreenStoryboard: 0

[Editor]
Bookmarks: 4456,7247,18412,29578,40743,63074,78426,89592,100757,111922,134253,171936,183102,197058,209619,231950,243116
DistanceSpacing: 2.3
BeatDivisor: 4
GridSize: 8
TimelineZoom: 2.999999

[Metadata]
Title:Fantastic Future
TitleUnicode:Fantastic Future
Artist:Sharlo
ArtistUnicode:Sharlo
Creator:sahuang
Version:Insane
Source:変態王子と笑わない猫。
Tags:cover Tamura Yukari 田村ゆかり opening Hentai Ouji to Warawanai Neko. The "HENTAI" prince and the stony cat. kinomi tsukuyomi garden snownino_ fycho yf_bmp
BeatmapID:998438
BeatmapSetID:466550

[Difficulty]
HPDrainRate:6
CircleSize:4
OverallDifficulty:8
ApproachRate:9
SliderMultiplier:1.6
SliderTickRate:1

[Events]
//Background and Video events
0,0,"sharlo2.jpg",0,0
//Break Periods
2,100956,111322
2,172135,179710
2,232149,241120
//Storyboard Layer 0 (Background)
//Storyboard Layer 1 (Fail)
//Storyboard Layer 2 (Pass)
//Storyboard Layer 3 (Foreground)
//Storyboard Sound Samples

[TimingPoints]
4456,348.918353105373,4,2,1,50,1,0
6898,-125,4,2,1,70,0,0
7247,-100,4,2,1,60,0,0
18063,-76.9230769230769,4,2,1,60,0,0
18412,-100,4,2,1,60,0,0
40743,-111.111111111111,4,2,1,60,0,0
63074,-100,4,2,1,60,0,0
77379,-100,4,2,1,60,0,0
77728,-100,4,2,1,60,0,0
78077,-76.9230769230769,4,2,1,60,0,0
78426,-90.9090909090909,4,2,1,70,0,1
100757,-100,4,2,1,60,0,0
134253,-111.111111111111,4,2,1,60,0,0
149257,-76.9230769230769,4,2,1,60,0,0
149606,-90.9090909090909,4,2,1,70,0,1
171936,-100,4,2,1,60,0,0
183102,-95.2380952380952,4,2,1,60,0,0
185893,-105.263157894737,4,2,1,60,0,0
188684,-95.2380952380952,4,2,1,60,0,0
193918,-86.9565217391304,4,2,1,60,0,0
197058,-100,4,2,1,60,0,0
209619,-86.9565217391304,4,2,1,60,0,0
220785,-86.9565217391304,4,2,1,75,0,1
231950,-100,4,2,1,60,0,0
252188,-76.9230769230769,4,2,1,75,0,0

[Colours]
Combo1 : 242,204,102
Combo2 : 250,101,173
Combo3 : 249,51,56
Combo4 : 45,228,54

[HitObjects]
256,192,4456,5,0,0:0:0:0:
256,192,5153,5,0,0:0:0:0:
226,99,5851,5,0,0:0:0:0:
336,135,6200,1,0,0:0:0:0:
336,250,6549,1,0,0:0:0:0:
226,286,6898,2,0,P|182:264|160:203,1,96,4|0,1:2|0:0,0:0:0:0:
159,192,7247,6,0,L|73:204,1,80,4|0,1:2|0:0,0:0:0:0:
155,70,7596,2,0,L|241:82,1,80,2|0,0:0|0:0,0:0:0:0:
359,23,7945,2,0,P|380:99|346:168,1,160,2|0,0:0|0:0,0:0:0:0:
293,326,8468,6,0,L|281:246,1,80,2|0,0:0|1:0,0:0:0:0:
345,168,8817,1,0,0:0:0:0:
425,219,8991,2,0,L|413:298,1,80,0|0,0:0|0:0,0:0:0:0:
292,325,9340,2,0,P|216:306|133:327,1,160,0|0,0:0|0:0,0:0:0:0:
51,365,9864,1,0,0:0:0:0:
16,275,10038,6,0,P|6:236|14:194,1,80,0|0,1:0|0:0,0:0:0:0:
111,77,10387,2,0,P|117:116|107:155,1,80,2|0,0:0|0:0,0:0:0:0:
172,283,10736,1,2,0:0:0:0:
247,153,10910,1,0,0:0:0:0:
89,159,11085,1,2,0:0:0:0:
171,293,11259,6,0,B|252:258|252:313|327:285,1,160,2|2,0:0|0:0,0:0:0:0:
428,163,11783,2,0,L|416:245,1,80,0|2,0:0|0:0,0:0:0:0:
270,134,12132,2,0,L|347:103,1,80,0|2,1:0|0:0,0:0:0:0:
326,285,12481,2,0,L|260:233,1,80,2|0,0:0|0:0,0:0:0:0:
287,45,12830,6,0,P|213:72|181:145,2,160,4|8|0,1:2|1:1|1:0,0:0:0:0:
346,195,13702,1,2,0:0:0:0:
400,79,13876,1,8,1:0:0:0:
489,149,14051,6,4,L|484:230,1,80,2|4,0:0|1:2,1:1:0:0:
441,314,14400,1,0,0:0:0:0:
346,216,14574,2,0,P|313:195|274:194,1,80,8|2,1:0|0:0,0:0:0:0:
234,291,14923,1,0,1:0:0:0:
340,328,15098,1,2,0:0:0:0:
438,167,15272,1,8,1:0:0:0:
346,216,15446,1,2,0:0:0:0:
497,252,15621,5,4,1:2:0:0:
473,76,15795,1,0,1:0:0:0:
346,216,15970,5,0,1:0:0:0:
370,40,16144,1,0,1:0:0:0:
192,169,16319,6,0,L|185:128,3,40,4|0|0|0,1:2|1:0|1:0|1:0,0:0:0:0:
113,119,16668,2,0,L|120:78,3,40,0|0|0|0,1:0|1:0|1:0|1:0,0:0:0:0:
104,309,17889,1,0,1:0:0:0:
104,309,17976,1,0,1:0:0:0:
104,309,18063,6,0,P|159:328|265:283,1,155.999992858887,8|0,0:2|0:0,0:0:0:0:
281,263,18412,6,0,P|318:250|366:260,1,80,4|0,1:2|0:0,0:0:0:0:
487,327,18761,2,0,P|450:340|411:335,1,80,8|0,1:0|0:0,0:0:0:0:
444,244,19110,2,0,P|443:159|424:83,1,160,0|8,1:0|1:0,0:0:0:0:
288,111,19633,6,0,B|311:162|307:215|307:215|248:205,1,160,2|2,0:0|0:0,0:0:0:0:
125,90,20157,2,0,P|113:127|110:181,1,80,8|2,1:0|0:0,0:0:0:0:
157,269,20506,1,2,1:2:0:0:
231,185,20680,1,2,0:0:0:0:
118,178,20855,1,8,1:0:0:0:
172,275,21029,1,0,0:0:0:0:
239,169,21204,6,0,L|248:76,1,80,2|0,1:2|0:0,0:0:0:0:
374,19,21552,2,0,L|381:98,1,80,8|2,1:0|0:0,0:0:0:0:
424,252,21901,1,0,1:0:0:0:
329,240,22076,1,2,0:0:0:0:
454,161,22250,1,8,1:0:0:0:
299,148,22425,6,0,B|247:142|247:142|195:181|142:149,1,160,2|2,0:0|0:0,0:0:0:0:
195,2,22948,2,0,L|190:81,1,80,8|2,1:0|0:0,0:0:0:0:
235,203,23297,1,0,1:0:0:0:
64,220,23472,1,0,0:0:0:0:
108,318,23646,1,8,1:0:0:0:
146,151,23820,1,0,0:0:0:0:
213,306,23995,6,0,P|287:279|319:206,2,160,4|8|2,1:2|1:0|1:2,0:0:0:0:
199,186,24867,1,0,2:0:0:0:
131,345,25041,1,8,1:0:0:0:
15,252,25216,6,0,L|20:171,1,80,2|0,0:0|1:0,0:0:0:0:
63,87,25565,1,2,0:0:0:0:
143,164,25739,2,0,P|176:185|215:186,1,80,8|2,1:0|0:0,0:0:0:0:
316,135,26088,1,0,1:0:0:0:
208,77,26263,1,2,0:0:0:0:
95,216,26437,1,8,1:0:0:0:
68,53,26612,1,2,0:0:0:0:
200,220,26786,5,4,1:2:0:0:
216,56,26961,1,0,1:0:0:0:
303,254,27135,5,0,1:0:0:0:
360,99,27310,1,0,1:0:0:0:
401,305,27484,6,0,P|422:311|440:308,1,40,0|0,1:2|1:0,0:0:0:0:
492,246,27659,2,0,P|486:224|475:210,1,40,0|0,1:0|1:0,0:0:0:0:
396,198,27833,2,0,P|380:213|373:230,1,40,0|0,1:0|1:0,0:0:0:0:
324,292,28007,1,0,1:0:0:0:
324,292,28095,1,0,1:0:0:0:
324,292,28182,6,0,P|285:304|246:297,1,80,4|0,1:2|0:0,0:0:0:0:
158,231,28531,1,4,1:2:0:0:
339,99,28880,1,4,1:2:0:0:
455,313,29228,5,0,1:0:0:0:
418,325,29315,1,0,1:0:0:0:
379,320,29402,1,2,1:2:0:0:
346,298,29489,1,2,1:2:0:0:
312,285,29578,6,0,P|275:272|227:282,1,80,4|2,1:2|0:0,0:0:0:0:
140,294,29927,1,8,1:0:0:0:
94,208,30101,2,0,P|110:131|171:82,1,160,0|0,0:0|0:0,0:0:0:0:
216,195,30624,2,0,P|259:192|298:177,1,80,8|2,1:0|0:0,0:0:0:0:
377,67,30973,6,0,P|337:69|300:82,1,80,0|2,1:0|0:0,0:0:0:0:
293,179,31322,1,8,1:0:0:0:
357,281,31497,1,2,0:0:0:0:
394,292,31584,1,2,0:0:0:0:
433,301,31671,2,0,L|436:215,1,80,2|2,1:2|0:0,0:0:0:0:
289,99,32020,2,0,L|292:178,1,80,8|0,1:0|0:0,0:0:0:0:
310,20,32369,6,0,P|248:28|211:113,1,160,2|8,1:2|1:0,0:0:0:0:
292,178,32892,2,0,B|251:175|215:198|215:198|179:174|136:183,1,160,2|0,0:0|0:0,0:0:0:0:
161,278,33416,1,8,1:0:0:0:
93,93,33590,1,2,0:0:0:0:
46,224,33765,5,0,1:0:0:0:
209,102,33939,2,0,L|193:13,1,80,2|8,0:0|1:0,0:0:0:0:
292,176,34288,2,0,L|277:254,1,80,2|0,0:0|1:0,0:0:0:0:
340,339,34637,1,2,2:0:0:0:
340,339,34724,1,2,2:0:0:0:
340,339,34811,1,8,1:0:0:0:
426,260,34986,1,2,0:0:0:0:
255,274,35160,6,0,B|204:266|204:266|158:298|98:292,1,160,4|8,1:2|1:0,0:0:0:0:
17,235,35684,2,0,P|-3:275|7:326,1,80,0|0,0:0|1:0,0:0:0:0:
86,366,36033,1,0,0:0:0:0:
154,187,36207,2,0,P|158:142|130:98,1,80,8|2,1:0|0:0,0:0:0:0:
49,67,36556,5,0,1:0:0:0:
19,199,36730,1,2,0:0:0:0:
19,199,36818,1,2,0:0:0:0:
19,199,36905,1,8,1:0:0:0:
143,111,37079,2,0,P|232:95|316:97,1,160,2|2,2:0|0:0,0:0:0:0:
390,39,37603,2,0,P|404:78|403:121,1,80,8|2,1:0|0:0,0:0:0:0:
316,201,37952,6,0,L|234:223,2,80,4|2|8,1:2|0:0|1:0,0:0:0:0:
252,326,38475,2,0,P|178:305|137:233,1,160,2|2,0:0|0:2,0:0:0:0:
122,117,38998,1,0,1:0:0:0:
98,108,39086,1,0,0:0:0:0:
98,84,39173,1,2,0:0:0:0:
122,77,39260,1,2,0:0:0:0:
135,96,39347,6,0,L|234:76,1,80,4|0,1:2|1:0,0:0:0:0:
375,181,39696,2,0,L|297:166,1,80,0|0,1:0|1:0,0:0:0:0:
190,223,40045,1,4,1:2:0:0:
165,253,40132,1,0,1:0:0:0:
159,292,40219,1,0,1:0:0:0:
175,328,40306,1,0,1:0:0:0:
208,350,40393,1,0,1:0:0:0:
328,339,40569,2,0,L|368:331,1,40,0|0,1:0|1:0,0:0:0:0:
402,324,40743,5,4,1:2:0:0:
59,136,41092,1,8,1:1:0:0:
28,251,41266,1,2,0:0:0:0:
178,194,41442,2,0,L|262:199,2,71.9999978027344,0|2|8,1:0|0:0|1:0,0:0:0:0:
201,88,41964,6,0,L|272:83,1,71.9999978027344,2|0,0:0|1:0,0:0:0:0:
366,137,42313,2,0,P|380:175|374:219,1,71.9999978027344,2|8,0:0|1:0,0:0:0:0:
439,85,42662,2,0,P|468:157|466:222,1,143.999995605469,2|2,0:0|0:0,0:0:0:0:
421,321,43185,2,0,P|388:332|352:330,1,71.9999978027344,8|2,1:0|0:0,0:0:0:0:
298,152,43534,6,0,B|276:187|276:187|275:290,1,143.999995605469,0|8,1:0|1:0,0:0:0:0:
173,328,44058,2,0,B|171:225|171:225|149:190,1,143.999995605469,2|0,0:0|0:0,0:0:0:0:
144,82,44581,2,0,L|218:93,1,71.9999978027344,8|0,1:0|0:0,0:0:0:0:
304,30,44930,5,0,1:0:0:0:
315,169,45104,1,2,0:0:0:0:
452,111,45279,2,0,L|435:191,1,71.9999978027344,8|2,1:0|0:0,0:0:0:0:
346,291,45628,1,0,1:0:0:0:
346,291,45715,1,8,0:1:0:0:
346,291,45802,2,0,L|360:361,2,71.9999978027344,2|8|2,0:0|1:0|0:0,0:0:0:0:
248,318,46326,5,0,1:2:0:0:
153,283,46500,2,0,L|170:200,2,71.9999978027344,0|8|2,0:0|1:1|0:0,0:0:0:0:
248,224,47024,1,0,1:0:0:0:
130,309,47198,1,2,0:0:0:0:
92,175,47372,1,8,1:0:0:0:
255,193,47547,6,0,L|338:184,1,71.9999978027344,2|0,0:0|1:0,0:0:0:0:
460,113,47896,2,0,L|389:106,1,71.9999978027344,2|8,0:0|1:0,0:0:0:0:
432,222,48245,2,0,P|444:290|412:355,1,143.999995605469,2|2,0:0|0:0,0:0:0:0:
266,276,48768,2,0,L|338:275,1,71.9999978027344,8|2,1:0|0:0,0:0:0:0:
254,360,49117,6,0,B|212:342|212:342|102:364,1,143.999995605469,0|8,1:0|1:0,0:0:0:0:
54,263,49640,2,0,B|96:281|96:281|192:261,1,143.999995605469,2|0,0:0|0:0,0:0:0:0:
126,126,50164,2,0,L|106:203,1,71.9999978027344,8|0,1:0|0:0,0:0:0:0:
33,127,50513,5,2,1:2:0:0:
282,57,50862,2,0,P|281:97|266:135,1,71.9999978027344,8|0,1:0|0:0,0:0:0:0:
240,171,51123,1,0,1:0:0:0:
240,171,51211,5,2,1:2:0:0:
333,313,51385,1,0,1:0:0:0:
338,188,51559,5,8,1:0:0:0:
238,338,51734,1,0,1:0:0:0:
447,302,51908,6,0,P|473:260|455:167,1,143.999995605469,4|8,1:2|1:1,0:0:0:0:
401,94,52432,1,2,0:0:0:0:
319,48,52606,2,0,L|235:64,2,71.9999978027344,0|2|8,1:0|0:0|1:0,0:0:0:0:
172,26,53130,6,0,P|164:66|173:101,1,71.9999978027344,2|0,0:0|1:0,0:0:0:0:
242,213,53479,2,0,P|250:179|243:144,1,71.9999978027344,2|8,0:0|1:0,0:0:0:0:
43,266,53828,2,0,P|110:292|181:286,1,143.999995605469,2|2,0:0|0:0,0:0:0:0:
242,213,54351,2,0,B|277:199|277:199|317:203,1,71.9999978027344,8|2,1:0|0:0,0:0:0:0:
289,293,54700,6,0,P|274:218|266:141,1,143.999995605469,2|8,1:2|1:0,0:0:0:0:
395,90,55223,2,0,P|387:159|373:232,1,143.999995605469,2|2,0:0|0:0,0:0:0:0:
506,241,55746,1,8,1:0:0:0:
474,369,55921,1,0,0:0:0:0:
353,321,56095,6,0,L|264:344,2,71.9999978027344,2|0|8,1:2|0:0|1:0,0:0:0:0:
373,232,56619,1,0,0:0:0:0:
393,143,56793,2,0,L|482:120,2,71.9999978027344,2|0|8,1:2|0:0|1:0,0:0:0:0:
372,232,57317,1,2,0:0:0:0:
296,174,57491,6,0,P|288:140|296:105,2,71.9999978027344,2|0|8,1:2|0:0|1:1,0:0:0:0:
367,65,58014,1,2,0:0:0:0:
383,200,58189,1,0,1:0:0:0:
212,183,58364,1,2,0:0:0:0:
293,268,58538,1,8,1:0:0:0:
274,77,58712,1,0,0:0:0:0:
442,104,58887,6,0,P|477:169|452:248,1,143.999995605469,2|8,1:2|0:1,0:0:0:0:
364,180,59410,1,0,0:0:0:0:
402,328,59585,2,0,P|361:309|326:309,1,71.9999978027344,0|2,1:0|0:0,0:0:0:0:
201,314,59934,1,8,1:0:0:0:
229,165,60108,1,2,0:0:0:0:
77,224,60282,6,0,L|61:307,1,71.9999978027344,4|0,1:2|0:0,0:0:0:0:
229,165,60631,2,0,L|245:82,1,71.9999978027344,8|0,1:0|0:0,0:0:0:0:
141,150,60980,6,0,L|154:220,1,71.9999978027344,4|0,1:2|0:0,0:0:0:0:
320,350,61329,2,0,L|306:279,1,71.9999978027344,8|0,1:0|0:0,0:0:0:0:
229,165,61678,6,0,L|307:151,1,71.9999978027344,6|0,1:2|0:0,0:0:0:0:
403,95,62027,2,0,P|415:129|416:165,1,71.9999978027344,8|0,1:0|0:0,0:0:0:0:
408,211,62289,1,0,1:0:0:0:
408,211,62376,2,0,L|334:229,1,71.9999978027344,2|0,1:2|1:0,0:0:0:0:
159,256,62725,1,8,1:0:0:0:
228,187,62899,1,0,1:0:0:0:
231,348,63074,6,0,B|281:362|281:362|336:337|398:352,1,160,4|0,1:2|0:0,0:0:0:0:
463,279,63597,1,0,1:0:0:0:
463,279,63772,2,0,L|476:193,2,80,0|0|8,1:0|0:0|1:3,0:0:0:0:
368,198,64295,6,0,B|336:127|401:108|353:30,2,160,2|2|2,1:2|1:2|1:2,0:0:0:0:
286,89,65167,1,2,1:2:0:0:
286,89,65342,1,0,0:0:0:0:
268,247,65516,1,8,1:3:0:0:
179,153,65691,1,0,1:0:0:0:
179,153,65778,1,0,1:0:0:0:
179,153,65865,6,0,B|143:133|143:133|122:171|79:173|79:173|77:212,1,160,0|0,1:2|0:0,0:0:0:0:
165,242,66389,1,0,1:0:0:0:
76,94,66563,2,0,P|41:77|100:72,1,160,0|8,1:0|1:3,0:0:0:0:
165,242,67086,5,2,1:2:0:0:
392,318,67435,1,2,1:2:0:0:
341,83,67784,1,2,1:2:0:0:
222,62,67959,2,0,L|115:79,1,80,2|0,1:2|1:0,0:0:0:0:
220,189,68308,2,0,L|327:206,1,80,8|0,1:3|1:0,0:0:0:0:
346,207,68569,1,0,1:0:0:0:
346,207,68656,6,0,P|366:282|341:368,1,160,4|0,1:2|0:0,0:0:0:0:
243,381,69180,1,0,1:0:0:0:
198,282,69354,2,0,L|224:202,2,80,0|0|8,1:0|0:0|1:3,0:0:0:0:
141,370,69878,5,2,1:2:0:0:
304,241,70227,1,2,1:2:0:0:
125,134,70576,1,2,1:2:0:0:
49,225,70750,2,0,L|34:138,1,80,2|0,1:2|1:0,0:0:0:0:
138,55,71099,2,0,L|125:134,1,80,8|0,1:3|1:0,0:0:0:0:
127,182,71361,1,0,1:0:0:0:
127,182,71448,6,0,P|174:175|210:182,1,80,4|0,1:2|0:0,0:0:0:0:
315,280,71797,2,0,P|276:286|237:279,1,80,8|0,1:0|0:0,0:0:0:0:
236,82,72146,6,0,P|275:74|314:80,1,80,2|0,1:2|0:0,0:0:0:0:
418,180,72495,2,0,P|378:187|339:181,1,80,8|0,1:0|0:0,0:0:0:0:
437,82,72843,5,4,1:2:0:0:
469,253,73018,1,0,0:0:0:0:
497,140,73192,1,8,1:0:0:0:
352,223,73367,1,2,0:0:0:0:
367,47,73541,1,2,1:2:0:0:
452,173,73716,1,2,0:0:0:0:
263,142,73890,1,8,1:0:0:0:
374,307,74065,1,2,0:0:0:0:
183,341,74239,6,0,P|150:270|176:196,1,160,4|8,1:2|1:0,0:0:0:0:
263,142,74763,1,0,0:0:0:0:
404,253,74937,2,0,L|244:265,1,160,4|8,1:2|1:0,0:0:0:0:
176,196,75460,1,0,0:0:0:0:
111,338,75635,5,2,1:2:0:0:
53,215,75809,1,4,1:2:0:0:
232,333,75984,5,4,1:2:0:0:
257,162,76158,1,0,1:2:0:0:
62,180,76333,5,4,1:2:0:0:
43,144,76420,1,0,1:0:0:0:
45,105,76507,1,0,1:0:0:0:
62,69,76594,1,0,1:0:0:0:
102,70,76682,5,0,1:0:0:0:
141,79,76769,1,0,1:0:0:0:
180,77,76856,1,0,1:0:0:0:
218,65,76943,1,0,1:0:0:0:
253,45,77031,5,0,0:0:0:0:
221,152,77205,1,0,0:0:0:0:
327,188,77379,2,0,L|334:277,1,80,0|0,3:0|0:0,0:0:0:0:
271,340,77728,1,0,0:0:0:0:
376,350,77903,1,0,1:0:0:0:
376,350,77990,1,0,1:0:0:0:
376,350,78077,6,0,P|369:301|450:237,1,155.999992858887,8|0,0:2|0:0,0:0:0:0:
478,194,78426,6,0,P|483:155|468:108,1,88.000002685547,4|0,1:2|0:0,0:0:0:0:
375,3,78775,2,0,P|364:41|374:90,1,88.000002685547,8|0,1:0|0:0,0:0:0:0:
479,45,79124,2,0,B|349:44|349:44|300:51,1,176.000005371094,2|8,1:2|1:0,0:0:0:0:
192,80,79647,1,2,0:0:0:0:
119,168,79822,6,0,B|136:208|136:208|174:229,1,88.000002685547,0|2,1:0|0:0,0:0:0:0:
393,168,80171,2,0,B|376:208|376:208|337:229,1,88.000002685547,8|2,1:0|0:0,0:0:0:0:
256,310,80520,1,0,1:0:0:0:
359,357,80694,1,0,0:0:0:0:
256,310,80869,1,8,1:0:0:0:
154,361,81043,1,2,0:0:0:0:
97,259,81218,6,0,P|88:217|101:175,1,88.000002685547,0|0,1:0|0:0,0:0:0:0:
207,61,81566,2,0,P|220:103|211:146,1,88.000002685547,8|2,1:0|0:0,0:0:0:0:
179,269,81915,1,0,1:0:0:0:
345,248,82090,1,2,0:0:0:0:
209,169,82264,1,8,1:0:0:0:
243,364,82439,6,0,P|320:345|415:355,1,176.000005371094,2|2,0:0|0:0,0:0:0:0:
478,259,82962,2,0,L|488:171,1,88.000002685547,8|2,1:0|0:0,0:0:0:0:
373,36,83311,2,0,L|383:124,1,88.000002685547,0|2,1:0|0:0,0:0:0:0:
274,270,83660,2,0,L|284:182,1,88.000002685547,8|0,1:0|0:0,0:0:0:0:
230,80,84009,6,0,P|155:54|138:130,2,176.000005371094,4|8|2,1:2|1:0|1:2,0:0:0:0:
183,233,84881,1,0,0:0:0:0:
285,175,85056,1,8,1:0:0:0:
274,330,85230,6,0,P|366:318|450:336,1,176.000005371094,2|2,0:0|0:0,0:0:0:0:
484,226,85753,2,0,L|494:137,1,88.000002685547,8|2,1:0|0:0,0:0:0:0:
385,71,86102,1,0,1:0:0:0:
280,178,86277,1,2,0:0:0:0:
375,52,86451,1,8,1:0:0:0:
227,38,86626,1,2,0:0:0:0:
294,190,86800,6,0,P|293:238|281:287,1,88.000002685547,0|0,1:0|0:0,0:0:0:0:
193,334,87149,1,8,1:0:0:0:
380,247,87324,1,2,0:0:0:0:
182,167,87498,1,0,1:0:0:0:
284,56,87673,1,0,0:0:0:0:
288,246,87847,1,8,1:0:0:0:
463,192,88021,1,2,0:0:0:0:
463,192,88109,1,0,0:0:0:0:
463,192,88196,5,4,1:2:0:0:
412,75,88370,1,0,1:0:0:0:
346,232,88545,5,0,1:0:0:0:
329,60,88719,1,0,1:0:0:0:
221,153,88894,5,4,1:2:0:0:
223,180,88981,1,0,1:0:0:0:
224,208,89068,1,0,1:0:0:0:
226,235,89155,1,0,1:0:0:0:
228,263,89243,1,0,1:0:0:0:
343,332,89417,1,0,1:0:0:0:
343,332,89504,1,0,1:0:0:0:
343,332,89592,6,0,P|423:306|512:344,2,176.000005371094,4|8|2,1:2|1:0|1:2,0:0:0:0:
239,381,90464,1,0,0:0:0:0:
316,221,90638,1,8,1:0:0:0:
154,287,90813,6,0,B|148:224|148:224|172:170|172:170|166:117,1,176.000005371094,2|2,0:0|0:0,0:0:0:0:
244,32,91336,2,0,B|288:28|288:28|332:39,1,88.000002685547,8|2,1:0|0:0,0:0:0:0:
416,114,91685,1,2,1:2:0:0:
260,206,91860,1,2,0:0:0:0:
280,108,92034,1,8,1:0:0:0:
326,282,92208,1,0,0:0:0:0:
132,252,92383,6,0,P|119:210|128:168,1,88.000002685547,2|0,1:2|0:0,0:0:0:0:
251,283,92731,2,0,P|259:326|247:368,1,88.000002685547,8|2,1:0|0:0,0:0:0:0:
203,207,93080,1,0,1:0:0:0:
136,323,93255,1,2,0:0:0:0:
335,279,93429,1,8,1:0:0:0:
255,105,93604,6,0,B|170:68|165:134|85:96,1,176.000005371094,2|2,0:0|0:0,0:0:0:0:
20,178,94128,2,0,P|7:221|13:265,1,88.000002685547,8|2,1:0|0:0,0:0:0:0:
191,281,94476,2,0,P|162:249|122:232,1,88.000002685547,0|2,1:0|0:0,0:0:0:0:
19,379,94825,2,0,P|62:370|97:344,1,88.000002685547,8|2,1:0|0:0,0:0:0:0:
191,281,95174,6,0,L|286:294,1,88.000002685547,4|0,1:2|0:0,0:0:0:0:
195,144,95523,2,0,L|107:156,1,88.000002685547,8|0,1:0|0:0,0:0:0:0:
279,66,95872,2,0,P|310:146|278:225,1,176.000005371094,2|8,1:2|1:0,0:0:0:0:
178,368,96395,6,0,L|191:280,1,88.000002685547,2|0,0:0|1:0,0:0:0:0:
132,146,96744,1,2,0:0:0:0:
1,208,96918,2,0,L|14:295,1,88.000002685547,8|2,1:0|0:0,0:0:0:0:
190,280,97268,2,0,P|274:259|365:282,1,176.000005371094,0|8,1:0|1:0,0:0:0:0:
454,372,97791,1,2,0:0:0:0:
494,180,97966,5,4,1:2:0:0:
370,302,98140,1,0,1:0:0:0:
357,79,98315,5,0,1:0:0:0:
435,245,98489,1,0,1:0:0:0:
265,129,98663,6,0,L|274:173,1,44.0000013427735,0|0,1:2|1:0,0:0:0:0:
214,219,98838,2,0,L|172:205,1,44.0000013427735,0|0,1:0|1:0,0:0:0:0:
156,132,99012,2,0,L|188:102,1,44.0000013427735,0|0,1:0|1:0,0:0:0:0:
253,56,99187,1,0,1:0:0:0:
253,56,99274,1,0,1:0:0:0:
253,56,99361,6,0,P|299:42|344:46,1,88.000002685547,4|0,1:2|0:0,0:0:0:0:
422,147,99710,1,4,1:2:0:0:
255,351,100059,1,4,1:2:0:0:
33,207,100408,1,0,1:0:0:0:
28,164,100495,1,0,1:0:0:0:
24,120,100582,1,2,1:2:0:0:
20,76,100669,1,2,1:2:0:0:
17,32,100756,5,4,1:2:0:0:
381,161,111922,5,4,1:2:0:0:
188,218,112097,1,0,1:0:0:0:
243,115,112271,1,8,1:0:0:0:
211,312,112445,1,0,3:0:0:0:
211,312,112533,1,0,3:0:0:0:
211,312,112620,1,0,3:1:0:0:
338,251,112795,2,0,L|374:270,2,40,0|0|0,3:0|3:0|0:0,0:0:0:0:
193,205,113144,6,0,P|155:195|117:203,1,80,4|0,1:2|3:2,0:0:0:0:
51,341,113492,2,0,B|32:304|42:257,1,80,4|4,1:2|1:0,0:0:0:0:
93,166,113841,1,0,3:0:0:0:
136,290,114016,1,0,3:1:0:0:
0,187,114190,1,0,3:0:0:0:
0,187,114278,1,0,3:0:0:0:
0,187,114365,1,8,1:0:0:0:
145,80,114539,1,0,1:2:0:0:
184,78,114626,1,0,1:0:0:0:
224,79,114714,6,0,P|234:117|230:156,1,80,4|4,1:2|1:2,0:0:0:0:
169,240,115063,1,0,3:0:0:0:
310,303,115237,1,0,3:2:0:0:
310,303,115324,1,0,3:0:0:0:
310,303,115412,2,0,P|349:308|388:300,1,80,0|0,3:0|3:2,0:0:0:0:
426,288,115673,1,0,3:0:0:0:
455,261,115760,1,0,3:0:0:0:
459,108,115935,6,0,P|439:76|400:53,1,80,4|0,1:2|3:0,0:0:0:0:
292,85,116283,1,4,1:2:0:0:
350,217,116458,2,0,L|266:198,1,80,4|0,1:2|3:0,0:0:0:0:
192,92,116807,1,0,3:0:0:0:
106,177,116982,2,0,L|114:225,2,40,4|0|0,1:2|3:0|0:0,0:0:0:0:
11,65,117331,1,0,3:0:0:0:
20,103,117418,1,0,3:0:0:0:
17,142,117505,6,0,P|10:181|19:224,1,80,4|0,1:2|1:0,0:0:0:0:
110,347,117854,2,0,P|116:308|110:269,1,80,8|0,1:0|3:0,0:0:0:0:
99,229,118116,1,0,3:0:0:0:
99,229,118203,1,0,3:1:0:0:
205,137,118377,1,0,3:0:0:0:
194,180,118465,1,0,3:0:0:0:
200,223,118552,1,0,0:0:0:0:
291,185,118726,6,0,L|370:175,1,80,4|0,1:2|3:2,0:0:0:0:
256,77,119075,2,0,L|176:67,1,80,4|0,1:2|3:2,0:0:0:0:
47,152,119424,2,0,B|19:190|19:190|46:239|23:304,1,160,0|0,3:0|3:0,0:0:0:0:
17,339,119860,1,0,3:0:0:0:
17,339,119947,1,8,1:0:0:0:
17,339,120035,1,0,0:0:0:0:
17,339,120122,1,0,1:2:0:0:
111,253,120296,6,0,B|149:241|149:241|188:246,1,80,4|4,1:2|1:2,0:0:0:0:
248,342,120645,1,0,3:0:0:0:
358,284,120820,2,0,L|395:262,3,40,0|0|0|0,3:2|3:0|3:0|0:0,0:0:0:0:
366,196,121169,2,0,L|403:174,3,40,0|0|0|0,3:2|3:0|3:0|3:0,0:0:0:0:
372,109,121518,1,0,3:0:0:0:
372,109,121605,1,2,0:0:0:0:
372,109,121692,6,0,L|355:65,3,40,2|2|0|0,0:0|0:0|0:0|0:0,0:0:0:0:
306,58,122041,2,0,L|289:14,3,40
239,17,122390,1,0,0:0:0:0:
181,103,122564,1,0,1:0:0:0:
181,103,122652,1,0,1:0:0:0:
181,103,122739,1,0,1:2:0:0:
86,47,122913,1,0,1:0:0:0:
86,47,123001,1,0,1:0:0:0:
86,47,123088,6,0,P|68:127|118:190,1,160,4|8,1:2|1:1,0:0:0:0:
77,293,123611,1,2,0:0:0:0:
175,344,123785,2,0,L|267:328,2,80,0|2|8,1:0|0:0|1:0,0:0:0:0:
354,361,124309,6,0,P|360:323|348:281,1,80,2|0,0:0|1:0,0:0:0:0:
272,133,124658,2,0,P|260:172|266:212,1,80,2|8,0:0|1:0,0:0:0:0:
421,201,125007,2,0,P|383:195|341:207,1,80,2|0,0:0|1:0,0:0:0:0:
192,283,125356,2,0,P|231:295|271:289,1,80,2|8,0:0|1:0,0:0:0:0:
344,205,125705,1,2,0:0:0:0:
213,54,125879,6,0,P|218:133|235:212,1,160,2|8,1:2|1:0,0:0:0:0:
151,349,126402,2,0,P|145:269|129:191,1,160,2|2,0:0|0:0,0:0:0:0:
54,131,126925,1,8,1:0:0:0:
232,172,127100,1,0,0:0:0:0:
164,19,127275,6,0,P|158:60|166:101,1,80,2|0,1:2|0:0,0:0:0:0:
277,58,127624,1,8,1:0:0:0:
277,58,127798,1,0,0:0:0:0:
344,211,127973,2,0,P|351:172|345:133,1,80,2|0,1:2|0:0,0:0:0:0:
232,172,128322,1,8,1:0:0:0:
232,172,128496,1,0,0:0:0:0:
163,269,128670,6,0,L|74:278,2,80,2|0|8,1:2|0:0|1:1,0:0:0:0:
67,354,129194,1,2,0:0:0:0:
106,199,129369,1,0,1:0:0:0:
205,281,129543,1,2,0:0:0:0:
45,275,129717,1,8,1:0:0:0:
135,159,129892,6,0,L|226:164,1,80,0|2,0:0|1:2,0:0:0:0:
301,258,130241,2,0,P|295:298|305:336,1,80,0|8,0:0|1:0,0:0:0:0:
384,226,130589,1,2,0:0:0:0:
259,173,130764,1,0,1:0:0:0:
389,90,130938,1,2,0:0:0:0:
247,24,131113,1,8,1:0:0:0:
231,183,131287,1,2,0:0:0:0:
77,160,131462,6,0,L|66:80,1,80,4|0,1:2|0:0,0:0:0:0:
209,195,131811,2,0,L|221:274,1,80,8|0,1:0|0:0,0:0:0:0:
117,186,132160,6,0,L|105:107,1,80,4|0,1:2|0:0,0:0:0:0:
249,220,132509,2,0,L|260:300,1,80,8|0,1:0|0:0,0:0:0:0:
218,123,132857,6,0,P|257:117|293:132,1,80,6|0,1:2|0:0,0:0:0:0:
403,194,133206,2,0,P|416:156|413:117,1,80,8|0,1:0|0:0,0:0:0:0:
403,65,133468,1,0,1:0:0:0:
403,65,133555,2,0,L|323:48,1,80,2|0,1:2|1:0,0:0:0:0:
230,94,133904,1,8,1:0:0:0:
167,11,134078,1,0,1:0:0:0:
67,70,134253,6,0,B|53:172|53:172|93:146,1,143.999995605469,4|0,1:2|0:0,0:0:0:0:
199,177,134776,1,0,1:0:0:0:
199,177,134951,2,0,L|187:253,2,71.9999978027344,0|0|8,1:0|0:0|1:3,0:0:0:0:
338,139,135474,6,0,P|405:151|497:117,2,143.999995605469,2|2|2,1:2|1:2|1:2,0:0:0:0:
306,260,136347,1,2,1:2:0:0:
306,260,136521,1,0,0:0:0:0:
202,92,136695,1,8,1:3:0:0:
153,209,136870,1,0,1:0:0:0:
153,209,136957,1,0,1:0:0:0:
153,209,137044,6,0,B|132:241|132:241|164:259|173:294|173:294|207:278,1,143.999995605469,0|0,1:2|0:0,0:0:0:0:
229,206,137568,1,0,1:0:0:0:
95,316,137742,2,0,P|65:364|121:353,1,143.999995605469,0|8,1:0|1:3,0:0:0:0:
229,206,138265,5,2,1:2:0:0:
430,67,138614,1,2,1:2:0:0:
450,310,138963,1,2,1:2:0:0:
327,316,139138,2,0,L|226:302,1,71.9999978027344,2|0,1:2|1:0,0:0:0:0:
196,197,139487,2,0,L|267:187,1,71.9999978027344,8|0,1:3|1:0,0:0:0:0:
310,183,139748,1,0,1:0:0:0:
310,183,139836,6,0,P|330:108|307:25,1,143.999995605469,4|0,1:2|0:0,0:0:0:0:
215,3,140359,1,0,1:0:0:0:
147,98,140534,2,0,L|219:109,2,71.9999978027344,0|0|8,1:0|0:0|1:3,0:0:0:0:
74,18,141057,5,2,1:2:0:0:
267,168,141406,1,2,1:2:0:0:
51,284,141755,1,2,1:2:0:0:
159,339,141929,2,0,B|198:343|198:343|230:334,1,71.9999978027344,2|0,1:2|1:0,0:0:0:0:
373,248,142278,2,0,B|341:240|341:240|302:244,1,71.9999978027344,8|0,1:3|1:0,0:0:0:0:
262,261,142540,1,0,1:0:0:0:
262,261,142627,6,0,L|253:180,1,71.9999978027344,4|0,1:2|0:0,0:0:0:0:
334,23,142976,2,0,L|325:104,1,71.9999978027344,8|0,1:0|0:0,0:0:0:0:
173,110,143325,6,0,L|254:101,1,71.9999978027344,2|0,1:2|0:0,0:0:0:0:
411,182,143674,2,0,L|330:173,1,71.9999978027344,8|0,1:0|0:0,0:0:0:0:
443,297,144022,5,4,1:2:0:0:
447,116,144197,1,0,0:0:0:0:
495,233,144371,1,8,1:0:0:0:
348,164,144546,1,2,0:0:0:0:
367,337,144720,1,2,1:2:0:0:
446,248,144895,1,2,0:0:0:0:
265,235,145069,1,8,1:0:0:0:
374,77,145244,1,2,0:0:0:0:
183,43,145418,6,0,P|150:114|179:181,1,143.999995605469,4|8,1:2|1:0,0:0:0:0:
264,241,145942,1,0,0:0:0:0:
387,126,146116,2,0,L|243:113,1,143.999995605469,4|8,1:2|1:0,0:0:0:0:
170,172,146639,1,0,0:0:0:0:
111,46,146814,5,2,1:2:0:0:
52,156,146988,1,0,1:2:0:0:
232,51,147163,5,4,1:2:0:0:
231,220,147337,1,0,1:2:0:0:
40,185,147512,5,4,1:2:0:0:
21,221,147599,1,0,1:0:0:0:
23,260,147686,1,0,1:0:0:0:
40,296,147773,1,0,1:0:0:0:
71,299,147860,5,0,1:0:0:0:
110,290,147948,1,0,1:0:0:0:
149,292,148035,1,0,1:0:0:0:
187,304,148122,1,0,1:0:0:0:
222,324,148210,6,0,P|242:328|262:327,2,35.9999989013672,0|0|0,3:0|3:0|3:0,0:0:0:0:
206,180,148559,2,0,P|196:196|184:209,2,35.9999989013672,0|0|0,3:0|3:0|3:0,0:0:0:0:
338,236,148908,2,0,P|329:220|324:203,2,35.9999989013672,0|2|2,3:0|3:2|1:2,0:0:0:0:
292,75,149257,6,0,P|212:65|125:104,1,155.999992858887,8|0,0:2|0:0,0:0:0:0:
92,141,149606,6,0,P|87:180|102:227,1,88.000002685547,4|0,1:2|0:0,0:0:0:0:
196,368,149955,2,0,P|208:326|199:284,1,88.000002685547,8|0,1:0|0:0,0:0:0:0:
83,328,150304,2,0,B|262:322,1,176.000005371094,0|8,1:0|1:0,0:0:0:0:
376,358,150827,1,2,0:0:0:0:
393,216,151002,6,0,B|376:176|376:176|338:155,1,88.000002685547,0|2,1:0|0:0,0:0:0:0:
119,216,151351,2,0,B|136:176|136:176|175:155,1,88.000002685547,8|2,1:0|0:0,0:0:0:0:
256,74,151700,1,0,1:0:0:0:
153,27,151874,1,0,0:0:0:0:
256,74,152049,1,8,1:0:0:0:
358,23,152223,1,2,0:0:0:0:
415,125,152398,6,0,P|424:167|411:209,1,88.000002685547,0|0,1:0|0:0,0:0:0:0:
301,341,152746,2,0,P|288:299|297:257,1,88.000002685547,8|2,1:0|0:0,0:0:0:0:
397,175,153095,1,0,1:0:0:0:
233,201,153270,1,2,0:0:0:0:
370,297,153444,1,8,1:0:0:0:
308,78,153619,6,0,P|229:65|136:87,1,176.000005371094,2|2,0:0|0:0,0:0:0:0:
46,180,154142,2,0,L|36:268,1,88.000002685547,8|2,1:0|0:0,0:0:0:0:
159,372,154491,2,0,L|149:284,1,88.000002685547,0|2,1:0|0:0,0:0:0:0:
260,143,154840,2,0,L|250:231,1,88.000002685547,8|0,1:0|0:0,0:0:0:0:
302,332,155189,6,0,B|388:353|384:297|482:331,2,176.000005371094,4|8|2,1:2|1:0|1:2,0:0:0:0:
337,190,156061,1,0,0:0:0:0:
213,255,156236,1,8,1:0:0:0:
236,67,156410,6,0,P|144:79|60:61,1,176.000005371094,2|2,0:0|0:0,0:0:0:0:
23,171,156933,2,0,L|13:260,1,88.000002685547,8|2,1:0|0:0,0:0:0:0:
92,350,157282,1,0,1:0:0:0:
152,193,157457,1,2,0:0:0:0:
281,298,157631,1,8,1:0:0:0:
117,334,157806,1,2,0:0:0:0:
135,168,157980,6,0,P|136:120|157:75,1,88.000002685547,0|0,1:0|0:0,0:0:0:0:
323,187,158328,1,8,1:0:0:0:
343,23,158503,1,2,0:0:0:0:
226,198,158677,1,0,1:0:0:0:
427,189,158852,1,0,0:0:0:0:
263,81,159026,1,8,1:0:0:0:
325,291,159201,1,2,0:0:0:0:
325,291,159288,1,0,0:0:0:0:
325,291,159375,5,4,1:2:0:0:
100,309,159549,1,0,1:0:0:0:
134,190,159724,5,0,1:0:0:0:
187,373,159898,1,0,1:0:0:0:
291,231,160073,5,4,1:2:0:0:
289,204,160160,1,0,1:0:0:0:
288,176,160247,1,0,1:0:0:0:
286,149,160334,1,0,1:0:0:0:
284,121,160422,1,0,1:0:0:0:
168,65,160596,1,0,1:0:0:0:
168,65,160683,1,0,1:0:0:0:
168,65,160771,6,0,P|88:91|-4:70,2,176.000005371094,4|8|2,1:2|1:0|1:2,0:0:0:0:
285,9,161643,1,0,0:0:0:0:
237,182,161817,1,8,1:0:0:0:
394,74,161992,6,0,B|389:124|389:124|416:189|383:252,1,176.000005371094,2|2,0:0|0:0,0:0:0:0:
275,347,162515,2,0,B|229:364|187:340,1,88.000002685547,8|2,1:0|0:0,0:0:0:0:
89,266,162864,1,2,1:2:0:0:
219,175,163039,1,2,0:0:0:0:
237,276,163213,1,8,1:0:0:0:
145,95,163387,1,0,0:0:0:0:
344,143,163562,6,0,P|357:185|348:227,1,88.000002685547,2|0,1:2|0:0,0:0:0:0:
219,97,163911,2,0,P|211:54|223:12,1,88.000002685547,8|2,1:0|0:0,0:0:0:0:
275,188,164259,1,0,1:0:0:0:
363,61,164434,1,2,0:0:0:0:
176,74,164608,1,8,1:0:0:0:
225,262,164783,6,0,B|310:299|315:233|395:271,1,176.000005371094,2|2,0:0|0:0,0:0:0:0:
275,188,165307,2,0,P|255:149|263:107,1,88.000002685547,8|2,1:0|0:0,0:0:0:0:
379,63,165656,2,0,L|468:45,1,88.000002685547,0|2,1:0|0:0,0:0:0:0:
361,205,166005,2,0,L|272:187,1,88.000002685547,8|0,1:0|0:0,0:0:0:0:
145,110,166354,6,0,P|154:68|146:25,1,88.000002685547,4|0,1:2|0:0,0:0:0:0:
31,179,166703,2,0,P|21:221|29:264,1,88.000002685547,8|0,1:0|0:0,0:0:0:0:
274,218,167051,2,0,P|193:187|114:219,1,176.000005371094,2|8,1:2|1:0,0:0:0:0:
196,313,167574,6,0,L|284:326,1,88.000002685547,2|0,0:0|1:0,0:0:0:0:
412,268,167923,1,2,0:0:0:0:
390,128,168098,2,0,L|303:141,1,88.000002685547,8|2,1:0|0:0,0:0:0:0:
236,245,168447,1,0,1:0:0:0:
248,84,168622,1,2,0:0:0:0:
126,215,168796,1,8,1:0:0:0:
315,213,168971,1,2,0:0:0:0:
185,75,169145,5,4,1:2:0:0:
168,280,169320,1,0,1:0:0:0:
264,142,169494,5,0,1:0:0:0:
70,211,169669,1,0,1:0:0:0:
236,342,169843,6,0,B|259:347|259:347|279:342,1,44.0000013427735,0|0,1:2|1:0,0:0:0:0:
321,278,170017,2,0,B|314:255|314:255|300:241,1,44.0000013427735,0|0,1:0|1:0,0:0:0:0:
220,234,170192,2,0,B|205:252|205:252|200:272,1,44.0000013427735,0|0,1:0|1:0,0:0:0:0:
151,345,170366,1,0,1:0:0:0:
151,345,170453,1,0,1:0:0:0:
151,345,170541,6,0,P|106:355|64:343,1,88.000002685547,4|0,1:2|0:0,0:0:0:0:
20,211,170890,1,4,1:2:0:0:
230,23,171239,1,4,1:2:0:0:
421,229,171587,1,0,1:0:0:0:
453,274,171674,1,0,1:0:0:0:
421,320,171761,1,0,1:2:0:0:
367,302,171848,1,0,1:2:0:0:
367,246,171935,5,4,1:2:0:0:
256,192,180310,12,2,182753,1:0:0:0:
49,326,183102,6,0,L|106:340,3,41.9999987182618,4|0|2|2,1:2|0:0|0:2|0:1,0:0:0:0:
143,283,183451,2,0,L|202:274,3,41.9999987182618,8|0|2|2,1:0|0:1|0:0|0:1,0:0:0:0:
241,328,183800,5,0,1:2:0:0:
270,342,183887,1,2,0:1:0:0:
301,349,183974,1,2,0:2:0:0:
333,346,184061,1,2,0:1:0:0:
363,336,184148,2,0,L|397:309,3,41.9999987182618,8|2|2|2,1:0|0:1|0:0|0:1,0:0:0:0:
421,238,184497,6,0,L|405:173,3,41.9999987182618,0|0|2|0,1:0|0:0|0:1|0:0,0:0:0:0:
482,172,184846,2,0,L|497:107,3,41.9999987182618,8|2|2|2,1:0|0:1|0:0|0:1,0:0:0:0:
460,64,185195,5,0,1:0:0:0:
429,55,185282,1,2,0:1:0:0:
397,57,185370,1,2,0:0:0:0:
368,69,185457,1,2,0:1:0:0:
343,85,185544,2,0,L|319:120,3,41.9999987182618,0|0|2|2,1:0|0:0|0:0|0:0,0:0:0:0:
290,189,185893,6,0,P|241:198|208:190,1,75.9999979705811,2|2,1:0|0:0,0:0:0:0:
162,100,186242,1,8,1:0:0:0:
145,250,186416,1,2,0:0:0:0:
28,130,186591,2,0,P|21:92|33:50,1,75.9999979705811,0|0,1:0|0:0,0:0:0:0:
104,189,186940,1,8,1:0:0:0:
205,58,187114,1,2,0:0:0:0:
294,188,187289,6,0,L|303:263,1,75.9999979705811,0|2,1:0|0:0,0:0:0:0:
412,158,187638,2,0,L|421:82,1,75.9999979705811,8|2,1:0|0:0,0:0:0:0:
282,92,187987,1,0,1:0:0:0:
393,296,188161,2,0,L|399:258,4,37.9999989852906,0|0|0|0|0,1:0|1:0|1:0|1:0|1:0,0:0:0:0:
262,324,188684,5,4,1:2:0:0:
229,297,188771,1,2,0:1:0:0:
215,257,188858,1,2,0:0:0:0:
226,216,188945,1,2,0:1:0:0:
250,177,189033,2,0,L|297:162,3,41.9999987182618,8|2|2|2,1:0|0:1|0:0|0:1,0:0:0:0:
332,159,189382,5,0,1:0:0:0:
370,174,189469,1,2,0:1:0:0:
412,173,189556,1,2,0:0:0:0:
450,156,189643,1,2,0:1:0:0:
478,125,189731,2,0,L|494:80,3,41.9999987182618,8|2|2|2,1:0|0:1|0:0|0:1,0:0:0:0:
470,35,190080,5,0,1:0:0:0:
431,18,190167,1,2,0:1:0:0:
390,12,190254,1,2,0:0:0:0:
348,18,190341,1,2,0:1:0:0:
310,34,190429,2,0,L|269:68,3,41.9999987182618,8|2|2|2,1:0|0:1|0:0|0:1,0:0:0:0:
202,44,190778,6,0,L|160:77,1,41.9999987182618,0|2,1:0|0:1,0:0:0:0:
63,75,190952,2,0,L|96:49,1,41.9999987182618,2|2,0:0|0:1,0:0:0:0:
170,89,191127,6,0,L|128:122,1,41.9999987182618,8|2,1:0|0:1,0:0:0:0:
31,120,191301,2,0,L|63:93,1,41.9999987182618,2|2,0:0|0:1,0:0:0:0:
63,195,191476,5,4,1:2:0:0:
230,153,191650,1,0,0:0:0:0:
141,318,191825,1,8,1:0:0:0:
141,142,191999,1,2,0:2:0:0:
283,304,192174,1,0,0:0:0:0:
156,168,192348,1,2,0:0:0:0:
170,328,192522,1,8,1:0:0:0:
286,184,192697,1,0,0:0:0:0:
105,75,192871,6,0,L|121:37,3,41.9999987182618,4|0|0|0,1:2|1:0|1:0|1:0,0:0:0:0:
205,34,193220,2,0,L|189:74,3,41.9999987182618,0|0|0|0,1:0|1:0|1:0|1:0,0:0:0:0:
272,87,193569,5,0,1:0:0:0:
317,88,193656,1,0,1:0:0:0:
356,111,193743,1,0,1:0:0:0:
379,151,193830,1,0,1:0:0:0:
379,196,193917,5,0,1:0:0:0:
363,244,194005,1,0,1:0:0:0:
314,259,194092,1,0,1:0:0:0:
269,236,194179,1,0,1:0:0:0:
245,190,194267,6,0,L|236:284,1,92.0000017547608,4|2,1:2|1:1,0:0:0:0:
110,187,194616,2,0,L|101:93,1,92.0000017547608,8|2,1:1|1:1,0:0:0:0:
245,190,194965,5,4,1:2:0:0:
394,96,195139,1,2,1:0:0:0:
202,57,195314,1,0,1:0:0:0:
259,311,195488,1,4,1:2:0:0:
256,192,195576,12,0,196884,1:0:0:0:
391,56,197058,6,0,P|319:25|243:43,1,160,4|8,1:2|1:1,0:0:0:0:
130,43,197582,1,2,0:0:0:0:
97,144,197756,2,0,L|114:234,2,80,0|2|8,1:0|0:0|1:0,0:0:0:0:
78,305,198280,6,0,P|118:313|156:301,1,80,2|0,0:0|0:0,0:0:0:0:
294,205,198629,2,0,P|255:197|218:208,1,80,2|8,0:0|1:0,0:0:0:0:
377,268,198978,2,0,P|396:193|358:125,1,160,2|2,0:0|0:0,0:0:0:0:
254,83,199501,1,8,1:0:0:0:
294,205,199675,1,2,0:0:0:0:
177,174,199850,6,0,P|102:189|12:186,1,160,0|8,1:2|1:0,0:0:0:0:
59,31,200373,2,0,P|138:28|217:44,1,160,2|2,0:0|0:0,0:0:0:0:
258,154,200897,1,8,1:0:0:0:
326,11,201071,1,2,0:0:0:0:
450,143,201245,6,0,L|444:238,1,80,0|0,1:0|0:0,0:0:0:0:
479,338,201594,1,8,1:0:0:0:
479,338,201769,1,0,0:0:0:0:
323,375,201943,2,0,L|317:280,1,80,0|2,1:2|0:0,0:0:0:0:
352,180,202292,1,8,1:0:0:0:
352,180,202467,1,2,0:0:0:0:
205,244,202641,6,0,P|183:244|210:239,1,80,4|0,1:2|0:0,0:0:0:0:
299,82,202990,2,0,P|326:62|295:48,1,80,8|0,1:0|0:0,0:0:0:0:
310,207,203339,6,0,P|329:234|343:203,1,80,2|0,1:2|0:0,0:0:0:0:
181,110,203688,2,0,P|161:82|147:113,1,80,8|0,1:0|0:0,0:0:0:0:
75,302,204037,5,4,1:2:0:0:
47,143,204212,1,0,0:0:0:0:
0,255,204386,1,8,1:0:0:0:
191,172,204561,1,2,0:0:0:0:
151,353,204735,1,2,1:2:0:0:
92,215,204910,1,2,0:0:0:0:
263,260,205084,1,8,1:0:0:0:
204,75,205259,1,2,0:0:0:0:
418,55,205433,6,0,P|451:126|423:202,1,160,4|8,1:2|1:0,0:0:0:0:
293,260,205957,1,0,0:0:0:0:
194,144,206131,2,0,L|354:131,1,160,4|8,1:2|1:0,0:0:0:0:
288,224,206654,1,0,0:0:0:0:
418,55,206829,5,2,1:2:0:0:
274,60,207003,1,4,1:2:0:0:
488,185,207178,5,4,1:2:0:0:
288,224,207352,1,0,1:2:0:0:
438,286,207526,5,4,1:2:0:0:
402,302,207613,1,0,1:0:0:0:
362,307,207700,1,0,1:0:0:0:
326,293,207787,1,0,1:0:0:0:
301,262,207874,5,0,1:0:0:0:
288,224,207962,1,0,1:0:0:0:
249,253,208049,1,0,1:0:0:0:
242,300,208136,1,0,1:0:0:0:
257,345,208223,5,0,0:0:0:0:
143,381,208398,1,0,0:0:0:0:
134,250,208573,2,0,L|127:161,1,80,0|0,3:0|0:0,0:0:0:0:
216,77,208922,1,0,0:0:0:0:
87,68,209096,1,2,1:2:0:0:
87,68,209183,1,2,1:2:0:0:
87,68,209271,2,0,L|40:90,3,40,8|0|0|0,0:2|0:0|0:0|0:0,0:0:0:0:
15,158,209619,6,0,P|12:204|26:248,1,92.0000017547608,4|0,1:2|0:0,0:0:0:0:
160,384,209968,2,0,P|173:340|165:296,1,92.0000017547608,8|0,1:0|0:0,0:0:0:0:
23,336,210317,2,0,B|113:341|214:335,1,184.000003509522,2|8,1:2|1:0,0:0:0:0:
330,371,210840,1,2,0:0:0:0:
379,251,211015,6,0,B|422:272|422:272|447:313,1,92.0000017547608,0|2,1:0|0:0,0:0:0:0:
379,133,211364,2,0,B|422:112|422:112|447:71,1,92.0000017547608,8|2,1:0|0:0,0:0:0:0:
288,192,211713,1,0,1:0:0:0:
192,88,211887,1,0,0:0:0:0:
288,192,212062,1,8,1:0:0:0:
192,296,212236,1,2,0:0:0:0:
319,346,212411,6,0,P|364:358|407:344,1,92.0000017547608,0|0,1:0|0:0,0:0:0:0:
506,204,212760,2,0,P|462:193|419:207,1,92.0000017547608,8|2,1:0|0:0,0:0:0:0:
510,309,213108,1,0,1:0:0:0:
369,277,213283,1,2,0:0:0:0:
489,118,213457,1,8,1:0:0:0:
317,157,213632,6,0,P|237:171|135:165,1,184.000003509522,2|2,0:0|0:0,0:0:0:0:
133,60,214155,1,8,1:0:0:0:
96,272,214330,1,2,0:0:0:0:
306,248,214504,2,0,L|317:150,1,92.0000017547608,0|2,1:0|0:0,0:0:0:0:
441,46,214853,2,0,L|451:137,1,92.0000017547608,8|0,1:0|0:0,0:0:0:0:
493,298,215202,6,0,P|469:377|390:353,2,184.000003509522,4|8|2,1:2|1:0|1:2,0:0:0:0:
401,194,216074,1,0,0:0:0:0:
310,333,216249,1,8,1:0:0:0:
262,136,216423,6,0,P|174:122|74:138,1,184.000003509522,2|2,0:0|0:0,0:0:0:0:
17,259,216947,2,0,L|5:355,1,92.0000017547608,8|2,1:0|0:0,0:0:0:0:
136,308,217295,1,0,1:0:0:0:
234,210,217470,1,2,0:0:0:0:
148,317,217644,1,8,1:0:0:0:
284,340,217819,1,2,0:0:0:0:
226,215,217993,6,0,P|227:167|243:111,1,92.0000017547608,4|0,1:2|1:2,0:0:0:0:
350,44,218342,1,0,1:2:0:0:
212,26,218517,1,0,1:2:0:0:
346,184,218691,1,4,1:2:0:0:
158,265,218866,1,0,1:0:0:0:
237,124,219040,1,0,1:0:0:0:
68,156,219214,1,0,1:0:0:0:
68,156,219302,1,0,1:0:0:0:
68,156,219389,5,0,0:0:0:0:
167,305,219563,1,0,0:0:0:0:
192,140,219738,5,2,0:0:0:0:
74,308,219912,1,0,0:0:0:0:
285,357,220087,5,2,0:0:0:0:
287,321,220174,1,0,0:0:0:0:
292,284,220261,1,2,1:2:0:0:
295,249,220348,1,2,1:2:0:0:
298,212,220436,1,8,0:2:0:0:
189,102,220610,1,0,0:0:0:0:
189,102,220697,1,0,0:0:0:0:
189,102,220785,6,0,B|121:135|65:92|65:92|12:113,2,184.000003509522,4|8|2,1:2|1:0|1:2,0:0:0:0:
252,19,221657,1,0,0:0:0:0:
226,188,221831,1,8,1:0:0:0:
396,103,222006,6,0,B|350:180|432:198|389:278,1,184.000003509522,2|2,0:0|0:0,0:0:0:0:
275,357,222529,2,0,B|231:341|231:341|187:350,1,92.0000017547608,8|2,1:0|0:0,0:0:0:0:
80,261,222878,1,2,1:2:0:0:
253,161,223053,1,2,0:0:0:0:
180,267,223227,1,8,1:0:0:0:
190,73,223401,1,0,0:0:0:0:
385,176,223576,6,0,L|392:273,1,92.0000017547608,2|0,1:2|0:0,0:0:0:0:
269,155,223925,2,0,L|275:63,1,92.0000017547608,8|2,1:0|0:0,0:0:0:0:
332,218,224273,1,0,1:0:0:0:
385,40,224448,1,2,0:0:0:0:
173,88,224622,1,8,1:0:0:0:
201,290,224797,6,0,B|254:280|254:280|325:308|325:308|377:295,1,184.000003509522,2|2,0:0|0:0,0:0:0:0:
471,166,225321,2,0,P|490:207|483:252,1,92.0000017547608,8|2,1:0|0:0,0:0:0:0:
378,123,225670,2,0,P|404:85|446:68,1,92.0000017547608,0|2,1:0|0:0,0:0:0:0:
384,223,226019,2,0,P|338:218|303:190,1,92.0000017547608,8|2,1:0|0:0,0:0:0:0:
322,26,226367,6,0,L|226:15,1,92.0000017547608,4|0,1:2|0:0,0:0:0:0:
83,162,226716,2,0,L|175:152,1,92.0000017547608,8|0,1:0|0:0,0:0:0:0:
314,301,227065,2,0,L|223:291,1,92.0000017547608,2|0,1:2|2:0,0:0:0:0:
345,208,227414,1,8,1:0:0:0:
448,103,227589,6,0,L|437:194,1,92.0000017547608,2|0,0:0|1:0,0:0:0:0:
354,72,227938,1,2,0:0:0:0:
268,191,228112,2,0,L|257:99,1,92.0000017547608,8|2,1:0|0:0,0:0:0:0:
127,28,228461,2,0,B|64:24|64:24|18:82|65:135,1,184.000003509522,0|8,1:0|1:0,0:0:0:0:
194,179,228984,1,2,0:0:0:0:
74,249,229159,5,4,1:2:0:0:
242,310,229333,1,0,1:0:0:0:
115,351,229508,1,0,1:0:0:0:
179,156,229682,1,0,1:0:0:0:
334,268,229857,6,0,P|355:274|378:271,1,46.0000008773804,0|0,1:0|1:0,0:0:0:0:
425,204,230031,2,0,P|420:181|406:163,1,46.0000008773804,0|0,1:0|1:0,0:0:0:0:
323,152,230206,2,0,P|306:167|297:188,1,46.0000008773804,0|0,1:0|1:0,0:0:0:0:
255,259,230380,1,0,1:0:0:0:
255,259,230467,1,0,1:2:0:0:
255,259,230555,6,0,P|203:260|159:238,1,92.0000017547608,4|0,1:2|0:0,0:0:0:0:
242,75,230904,2,0,P|267:29|308:2,1,92.0000017547608,4|0,1:2|0:0,0:0:0:0:
410,152,231252,2,0,P|436:196|439:245,1,92.0000017547608,4|0,1:2|0:0,0:0:0:0:
300,355,231601,1,0,1:0:0:0:
253,345,231688,1,0,1:0:0:0:
203,335,231775,1,2,1:2:0:0:
154,325,231862,1,2,1:2:0:0:
105,317,231949,5,4,1:2:0:0:
402,55,241720,5,0,1:0:0:0:
445,238,241894,1,0,0:0:0:0:
487,98,242069,1,8,1:0:0:0:
308,149,242243,1,0,0:0:0:0:
370,321,242418,5,4,1:2:0:0:
331,318,242505,1,0,1:0:0:0:
291,315,242592,1,0,1:0:0:0:
251,312,242679,1,0,1:0:0:0:
211,309,242766,1,0,1:0:0:0:
72,347,242941,1,0,1:0:0:0:
72,347,243028,1,0,1:0:0:0:
72,346,243116,6,0,P|65:307|74:269,1,80,4|2,1:2|0:0,0:0:0:0:
193,126,243465,2,0,P|202:164|194:204,1,80,8|0,1:0|0:0,0:0:0:0:
311,347,243813,2,0,P|303:308|312:270,1,80,0|0,1:0|0:0,0:0:0:0:
431,127,244162,2,0,P|440:165|432:205,1,80,8|2,1:0|0:0,0:0:0:0:
332,89,244511,5,0,1:0:0:0:
443,220,244686,1,2,0:0:0:0:
504,58,244860,1,8,1:0:0:0:
321,99,245035,1,2,0:0:0:0:
267,87,245122,1,2,0:0:0:0:
213,98,245209,2,0,B|173:108|173:108|133:99,1,80,2|2,1:2|0:0,0:0:0:0:
54,176,245558,1,8,1:0:0:0:
28,225,245645,1,0,0:0:0:0:
57,273,245733,1,0,0:0:0:0:
29,321,245820,1,0,0:0:0:0:
52,372,245907,6,0,B|86:364|86:364|137:374,1,80,2|0,1:2|0:0,0:0:0:0:
268,275,246256,2,0,B|223:284|223:284|189:276,1,80,8|2,1:0|0:0,0:0:0:0:
63,173,246605,2,0,B|97:165|97:165|141:174,1,80,0|0,1:2|0:0,0:0:0:0:
279,76,246954,2,0,B|235:84|235:84|201:76,1,80,8|2,1:0|0:0,0:0:0:0:
354,23,247303,5,0,1:0:0:0:
290,177,247477,1,2,0:0:0:0:
418,111,247652,1,8,1:0:0:0:
212,153,247826,1,2,0:0:0:0:
383,269,248001,1,0,1:0:0:0:
321,102,248175,1,2,2:0:0:0:
177,253,248349,1,8,1:0:0:0:
369,310,248524,1,2,0:0:0:0:
147,245,248698,6,0,L|134:331,1,80,4|2,1:2|0:0,0:0:0:0:
23,233,249047,2,0,L|12:153,1,80,8|0,1:0|0:0,0:0:0:0:
156,15,249396,2,0,L|144:95,1,80,0|0,1:0|0:0,0:0:0:0:
263,176,249745,2,0,L|252:96,1,80,8|2,1:0|0:0,0:0:0:0:
378,27,250094,6,0,P|418:20|457:28,1,80,0|2,1:0|0:0,0:0:0:0:
356,120,250443,1,8,1:0:0:0:
356,120,250617,1,2,2:0:0:0:
461,207,250792,2,0,P|422:213|383:205,1,80,0|2,0:0|0:0,0:0:0:0:
483,114,251141,1,8,1:0:0:0:
483,114,251315,1,2,0:0:0:0:
331,272,251490,5,4,1:2:0:0:
276,74,251664,1,0,1:0:0:0:
178,244,251839,5,8,1:0:0:0:
193,26,252013,1,2,1:2:0:0:
42,143,252188,5,4,1:2:0:0:
50,194,252275,1,0,1:0:0:0:
78,237,252362,1,0,1:0:0:0:
127,252,252449,1,0,1:2:0:0:
178,244,252536,5,0,1:2:0:0:
231,221,252624,1,0,1:2:0:0:
290,233,252711,1,2,1:2:0:0:
331,272,252798,1,0,1:2:0:0:
335,337,252885,6,0,P|386:347|438:323,1,103.999995239258,4|0,1:2|0:0,0:0:0:0:
357,99,253234,2,0,P|340:49|293:17,1,103.999995239258,4|0,1:2|0:0,0:0:0:0:
118,175,253583,2,0,P|84:215|79:272,1,103.999995239258,4|0,1:2|0:0,0:0:0:0:
256,192,253932,5,4,1:0:0:0:
