osu file format v14

[General]
AudioFilename: Eisou Youga ~Meikyou Shisui~.mp3
AudioLeadIn: 0
PreviewTime: 100690
Countdown: 0
SampleSet: Soft
StackLeniency: 0.4
Mode: 0
LetterboxInBreaks: 0
WidescreenStoryboard: 0

[Editor]
Bookmarks: 11750,23044,34338,45632,56926,79514,90808
DistanceSpacing: 0.3
BeatDivisor: 4
GridSize: 4
TimelineZoom: 3.199999

[Metadata]
Title:Eisou Youga ~Meikyou Shisui~
TitleUnicode:詠奏妖華 ~明鏡止水~
Artist:Sharlo
ArtistUnicode:Sharlo
Creator:Sharlo
Version:Skystar's Extreme
Source:東方Project
Tags:夏萝 EastNewSound 茶太 Chata 東方妖怪小町 Auxiliary Brightness dnB Narcissu TT Mouse FrostxE Frostmourne Satellite Sakaue Nachi Len Fast Skystar Amamiya Yuko Left Hand victorica_db
BeatmapID:931853
BeatmapSetID:380740

[Difficulty]
HPDrainRate:6
CircleSize:4.3
OverallDifficulty:9
ApproachRate:9.5
SliderMultiplier:1.76
SliderTickRate:1

[Events]
//Background and Video events
0,0,"BG.jpg",0,0
//Break Periods
//Storyboard Layer 0 (Background)
//Storyboard Layer 1 (Fail)
//Storyboard Layer 2 (Pass)
//Storyboard Layer 3 (Foreground)
//Storyboard Sound Samples

[TimingPoints]
455,352.941176470588,4,2,10,60,1,0
23044,-90.9090909090909,4,2,10,70,0,0
24279,-71.4285714285714,4,2,10,70,0,0
24632,-90.9090909090909,4,2,10,70,0,0
26926,-71.4285714285714,4,2,10,70,0,0
28867,-90.9090909090909,4,2,10,70,0,0
29926,-71.4285714285714,4,2,10,70,0,0
30102,-90.9090909090909,4,2,10,70,0,0
32573,-71.4285714285714,4,2,10,70,0,0
34338,-100,4,2,10,70,0,0
38573,-76.9230769230769,4,2,10,70,0,0
39808,-100,4,2,10,70,0,0
44220,-76.9230769230769,4,2,10,70,0,0
45632,-100,4,2,10,70,0,0
56572,-66.6666666666667,4,2,10,70,0,0
56925,-83.3333333333333,4,2,10,80,0,1
61161,-66.6666666666667,4,2,10,80,0,1
62573,-83.3333333333333,4,2,10,80,0,1
66808,-66.6666666666667,4,2,10,80,0,1
68220,-83.3333333333333,4,2,10,80,0,1
72455,-66.6666666666667,4,2,10,80,0,1
73867,-83.3333333333333,4,2,10,80,0,1
78102,-100,4,2,10,40,0,0
79514,-83.3333333333333,4,2,10,60,0,0
80044,-58.8235294117647,4,2,10,60,0,0
80397,-100,4,2,10,60,0,0
80573,-66.6666666666667,4,2,10,60,0,0
81102,-83.3333333333333,4,2,10,60,0,0
81632,-66.6666666666667,4,2,10,60,0,0
82514,-83.3333333333333,4,2,10,60,0,0
84102,-58.8235294117647,4,2,10,60,0,0
84279,-71.4285714285714,4,2,10,60,0,0
85161,-71.4285714285714,4,2,10,60,0,0
85691,-58.8235294117647,4,2,10,60,0,0
86220,-66.6666666666667,4,2,10,60,0,0
86749,-83.3333333333333,4,2,10,60,0,0
90102,-58.8235294117647,4,2,10,60,0,0
90455,-100,4,2,10,60,0,0
90808,-83.3333333333333,4,2,10,60,0,0
91338,-58.8235294117647,4,2,10,60,0,0
91691,-100,4,2,10,60,0,0
91867,-66.6666666666667,4,2,10,60,0,0
92396,-83.3333333333333,4,2,10,60,0,0
92925,-66.6666666666667,4,2,10,60,0,0
93808,-83.3333333333333,4,2,10,60,0,0
95396,-58.8235294117647,4,2,10,60,0,0
95573,-71.4285714285714,4,2,10,60,0,0
96102,-58.8235294117647,4,2,10,60,0,0
96455,-71.4285714285714,4,2,10,60,0,0
96985,-58.8235294117647,4,2,10,60,0,0
97514,-66.6666666666667,4,2,10,60,0,0
98043,-83.3333333333333,4,2,10,60,0,0
101396,-58.8235294117647,4,2,10,60,0,0
101749,-100,4,2,10,60,0,0
102102,-83.3333333333333,4,2,10,70,0,1
106337,-66.6666666666667,4,2,10,70,0,1
107749,-83.3333333333333,4,2,10,70,0,1
111984,-66.6666666666667,4,2,10,70,0,1
123454,-100,4,2,10,70,0,1
123984,-133.333333333333,4,2,10,70,0,1
124513,-200,4,2,2,70,0,0

[Colours]
Combo1 : 162,227,51
Combo2 : 250,168,133
Combo3 : 242,225,128
Combo4 : 221,87,90

[HitObjects]
3,311,11750,5,4,3:2:0:0:
127,283,11926,1,0,0:0:0:0:
110,360,12102,1,8,0:0:0:0:
234,234,12279,5,0,0:0:0:0:
110,206,12455,1,0,0:0:0:0:
127,283,12632,1,0,3:0:0:0:
3,157,12808,6,0,L|16:106,1,44,10|0,0:0|0:0,0:0:0:0:
127,129,12985,2,0,L|140:78,1,44,2|2,0:0|0:0,0:0:0:0:
110,206,13160,1,0,3:0:0:0:
234,80,13338,5,0,0:0:0:0:
110,52,13514,1,8,0:0:0:0:
127,129,13690,1,0,0:0:0:0:
321,46,13867,5,0,0:0:0:0:
275,231,14044,1,0,3:0:0:0:
234,80,14220,5,8,0:0:0:0:
385,101,14397,2,0,L|443:108,1,44,2|0,0:0|0:0,0:0:0:0:
509,73,14573,5,0,3:2:0:0:
385,101,14749,1,0,0:0:0:0:
402,24,14925,1,8,0:0:0:0:
278,150,15102,5,0,0:0:0:0:
402,178,15278,1,0,0:0:0:0:
385,101,15455,1,0,3:0:0:0:
509,227,15631,6,0,L|496:278,1,44,10|0,0:0|0:0,0:0:0:0:
385,255,15808,2,0,L|372:306,1,44,2|2,0:0|0:0,0:0:0:0:
402,178,15985,1,0,3:0:0:0:
278,304,16161,5,0,0:0:0:0:
402,332,16337,1,8,0:0:0:0:
385,255,16513,1,0,0:0:0:0:
377,244,16602,2,0,B|360:204|360:204|380:137,1,88,0|0,3:0|0:0,0:0:0:0:
377,148,16867,1,0,3:0:0:0:
482,287,17043,5,8,0:0:0:0:
450,198,17220,2,0,L|510:192,1,44,2|0,0:0|0:0,0:0:0:0:
469,113,17397,5,0,3:0:0:0:
334,124,17573,1,0,0:0:0:0:
344,47,17750,1,8,0:0:0:0:
318,234,17926,5,0,0:0:0:0:
334,124,18102,1,0,0:0:0:0:
344,47,18279,1,0,3:0:0:0:
207,75,18455,6,0,L|270:98,1,44,10|0,0:0|0:0,0:0:0:0:
334,124,18632,2,0,L|397:147,1,44,2|2,0:0|0:0,0:0:0:0:
344,47,18807,1,0,3:0:0:0:
207,75,18985,5,0,0:0:0:0:
90,145,19161,1,8,0:0:0:0:
67,71,19337,1,0,0:0:0:0:
207,75,19514,6,0,L|222:193,1,88,0|0,0:0|3:0,0:0:0:0:
115,384,19867,2,0,B|125:342|125:342|109:297,1,88,8|2,0:0|0:0,0:0:0:0:
43,271,20132,1,0,0:0:0:0:
43,271,20220,5,0,3:0:0:0:
168,337,20397,1,0,0:0:0:0:
178,260,20573,1,8,0:0:0:0:
194,150,20749,5,0,0:0:0:0:
168,337,20925,1,0,0:0:0:0:
178,260,21102,1,0,3:0:0:0:
305,309,21279,6,0,L|242:286,1,44,10|0,0:0|0:0,0:0:0:0:
168,337,21455,2,0,L|105:314,1,44,2|2,0:0|0:0,0:0:0:0:
178,260,21632,1,0,3:0:0:0:
305,309,21808,5,0,0:0:0:0:
445,313,21985,1,8,0:0:0:0:
422,239,22160,1,0,0:0:0:0:
416,227,22249,2,0,B|380:202|380:202|302:217,1,88,0|0,3:0|0:0,0:0:0:0:
260,231,22514,2,0,L|275:109,1,88,0|2,3:0|0:0,0:0:0:0:
489,150,22867,1,2,0:0:0:0:
489,150,22955,1,0,0:0:0:0:
489,150,23044,5,4,3:2:0:0:
363,287,23220,1,0,0:0:0:0:
278,126,23397,1,8,0:0:0:0:
141,253,23573,5,0,0:0:0:0:
141,253,23661,1,0,0:0:0:0:
141,253,23749,2,0,L|207:243,1,48.4000014770508
358,192,23926,1,0,3:0:0:0:
219,371,24102,6,0,L|229:301,1,48.4000014770508,10|0,0:0|0:0,0:0:0:0:
176,105,24279,2,0,B|180:135|180:135|163:191,1,61.5999981201172,2|2,0:0|0:0,0:0:0:0:
270,230,24455,5,0,3:0:0:0:
88,129,24632,1,0,0:0:0:0:
74,224,24808,2,0,L|88:129,1,96.8000029541017,8|0,0:0|0:0,0:0:0:0:
100,51,25073,1,0,0:0:0:0:
100,51,25161,5,2,0:0:0:0:
156,279,25338,1,0,0:0:0:0:
74,224,25514,5,10,0:0:0:0:
334,186,25691,2,0,L|346:257,1,48.4000014770508,2|0,0:0|0:0,0:0:0:0:
296,293,25867,6,0,B|343:281|343:281|415:311,1,96.8000029541017,0|0,3:0|0:0,0:0:0:0:
393,118,26220,1,8,0:0:0:0:
340,369,26397,1,0,0:0:0:0:
473,215,26573,2,0,L|412:222,1,48.4000014770508
250,216,26749,1,0,3:0:0:0:
393,118,26926,6,0,B|354:112|354:112|315:123|315:123|259:116,1,123.199996240234,10|2,0:0|0:0,0:0:0:0:
116,99,27191,1,2,0:0:0:0:
116,99,27279,2,0,B|146:53|237:48|237:48|204:68|194:105,1,184.799994360352,0|0,3:0|0:0,0:0:0:0:
272,117,27632,1,8,0:0:0:0:
186,314,27808,5,0,0:0:0:0:
195,298,27897,2,0,B|218:246|218:246|184:161,1,123.199996240234,0|0,3:0|0:0,0:0:0:0:
185,167,28161,1,0,3:0:0:0:
69,335,28338,2,0,B|53:208|53:208|104:235,1,184.799994360352,8|0,0:0|0:0,0:0:0:0:
131,247,28691,5,0,3:0:0:0:
384,346,28867,2,0,L|270:330,1,96.8000029541017,0|8,0:0|0:0,0:0:0:0:
113,162,29220,1,0,0:0:0:0:
113,162,29308,1,0,0:0:0:0:
113,162,29397,2,0,L|194:173,1,48.4000014770508
327,193,29573,1,0,3:0:0:0:
208,368,29749,6,0,L|196:287,1,48.4000014770508,10|0,0:0|0:0,0:0:0:0:
247,183,29926,2,0,P|258:154|278:131,1,61.5999981201172,2|2,0:0|0:0,0:0:0:0:
397,225,30102,6,0,P|373:256|285:253,1,96.8000029541017,0|0,3:0|0:0,0:0:0:0:
160,168,30455,1,8,0:0:0:0:
35,288,30632,2,0,P|66:273|117:275,1,48.4000014770508
205,285,30808,5,2,0:0:0:0:
30,165,30985,1,0,3:0:0:0:
196,296,31161,5,10,0:0:0:0:
41,148,31338,2,0,L|56:222,1,48.4000014770508,2|0,0:0|0:0,0:0:0:0:
89,360,31514,5,0,3:0:0:0:
288,164,31691,2,0,L|307:39,1,96.8000029541017,2|8,0:0|0:0,0:0:0:0:
410,244,32044,1,0,0:0:0:0:
410,244,32132,1,0,0:0:0:0:
410,244,32220,6,0,P|383:245|338:222,1,48.4000014770508
215,117,32397,2,0,P|188:116|143:139,1,48.4000014770508,0|0,3:0|0:0,0:0:0:0:
90,226,32573,6,0,L|246:204,1,123.199996240234,8|2,0:0|0:0,0:0:0:0:
379,159,32838,1,2,0:0:0:0:
379,159,32926,2,0,B|393:286|393:286|388:257|343:223,1,184.799994360352,0|0,3:0|0:0,0:0:0:0:
289,231,33279,1,8,0:0:0:0:
162,282,33455,5,0,0:0:0:0:
182,282,33544,2,0,B|221:286|221:286|256:307|256:307|303:312,1,123.199996240234,0|0,3:0|0:0,0:0:0:0:
317,314,33808,1,0,3:0:0:0:
231,121,33985,2,0,B|102:104|102:104|150:150,1,184.799994360352,8|0,0:0|0:0,0:0:0:0:
2,166,34338,6,0,B|61:173|61:173|108:213|108:213|163:221,1,176,4|8,3:2|0:0,0:0:0:0:
48,343,34867,2,0,L|38:250,1,88
141,141,35220,1,0,0:0:0:0:
272,384,35397,2,0,L|282:291,1,88,10|2,0:0|0:0,0:0:0:0:
281,296,35661,1,2,0:0:0:0:
281,296,35749,5,0,3:0:0:0:
181,341,35926,2,0,L|122:349,2,44,0|0|8,0:0|0:0|0:0,0:0:0:0:
467,219,36279,2,0,B|428:195|428:195|330:214,1,132
317,218,36632,1,0,3:0:0:0:
402,327,36808,2,0,L|411:246,1,44,8|0,0:0|0:0,0:0:0:0:
420,120,36985,2,0,L|429:39,1,44
433,4,37161,6,0,B|388:12|388:12|360:40|360:40|319:24|319:24|266:36,1,176,0|8,3:0|0:0,0:0:0:0:
151,136,37691,2,0,B|196:128|196:128|224:100|224:100|265:116|265:116|318:104,1,176,0|0,0:0|3:0,0:0:0:0:
158,56,38220,1,10,0:0:0:0:
231,260,38397,1,2,0:0:0:0:
231,260,38485,1,2,0:0:0:0:
231,260,38573,6,0,L|243:197,1,57.1999973815919,0|0,3:0|0:0,0:0:0:0:
273,34,38749,1,0,0:0:0:0:
275,325,38926,2,0,B|227:302|227:302|140:316,1,114.399994763184,8|0,0:0|0:0,0:0:0:0:
87,360,39191,2,0,L|75:221,1,114.399994763184,0|0,3:0|0:0,0:0:0:0:
76,228,39455,1,0,3:0:0:0:
214,384,39632,1,8,0:0:0:0:
336,240,39808,5,0,0:0:0:0:
336,240,39897,1,0,0:0:0:0:
336,240,39985,2,0,B|387:215|387:215|362:346,1,176,0|8,3:0|0:0,0:0:0:0:
453,315,40514,2,0,L|470:228,1,88
265,304,40867,1,0,3:0:0:0:
247,217,41044,2,0,L|267:315,1,88,10|2,0:0|0:0,0:0:0:0:
302,372,41308,1,2,0:0:0:0:
302,372,41397,6,0,B|261:356|261:356|191:373,1,88,0|0,3:0|0:0,0:0:0:0:
206,371,41661,1,0,0:0:0:0:
193,375,41749,1,8,0:0:0:0:
247,217,41926,2,0,L|403:193,1,132
403,193,42279,1,0,3:0:0:0:
370,321,42455,2,0,P|366:297|377:251,1,44,8|0,0:0|0:0,0:0:0:0:
486,213,42632,2,0,P|487:191|483:169,1,44
409,99,42808,5,0,3:0:0:0:
443,288,42985,2,0,L|458:356,2,44,0|0|8,0:0|0:0|0:0,0:0:0:0:
322,214,43338,1,0,0:0:0:0:
287,207,43426,1,0,0:0:0:0:
253,215,43514,1,0,0:0:0:0:
225,236,43602,1,0,0:0:0:0:
207,266,43691,1,0,3:0:0:0:
184,151,43867,1,10,0:0:0:0:
270,344,44044,1,2,0:0:0:0:
270,344,44132,1,2,0:0:0:0:
270,344,44220,6,0,P|278:314|288:279,1,57.1999973815919,0|0,3:0|0:0,0:0:0:0:
357,141,44397,1,0,0:0:0:0:
482,365,44573,2,0,B|430:384|430:384|359:353,1,114.399994763184,8|0,0:0|0:0,0:0:0:0:
387,223,44838,2,0,B|439:204|439:204|493:227,1,114.399994763184,0|0,3:0|0:0,0:0:0:0:
508,235,45102,1,0,3:0:0:0:
433,296,45279,2,0,L|293:288,1,114.399994763184,8|0,0:0|0:0,0:0:0:0:
246,282,45544,1,0,0:0:0:0:
228,281,45632,5,4,3:2:0:0:
247,381,45808,1,2,0:0:0:0:
244,193,45985,5,8,0:0:0:0:
160,338,46161,1,2,0:0:0:0:
169,128,46338,5,0,0:0:0:0:
324,239,46514,2,0,L|404:227,1,44,2|0,3:2|0:0,0:0:0:0:
451,219,46691,5,10,0:0:0:0:
346,333,46867,1,2,0:0:0:0:
458,193,47044,5,0,3:0:0:0:
416,381,47220,1,2,0:0:0:0:
465,167,47397,5,8,0:0:0:0:
498,288,47573,2,0,P|464:299|386:268,1,88,2|0,0:0|0:0,0:0:0:0:
333,151,47926,5,2,0:0:0:0:
233,365,48102,1,8,0:0:0:0:
109,245,48279,1,2,0:0:0:0:
109,245,48367,1,0,0:0:0:0:
109,245,48455,6,0,L|209:231,1,88,0|2,3:0|0:0,0:0:0:0:
293,298,48808,1,8,0:0:0:0:
431,101,48985,6,0,L|343:113,1,88,2|0,0:0|0:0,0:0:0:0:
144,144,49338,1,2,3:2:0:0:
144,144,49426,1,0,0:0:0:0:
144,144,49514,6,0,L|214:134,1,44,10|0,0:0|0:0,0:0:0:0:
384,204,49691,2,0,L|340:209,1,44,2|2,0:0|0:0,0:0:0:0:
199,262,49867,5,0,3:0:0:0:
365,340,50044,1,2,0:0:0:0:
183,268,50220,1,8,0:0:0:0:
350,129,50397,1,2,0:0:0:0:
355,117,50485,2,0,B|367:75|367:75|338:7,1,88,0|0,3:0|0:0,0:0:0:0:
344,22,50749,1,2,3:2:0:0:
176,45,50926,2,0,B|164:87|164:87|193:155,1,88,8|2,0:0|0:0,0:0:0:0:
262,179,51191,1,0,0:0:0:0:
262,179,51279,6,0,L|274:61,1,88,0|2,3:0|0:0,0:0:0:0:
74,257,51632,2,0,L|62:139,1,88,8|2,0:0|0:0,0:0:0:0:
244,369,51985,2,0,L|256:251,1,88,0|2,0:0|3:2,0:0:0:0:
169,237,52338,1,10,0:0:0:0:
125,343,52514,2,0,L|189:327,1,44,2|2,0:0|0:0,0:0:0:0:
340,304,52691,5,0,3:0:0:0:
251,202,52867,1,2,0:2:0:0:
363,295,53044,1,8,0:0:0:0:
244,369,53220,1,2,0:2:0:0:
373,203,53397,5,0,0:0:0:0:
382,378,53573,1,2,3:2:0:0:
258,284,53749,1,8,0:0:0:0:
445,258,53926,1,2,0:0:0:0:
445,258,54014,1,0,0:0:0:0:
445,258,54102,5,0,3:0:0:0:
330,321,54279,2,0,L|339:245,1,44,2|0,0:0|0:0,0:0:0:0:
353,149,54455,5,8,0:0:0:0:
207,329,54632,2,0,L|216:253,1,44,2|0,0:0|0:0,0:0:0:0:
225,180,54808,5,0,0:0:0:0:
84,337,54985,2,0,L|93:261,1,44,2|0,3:2|0:0,0:0:0:0:
110,141,55161,5,10,0:0:0:0:
23,223,55338,1,2,0:0:0:0:
23,223,55426,1,2,0:0:0:0:
23,223,55514,6,0,B|65:209|65:209|111:223|111:223|150:208|150:208|205:231,1,176,0|8,3:0|0:0,0:0:0:0:
387,358,56044,1,2,0:2:0:0:
387,358,56132,2,0,L|280:344,1,88,0|0,3:0|0:0,0:0:0:0:
265,343,56397,1,2,3:2:0:0:
363,115,56573,6,0,P|422:107|363:158,1,198.000007553101,8|0,0:0|0:0,0:0:0:0:
284,259,56926,6,0,B|331:233|331:233|383:262|432:246,1,158.399995166016,0|0,3:0|2:0,0:0:0:0:
393,139,57279,1,8,0:0:0:0:
195,351,57455,1,0,0:0:0:0:
195,351,57544,1,0,0:0:0:0:
195,351,57632,2,0,L|187:281,1,52.7999983886719,0|0,0:0|2:0,0:0:0:0:
179,206,57808,5,0,3:0:0:0:
295,358,57985,2,0,B|244:338|244:338|171:357,1,105.599996777344,8|0,0:0|0:0,0:0:0:0:
73,200,58338,6,0,L|219:208,1,105.599996777344,0|0,3:0|0:0,0:0:0:0:
251,162,58602,1,0,0:0:0:0:
251,162,58691,2,0,L|240:97,1,52.7999983886719,8|0,0:0|0:0,0:0:0:0:
440,45,58867,5,0,0:0:0:0:
462,79,58955,1,0,0:0:0:0:
463,121,59043,1,0,0:0:0:0:
442,157,59131,1,0,0:0:0:0:
405,175,59220,1,0,3:0:0:0:
273,29,59397,1,8,0:0:0:0:
259,248,59573,1,0,0:0:0:0:
259,248,59661,1,0,0:0:0:0:
259,248,59749,6,0,B|304:240|322:202|322:202|337:238|381:255,1,158.399995166016,0|0,3:0|0:0,0:0:0:0:
384,101,60102,2,0,L|261:112,1,105.599996777344,8|0,0:0|0:0,0:0:0:0:
263,113,60367,1,0,0:0:0:0:
247,115,60455,1,0,0:0:0:0:
37,325,60632,6,0,L|46:255,1,52.7999983886719,0|0,3:0|0:0,0:0:0:0:
168,81,60808,2,0,L|161:133,1,52.7999983886719,8|0,0:0|0:0,0:0:0:0:
235,348,60985,2,0,L|244:278,1,52.7999983886719
81,186,61161,6,0,B|121:156|175:169|175:169|209:212|271:197,1,198.000007553101,0|0,3:0|0:0,0:0:0:0:
247,115,61514,1,8,0:0:0:0:
362,338,61691,1,0,0:0:0:0:
362,338,61779,2,0,B|321:333|321:333|281:352|281:352|214:345,1,132.000005035401,0|0,3:0|0:0,0:0:0:0:
197,341,62044,1,0,3:0:0:0:
319,150,62220,2,0,B|446:106|446:106|420:133|412:197,1,198.000007553101,8|0,0:0|0:0,0:0:0:0:
489,279,62573,6,0,L|500:159,1,105.599996777344,0|0,3:0|0:0,0:0:0:0:
367,40,62926,1,8,0:0:0:0:
222,224,63102,1,0,0:0:0:0:
222,224,63191,1,0,0:0:0:0:
222,224,63279,1,0,0:0:0:0:
402,120,63455,6,0,P|373:125|315:113,1,52.7999983886719,0|0,3:0|0:0,0:0:0:0:
207,119,63632,2,0,L|222:224,1,105.599996777344,8|0,0:0|0:0,0:0:0:0:
493,311,63985,6,0,B|442:293|442:293|366:326,1,105.599996777344,0|0,3:0|0:0,0:0:0:0:
315,336,64249,1,0,0:0:0:0:
315,336,64338,2,0,L|327:263,1,52.7999983886719,8|0,0:0|0:0,0:0:0:0:
394,159,64514,2,0,L|406:232,1,52.7999983886719
449,379,64691,1,0,0:0:0:0:
261,203,64867,5,0,3:0:0:0:
261,203,64955,1,0,0:0:0:0:
261,203,65044,1,8,0:0:0:0:
186,242,65220,1,0,0:0:0:0:
104,217,65397,6,0,P|89:166|120:96,1,105.599996777344,0|0,3:0|0:0,0:0:0:0:
166,73,65661,1,0,0:0:0:0:
166,73,65749,2,0,L|231:80,1,52.7999983886719,8|0,0:0|0:0,0:0:0:0:
317,278,65926,2,0,L|252:285,1,52.7999983886719
173,162,66102,1,0,0:0:0:0:
289,37,66279,5,0,3:0:0:0:
328,24,66367,1,0,0:0:0:0:
369,34,66455,1,8,0:0:0:0:
399,63,66544,1,0,0:0:0:0:
424,97,66632,1,0,0:0:0:0:
463,112,66720,1,0,0:0:0:0:
504,104,66808,5,0,3:0:0:0:
332,108,66985,1,0,0:0:0:0:
470,25,67161,1,8,0:0:0:0:
480,301,67338,5,0,0:0:0:0:
473,319,67426,1,0,3:0:0:0:
259,189,67602,1,0,0:0:0:0:
252,171,67690,1,0,3:0:0:0:
80,349,67867,1,8,0:0:0:0:
14,88,68044,1,0,0:0:0:0:
173,200,68220,6,0,B|248:174|239:242|324:219,1,158.399995166016,0|0,3:0|0:0,0:0:0:0:
351,209,68573,1,8,0:0:0:0:
207,341,68749,1,0,0:0:0:0:
207,341,68838,1,0,0:0:0:0:
207,341,68926,2,0,L|197:268,1,52.7999983886719
294,140,69102,5,0,3:0:0:0:
307,348,69279,2,0,B|258:329|258:329|207:341,1,105.599996777344,8|0,0:0|0:0,0:0:0:0:
48,159,69632,5,0,3:0:0:0:
290,246,69808,1,0,0:0:0:0:
290,246,69897,1,0,0:0:0:0:
290,246,69985,2,0,L|386:229,1,52.7999983886719,8|0,0:0|0:0,0:0:0:0:
393,36,70161,5,0,0:0:0:0:
353,22,70249,1,0,0:0:0:0:
311,26,70337,1,0,0:0:0:0:
276,49,70425,1,0,0:0:0:0:
254,85,70513,1,0,3:0:0:0:
343,324,70691,1,8,0:0:0:0:
142,157,70867,1,0,0:0:0:0:
142,157,70955,1,0,0:0:0:0:
142,157,71044,6,0,B|193:148|193:148|241:172|241:172|294:164,1,158.399995166016,0|0,3:0|0:0,0:0:0:0:
339,102,71397,1,8,0:0:0:0:
179,235,71573,1,0,0:0:0:0:
172,249,71661,1,0,0:0:0:0:
165,263,71749,1,0,0:0:0:0:
473,352,71926,6,0,L|464:280,1,52.7999983886719,0|0,3:0|0:0,0:0:0:0:
339,102,72102,2,0,L|348:174,1,52.7999983886719,8|0,0:0|0:0,0:0:0:0:
250,347,72279,2,0,L|241:275,1,52.7999983886719
127,176,72455,6,0,B|176:167|176:167|214:186|214:186|271:175,1,132.000005035401,0|0,3:0|0:0,0:0:0:0:
169,384,72720,1,0,0:0:0:0:
169,384,72808,2,0,B|152:342|152:342|172:226,1,132.000005035401,8|0,0:0|0:0,0:0:0:0:
328,128,73073,2,0,B|345:170|345:170|325:286,1,132.000005035401,0|0,3:0|0:0,0:0:0:0:
326,282,73338,2,0,L|245:276,1,66.0000025177003,0|0,3:0|0:0,0:0:0:0:
175,231,73514,2,0,L|109:235,1,66.0000025177003,8|0,0:0|0:0,0:0:0:0:
41,287,73691,1,0,0:0:0:0:
176,39,73867,6,0,L|164:172,1,105.599996777344,0|0,3:0|0:0,0:0:0:0:
155,323,74220,1,8,0:0:0:0:
24,153,74397,1,0,0:0:0:0:
24,153,74485,1,0,0:0:0:0:
24,153,74573,2,0,P|59:151|112:120,1,52.7999983886719
260,52,74749,6,0,P|295:54|348:85,1,52.7999983886719,0|0,3:0|0:0,0:0:0:0:
388,128,74926,1,8,0:0:0:0:
283,259,75102,2,0,L|272:141,1,105.599996777344,0|0,0:0|3:0,0:0:0:0:
53,22,75455,1,0,0:0:0:0:
53,22,75544,1,0,0:0:0:0:
53,22,75632,2,0,L|46:94,1,52.7999983886719,8|0,0:0|0:0,0:0:0:0:
39,240,75808,2,0,P|69:241|109:222,1,52.7999983886719
195,133,75985,1,0,0:0:0:0:
62,157,76161,5,0,3:0:0:0:
62,157,76249,1,0,0:0:0:0:
62,157,76338,1,8,0:0:0:0:
200,360,76514,1,0,0:0:0:0:
370,237,76691,6,0,P|324:208|236:214,1,105.599996777344,0|0,3:0|0:0,0:0:0:0:
189,220,76955,1,0,0:0:0:0:
189,220,77044,2,0,L|196:291,1,52.7999983886719,8|0,0:0|0:0,0:0:0:0:
200,360,77220,1,0,0:0:0:0:
354,81,77397,5,0,0:0:0:0:
301,288,77573,1,0,3:0:0:0:
341,297,77661,1,0,0:0:0:0:
381,285,77749,1,8,0:0:0:0:
409,254,77837,1,0,0:0:0:0:
433,220,77926,1,0,0:0:0:0:
471,203,78014,1,0,0:0:0:0:
512,208,78102,5,0,3:0:0:0:
140,230,79514,6,0,B|114:181|127:135|127:135|104:165|55:168,1,158.399995166016,4|0,3:2|0:0,0:0:0:0:
12,100,79867,2,0,L|64:88,1,52.7999983886719,8|0,0:0|0:0,0:0:0:0:
270,218,80044,6,0,P|303:171|203:181,1,224.40000428009,0|0,3:0|0:0,0:0:0:0:
96,298,80397,2,0,P|122:307|179:301,1,44
254,170,80573,6,0,L|268:70,1,66.0000025177003,8|0,0:0|0:0,0:0:0:0:
19,54,80749,2,0,L|33:154,1,66.0000025177003
140,230,80926,5,0,3:0:0:0:
263,104,81102,2,0,P|294:95|350:101,1,52.7999983886719
131,217,81279,5,8,0:0:0:0:
284,333,81455,1,0,3:0:0:0:
284,333,81544,1,0,0:0:0:0:
284,333,81632,6,0,L|297:237,1,66.0000025177003
449,76,81808,2,0,L|440:141,1,66.0000025177003
271,320,81985,6,0,L|284:224,1,66.0000025177003,8|0,0:0|0:0,0:0:0:0:
436,63,82161,2,0,L|427:128,1,66.0000025177003
350,184,82338,5,0,3:0:0:0:
462,290,82514,2,0,P|437:290|383:270,1,52.7999983886719
273,100,82691,2,0,P|248:100|194:120,1,52.7999983886719,8|0,0:0|0:0,0:0:0:0:
105,251,82867,1,0,3:0:0:0:
105,251,82955,1,0,0:0:0:0:
105,251,83044,6,0,L|121:319,1,52.7999983886719
458,158,83220,2,0,L|448:210,1,52.7999983886719
91,123,83397,6,0,L|107:191,1,52.7999983886719,8|0,0:0|0:0,0:0:0:0:
444,30,83573,2,0,L|434:82,1,52.7999983886719
298,358,83749,6,0,L|308:235,1,105.599996777344,0|0,3:0|0:0,0:0:0:0:
324,170,84014,1,0,0:0:0:0:
324,170,84102,6,0,B|293:167|293:167|279:173|279:173|227:167,1,74.8000014266968,8|0,0:0|0:0,0:0:0:0:
194,295,84279,2,0,B|246:294|306:253|306:253|302:291|331:322,1,184.799994360352,0|0,3:0|0:0,0:0:0:0:
399,323,84632,6,0,P|397:292|382:266,1,61.5999981201172
324,170,84808,1,8,0:0:0:0:
508,118,84985,6,0,L|496:158,3,30.7999990600586
512,185,85161,6,0,B|454:166|454:166|394:194,1,123.199996240234,0|0,3:0|0:0,0:0:0:0:
324,170,85426,1,0,0:0:0:0:
324,170,85514,2,0,L|337:68,1,61.5999981201172,8|0,0:0|0:0,0:0:0:0:
278,39,85691,6,0,B|325:37|350:12|350:12|409:55|409:55|436:28|504:26,1,224.40000428009,0|0,3:0|0:0,0:0:0:0:
468,114,86044,1,0,0:0:0:0:
468,114,86132,1,0,0:0:0:0:
468,114,86220,6,0,P|445:133|387:134,1,66.0000025177003,8|0,0:0|0:0,0:0:0:0:
325,253,86397,2,0,P|357:247|382:227,1,66.0000025177003
411,54,86573,5,0,3:0:0:0:
449,294,86749,2,0,L|441:346,1,52.7999983886719
462,210,86926,5,8,0:0:0:0:
324,170,87102,1,0,0:0:0:0:
308,172,87191,1,0,0:0:0:0:
293,178,87279,5,0,0:0:0:0:
71,378,87455,1,0,0:0:0:0:
7,95,87632,1,8,0:0:0:0:
331,249,87808,1,0,0:0:0:0:
49,299,87985,6,0,L|58:221,1,52.7999983886719,0|0,3:0|0:0,0:0:0:0:
101,174,88161,2,0,L|94:131,1,26.399999194336
122,170,88249,2,0,L|130:127,1,26.399999194336
143,173,88338,1,8,0:0:0:0:
199,293,88514,2,0,L|171:326,1,26.399999194336,0|0,3:0|0:0,0:0:0:0:
215,307,88602,2,0,L|200:348,1,26.399999194336
235,314,88691,6,0,L|235:357,1,26.399999194336
256,313,88778,2,0,L|271:353,1,26.399999194336
277,306,88866,2,0,L|305:339,1,26.399999194336
292,292,88954,2,0,L|330:313,1,26.399999194336
304,273,89043,1,8,0:0:0:0:
123,249,89220,2,0,L|57:259,1,52.7999983886719
0,269,89397,5,0,3:0:0:0:
189,155,89573,1,0,0:0:0:0:
129,377,89749,1,8,0:0:0:0:
63,59,89926,1,0,3:0:0:0:
242,255,90102,6,0,P|324:271|304:161,1,224.40000428009
313,164,90455,6,0,P|303:222|241:255,1,132,8|0,0:0|0:0,0:0:0:0:
240,178,90808,5,4,3:2:0:0:
157,304,90985,2,0,L|144:371,1,52.7999983886719
217,384,91161,2,0,L|227:332,1,52.7999983886719,8|0,0:0|0:0,0:0:0:0:
159,219,91338,6,0,B|113:215|83:257|83:257|99:189|70:124,1,224.40000428009,0|0,3:0|0:0,0:0:0:0:
9,177,91691,2,0,P|16:204|4:243,1,44
89,330,91867,6,0,P|57:329|29:313,1,66.0000025177003,8|0,0:0|2:0,0:0:0:0:
153,143,92044,2,0,P|185:144|213:160,1,66.0000025177003,0|0,0:0|2:0,0:0:0:0:
110,326,92220,5,0,3:0:0:0:
253,287,92397,2,0,L|331:261,1,52.7999983886719,2|0,0:0|0:0,0:0:0:0:
362,131,92573,1,8,0:0:0:0:
322,117,92661,1,0,0:0:0:0:
281,124,92749,1,0,3:0:0:0:
247,149,92837,1,0,0:0:0:0:
229,187,92926,6,0,P|215:149|208:87,1,66.0000025177003,0|0,0:0|2:0,0:0:0:0:
454,119,93102,2,0,P|446:151|434:181,1,66.0000025177003,0|0,0:0|2:0,0:0:0:0:
334,270,93279,6,0,P|320:232|313:170,1,66.0000025177003,8|0,0:0|2:0,0:0:0:0:
475,102,93455,2,0,P|467:134|455:164,1,66.0000025177003,0|0,0:0|2:0,0:0:0:0:
382,348,93632,5,0,3:0:0:0:
449,242,93808,2,0,L|377:222,1,52.7999983886719,2|0,0:0|0:0,0:0:0:0:
237,259,93985,2,0,L|165:279,1,52.7999983886719,10|0,0:0|0:0,0:0:0:0:
65,312,94161,1,2,0:0:0:0:
65,312,94249,1,2,0:0:0:0:
65,312,94338,6,0,P|71:288|64:233,1,52.7999983886719
180,110,94514,2,0,P|186:134|179:189,1,52.7999983886719
319,294,94691,6,0,P|325:270|318:215,1,52.7999983886719,8|0,0:0|0:0,0:0:0:0:
434,92,94867,2,0,P|440:116|433:171,1,52.7999983886719
441,282,95044,5,0,3:0:0:0:
281,135,95220,1,2,0:0:0:0:
281,135,95308,1,2,0:0:0:0:
281,135,95397,6,0,B|309:132|309:132|328:140|328:140|371:134,1,74.8000014266968,8|0,0:0|0:0,0:0:0:0:
512,197,95573,1,0,3:0:0:0:
308,305,95749,6,0,P|259:275|339:259,1,184.799994360352
345,247,96102,6,0,P|256:242|311:313,1,224.40000428009,8|0,0:0|0:0,0:0:0:0:
301,267,96455,5,0,3:0:0:0:
196,340,96632,2,0,P|183:319|172:254,1,61.5999981201172,2|0,0:0|0:0,0:0:0:0:
129,173,96808,2,0,P|118:202|116:233,1,61.5999981201172,10|0,0:0|0:0,0:0:0:0:
106,369,96985,6,0,B|135:305|115:232|115:232|129:282|178:285,1,224.40000428009,0|0,3:0|0:0,0:0:0:0:
253,211,97338,1,0,0:0:0:0:
253,211,97426,1,0,0:0:0:0:
253,211,97514,6,0,L|183:219,1,66.0000025177003,8|0,0:0|0:0,0:0:0:0:
320,138,97691,2,0,L|385:130,1,66.0000025177003
459,123,97867,5,0,3:0:0:0:
358,277,98044,2,0,L|376:194,1,52.7999983886719
351,58,98220,1,8,0:0:0:0:
309,54,98308,1,0,0:0:0:0:
271,70,98396,1,0,3:0:0:0:
245,104,98484,1,0,0:0:0:0:
239,145,98572,5,0,0:0:0:0:
482,318,98749,1,0,0:0:0:0:
254,184,98926,5,8,0:0:0:0:
496,281,99102,1,0,0:0:0:0:
320,138,99279,5,0,3:0:0:0:
395,348,99455,2,0,L|413:278,1,52.7999983886719,2|0,0:0|0:0,0:0:0:0:
429,219,99632,2,0,L|447:149,1,52.7999983886719,10|0,0:0|0:0,0:0:0:0:
461,88,99808,1,2,0:0:0:0:
461,88,99897,1,2,0:0:0:0:
461,88,99985,5,2,0:0:0:0:
51,296,100161,1,2,0:0:0:0:
444,62,100338,5,2,0:0:0:0:
68,322,100514,1,2,0:0:0:0:
442,167,100691,5,4,3:2:0:0:
99,93,100867,1,2,0:0:0:0:
379,2,101044,1,2,0:0:0:0:
70,217,101220,5,4,3:2:0:0:
413,291,101397,1,2,0:0:0:0:
133,382,101572,1,2,0:0:0:0:
256,192,101749,5,8,0:0:0:0:
256,192,102102,6,0,B|186:167|186:167|86:208,1,158.399995166016,0|0,3:0|0:0,0:1:0:0:
70,217,102455,1,10,0:0:0:0:
193,352,102632,1,0,0:0:0:0:
193,352,102720,1,0,0:0:0:0:
193,352,102808,6,0,L|186:276,1,52.7999983886719,2|0,0:1|0:0,0:0:0:0:
117,112,102985,1,0,3:0:0:0:
332,288,103161,1,8,0:0:0:0:
66,185,103338,6,0,P|93:194|157:188,1,52.7999983886719,2|0,0:1|0:0,0:0:0:0:
332,288,103514,1,0,3:0:0:0:
399,92,103691,6,0,P|372:94|347:103,1,52.7999983886719,2|0,0:1|0:0,0:0:0:0:
280,187,103867,2,0,L|408:193,1,105.599996777344,8|0,0:0|0:0,0:0:0:0:
470,265,104132,1,2,0:0:0:0:
480,276,104220,6,0,L|416:273,1,52.7999983886719,2|0,0:1|0:0,0:0:0:0:
332,288,104397,1,0,3:0:0:0:
467,152,104573,1,8,0:0:0:0:
295,100,104749,2,0,L|347:102,1,52.7999983886719,2|0,0:1|0:0,0:0:0:0:
385,191,104926,5,0,3:0:0:0:
195,348,105102,1,2,0:1:0:0:
195,348,105191,1,0,0:0:0:0:
195,348,105279,2,0,B|208:290|196:237|196:237|204:256|246:276,1,158.399995166016,8|0,0:0|0:0,0:1:0:0:
117,298,105632,6,0,P|98:304|36:298,1,52.7999983886719,2|0,0:1|0:0,0:0:0:0:
268,192,105808,1,0,3:0:0:0:
72,71,105985,1,8,0:0:0:0:
103,96,106073,1,0,0:0:0:0:
144,106,106161,1,2,0:1:0:0:
185,98,106249,1,0,0:0:0:0:
218,74,106337,5,0,3:0:0:0:
79,227,106514,2,0,P|71:204|75:134,1,66.0000025177003,2|0,0:1|0:0,0:0:0:0:
149,26,106691,1,8,0:0:0:0:
163,204,106867,1,0,0:0:0:0:
153,186,106955,2,0,L|238:197,1,66.0000025177003,0|2,3:0|0:1,0:0:0:0:
346,337,107132,1,0,0:0:0:0:
356,355,107220,2,0,L|271:344,1,66.0000025177003,0|0,3:0|0:0,0:0:0:0:
289,141,107397,1,8,0:0:0:0:
202,369,107573,1,2,0:1:0:0:
370,277,107749,6,0,B|390:233|368:161|368:161|367:186|328:213,1,158.399995166016,0|0,3:0|0:0,0:0:0:0:
223,196,108102,2,0,L|165:194,2,52.7999983886719,8|0|0,0:0|0:0|0:0,0:0:0:0:
185,333,108455,6,0,L|200:251,1,52.7999983886719,2|0,0:1|0:0,0:0:0:0:
208,57,108632,1,0,3:0:0:0:
208,57,108720,1,0,0:0:0:0:
208,57,108808,2,0,L|193:139,1,52.7999983886719,8|0,0:0|0:0,0:0:0:0:
107,259,108985,5,2,0:1:0:0:
292,111,109161,1,0,3:0:0:0:
107,259,109338,5,2,0:1:0:0:
296,353,109514,1,8,0:0:0:0:
315,316,109602,1,0,0:0:0:0:
350,292,109690,1,0,0:0:0:0:
391,287,109778,1,0,0:0:0:0:
430,301,109867,6,0,P|416:239|417:164,1,105.599996777344,2|0,0:1|3:0,0:0:0:0:
455,132,110132,1,0,0:0:0:0:
455,132,110220,1,8,0:0:0:0:
380,376,110397,1,2,0:1:0:0:
272,75,110573,6,0,P|268:127|255:178,1,105.599996777344,0|2,3:1|0:1,0:0:0:0:
202,238,110838,1,0,0:0:0:0:
202,238,110926,2,0,L|120:244,1,52.7999983886719,8|0,0:0|0:0,0:0:0:0:
144,105,111102,2,0,L|62:111,1,52.7999983886719
14,254,111279,5,2,0:1:0:0:
53,219,111367,1,0,0:0:0:0:
104,214,111455,1,0,3:0:0:0:
149,241,111543,1,0,0:0:0:0:
170,288,111632,1,8,0:0:0:0:
214,315,111720,1,0,0:0:0:0:
266,313,111808,1,2,0:1:0:0:
308,283,111896,1,0,0:0:0:0:
327,234,111985,6,0,L|318:143,1,66.0000025177003,0|0,3:0|0:0,0:0:0:0:
387,79,112161,1,2,0:1:0:0:
387,79,112249,1,0,0:0:0:0:
387,79,112338,2,0,B|291:64|291:64|334:109,1,132.000005035401,8|0,0:0|0:0,0:0:0:0:
225,159,112602,2,0,B|247:92|192:102|219:29,1,132.000005035401,2|0,3:1|0:0,0:1:0:0:
119,8,112867,2,0,P|86:6|57:21,1,66.0000025177003,2|0,3:1|0:0,0:0:0:0:
87,150,113044,2,0,P|119:151|149:137,1,66.0000025177003,8|0,0:0|0:0,0:0:0:0:
103,79,113220,1,2,0:1:0:0:
143,332,113397,6,0,B|176:291|185:242|185:242|203:293|247:321,1,198.000007553101,0|0,3:0|0:0,0:1:0:0:
280,244,113749,2,0,P|262:221|272:158,1,66.0000025177003,8|0,0:0|0:0,0:0:0:0:
102,205,113926,1,0,0:0:0:0:
102,205,114014,1,0,0:0:0:0:
102,205,114102,6,0,P|105:237|91:267,1,66.0000025177003,2|0,0:1|0:0,0:0:0:0:
207,384,114279,1,0,3:0:0:0:
0,313,114455,1,8,0:0:0:0:
217,108,114632,6,0,B|261:101|261:101|307:115|307:115|354:105,1,132.000005035401,2|0,0:1|3:0,0:0:0:0:
391,84,114897,1,0,0:0:0:0:
442,95,114985,1,2,0:1:0:0:
473,136,115073,1,0,0:0:0:0:
471,188,115161,1,8,0:0:0:0:
258,185,115338,5,0,0:0:0:0:
377,383,115514,2,0,B|356:341|356:341|376:237,1,132.000005035401,2|0,0:1|3:0,0:0:0:0:
400,164,115779,1,0,0:0:0:0:
400,164,115867,2,0,L|309:175,1,66.0000025177003,8|0,0:0|0:0,0:0:0:0:
202,288,116044,2,0,L|267:296,1,66.0000025177003,2|0,0:1|0:0,0:0:0:0:
447,333,116220,5,0,3:0:0:0:
149,146,116397,1,2,0:1:0:0:
149,146,116485,1,0,0:0:0:0:
149,146,116573,2,0,B|205:144|282:111|282:111|255:140|253:177,1,198.000007553101,8|0,0:0|0:0,0:0:0:0:
339,237,116926,6,0,P|335:204|339:124,1,66.0000025177003,2|0,0:1|0:0,0:0:0:0:
395,44,117102,1,0,3:0:0:0:
343,29,117190,1,0,0:0:0:0:
294,47,117278,1,8,0:0:0:0:
267,92,117366,1,0,0:0:0:0:
245,140,117455,1,2,0:1:0:0:
198,161,117543,1,0,0:0:0:0:
149,146,117632,5,0,3:0:0:0:
196,9,117808,2,0,P|195:41|191:74,1,66.0000025177003,2|0,0:1|0:0,0:0:0:0:
110,39,117985,1,8,0:0:0:0:
366,181,118161,1,0,0:0:0:0:
366,181,118249,2,0,P|356:149|346:69,1,66.0000025177003,0|2,3:1|0:1,0:0:0:0:
160,234,118426,1,0,0:0:0:0:
160,234,118514,2,0,P|169:265|179:345,1,66.0000025177003,0|0,3:1|0:0,0:0:0:0:
335,349,118691,1,8,0:0:0:0:
86,291,118867,1,2,0:1:0:0:
215,38,119044,6,0,B|241:84|241:84|226:161,1,132.000005035401,0|2,3:0|0:1,0:0:0:0:
107,114,119308,1,0,0:0:0:0:
93,99,119397,2,0,L|181:106,1,66.0000025177003,8|0,0:0|0:0,0:0:0:0:
330,241,119573,2,0,L|264:235,1,66.0000025177003
149,232,119749,5,2,0:1:0:0:
316,116,119926,1,0,3:0:0:0:
362,92,120014,1,0,0:0:0:0:
414,92,120102,1,8,0:0:0:0:
460,117,120190,1,0,0:0:0:0:
490,161,120279,6,0,P|493:127|510:69,1,66.0000025177003,2|0,0:1|0:0,0:0:0:0:
297,33,120455,1,0,3:0:0:0:
418,195,120632,6,0,P|391:172|354:200,1,66.0000025177003,2|0,0:1|0:0,0:0:0:0:
238,278,120808,2,0,L|401:262,1,132.000005035401,8|0,0:0|0:0,0:0:0:0:
439,315,121073,1,0,0:0:0:0:
439,315,121161,6,0,P|421:345|377:332,1,66.0000025177003,2|0,0:1|0:0,0:0:0:0:
280,188,121338,1,0,3:0:0:0:
149,364,121514,1,8,0:0:0:0:
57,161,121691,2,0,P|88:163|103:191,1,66.0000025177003,2|0,0:1|0:0,0:0:0:0:
42,280,121867,5,0,3:0:0:0:
321,320,122044,1,2,0:1:0:0:
321,320,122132,1,0,0:0:0:0:
321,320,122220,1,8,0:0:0:0:
162,66,122397,1,0,0:0:0:0:
149,364,122573,5,2,0:1:0:0:
374,63,122749,1,0,3:0:0:0:
374,63,122838,1,0,0:0:0:0:
374,63,122926,2,0,P|365:102|363:169,1,66.0000025177003,8|0,0:0|0:0,0:0:0:0:
241,304,123102,2,0,P|237:271|229:239,1,66.0000025177003,2|0,0:1|0:0,0:0:0:0:
138,204,123279,1,0,3:0:0:0:
282,165,123455,6,0,P|200:147|138:204,1,176,2|0,0:1|0:0,0:1:0:0:
21,302,123985,2,0,P|26:240|30:166,1,132.000005035401,2|0,0:1|0:0,0:0:0:0:
229,239,124514,2,0,P|232:263|235:298,1,44,2|0,0:1|3:0,0:0:0:0:
