osu file format v14

[General]
AudioFilename: Eisou Youga ~Meikyou Shisui~.mp3
AudioLeadIn: 0
PreviewTime: 100690
Countdown: 0
SampleSet: Soft
StackLeniency: 0.7
Mode: 0
LetterboxInBreaks: 0
WidescreenStoryboard: 0

[Editor]
Bookmarks: 34338,56926,79514,90808,104044,106867,109691,112514,115338,118161,120985,124691
DistanceSpacing: 2
BeatDivisor: 4
GridSize: 4
TimelineZoom: 2.2

[Metadata]
Title:Eisou Youga ~Meikyou Shisui~
TitleUnicode:詠奏妖華 ~明鏡止水~
Artist:Sharlo
ArtistUnicode:Sharlo
Creator:Sharlo
Version:Satellite's Another
Source:東方Project
Tags:夏萝 EastNewSound 茶太 Chata 東方妖怪小町 Auxiliary Brightness dnB Narcissu TT Mouse FrostxE Frostmourne Satellite Sakaue Nachi Len Fast Skystar Amamiya Yuko Left Hand victorica_db
BeatmapID:911515
BeatmapSetID:380740

[Difficulty]
HPDrainRate:6
CircleSize:4
OverallDifficulty:7
ApproachRate:9
SliderMultiplier:1.6
SliderTickRate:1

[Events]
//Background and Video events
0,0,"BG.jpg",0,0
//Break Periods
2,79714,90208
//Storyboard Layer 0 (Background)
//Storyboard Layer 1 (Fail)
//Storyboard Layer 2 (Pass)
//Storyboard Layer 3 (Foreground)
//Storyboard Sound Samples

[TimingPoints]
455,352.941176470588,4,2,1,60,1,0
56925,-100,4,2,1,40,0,1
78631,-133.333333333333,4,2,1,40,0,1
79513,-100,4,2,1,60,0,0
90807,-100,4,2,1,70,0,0
95748,-80,4,2,1,70,0,0
96454,-100,4,2,1,80,0,0
101748,-100,4,2,1,90,0,0
102102,-100,4,2,1,90,0,1
123807,-133.333333333333,4,2,1,90,0,1
124337,-80,4,2,1,90,0,1
124690,-80,4,2,2,70,0,0

[Colours]
Combo1 : 162,227,51
Combo2 : 250,168,133
Combo3 : 242,225,128
Combo4 : 221,87,90

[HitObjects]
239,324,11750,6,0,L|157:335,2,80,4|0|8,1:0|0:0|0:0,0:0:0:0:
307,245,12279,2,0,L|349:252,3,40,0|0|0|0,0:0|0:0|0:0|0:0,0:0:0:0:
381,290,12632,1,2,0:0:0:0:
337,134,12808,1,8,0:0:0:0:
207,228,12985,5,0,0:0:0:0:
207,228,13073,1,0,0:0:0:0:
207,228,13161,2,0,L|126:220,1,80,2|0,0:0|0:0,0:0:0:0:
337,134,13514,2,0,L|418:126,1,80,8|0,0:0|0:0,0:0:0:0:
223,134,13867,5,0,0:0:0:0:
353,228,14044,1,2,0:0:0:0:
280,60,14220,1,8,0:0:0:0:
109,134,14397,5,0,0:0:0:0:
109,134,14485,1,0,0:0:0:0:
109,134,14573,2,0,L|120:221,1,80,2|0,0:0|0:0,0:0:0:0:
140,348,14926,1,8,0:0:0:0:
252,272,15102,2,0,L|212:265,3,40,0|0|0|0,0:0|0:0|0:0|0:0,0:0:0:0:
160,276,15455,1,2,0:0:0:0:
306,340,15632,1,8,0:0:0:0:
276,183,15808,5,0,0:0:0:0:
276,183,15897,1,0,0:0:0:0:
276,183,15985,2,0,L|196:190,1,80,2|0,0:0|0:0,0:0:0:0:
348,249,16338,1,8,0:0:0:0:
318,92,16514,1,0,0:0:0:0:
318,92,16602,2,0,P|277:84|201:117,1,120,2|2,0:0|0:0,0:0:0:0:
375,167,17044,2,0,L|455:160,1,80,8|0,0:0|0:0,0:0:0:0:
507,219,17308,5,0,0:0:0:0:
507,219,17397,2,0,P|510:260|501:300,2,80,2|0|8,0:0|0:0|0:0,0:0:0:0:
407,250,17926,2,0,L|361:248,3,40,0|0|0|0,0:0|0:0|0:0|0:0,0:0:0:0:
325,279,18279,1,2,0:0:0:0:
432,161,18455,1,8,0:0:0:0:
486,312,18632,5,0,0:0:0:0:
486,312,18720,1,0,0:0:0:0:
486,312,18808,2,0,P|454:338|412:348,1,80,2|0,0:0|0:0,0:0:0:0:
248,318,19161,2,0,B|219:229|277:253|254:151,1,160,8|0,0:0|0:0,0:0:0:0:
202,72,19691,1,2,0:0:0:0:
354,115,19867,2,0,L|350:195,1,80,8|0,0:0|0:0,0:0:0:0:
154,358,20220,6,0,L|150:278,1,80,2|0,0:0|0:0,0:0:0:0:
256,162,20573,1,8,0:0:0:0:
335,301,20749,2,0,L|295:297,3,40,0|0|0|0,0:0|0:0|0:0|0:0,0:0:0:0:
248,318,21102,1,2,0:0:0:0:
398,372,21279,1,8,0:0:0:0:
366,215,21455,5,0,0:0:0:0:
366,215,21544,1,0,0:0:0:0:
366,215,21632,2,0,L|389:138,1,80,2|0,0:0|0:0,0:0:0:0:
275,233,21985,2,0,P|234:232|192:251,1,80,8|0,0:0|0:0,0:0:0:0:
198,246,22249,2,0,P|168:215|94:199,1,120,2|2,0:0|0:0,0:0:0:0:
100,360,22691,2,0,P|116:314|117:277,1,80,2|2,0:3|0:3,0:0:0:0:
33,47,23044,6,0,P|36:86|50:123,1,80,4|0,1:0|0:0,0:0:0:0:
110,176,23308,1,0,0:0:0:0:
110,176,23397,2,0,L|192:182,1,80,8|0,0:0|0:0,0:0:0:0:
350,166,23749,1,0,0:0:0:0:
263,109,23926,1,2,3:2:0:0:
321,265,24102,1,8,0:0:0:0:
462,189,24279,5,0,3:0:0:0:
462,189,24367,1,0,0:0:0:0:
462,189,24455,2,0,L|470:101,1,80,2|0,0:0|3:0,0:0:0:0:
447,294,24808,1,8,0:0:0:0:
350,166,24985,2,0,L|310:174,3,40,0|0|2|0,3:0|0:0|0:3|0:0,0:0:0:0:
231,190,25338,1,2,3:2:0:0:
346,80,25514,1,8,0:0:0:0:
321,265,25691,5,2,3:3:0:0:
321,265,25779,1,0,0:0:0:0:
321,265,25867,2,0,L|234:277,1,80,2|0,0:0|3:0,0:0:0:0:
130,159,26220,1,8,0:0:0:0:
267,75,26397,2,0,L|247:137,3,40,0|0|0|0,0:0|0:0|0:0|0:0,0:0:0:0:
231,190,26749,1,2,3:2:0:0:
185,36,26926,1,8,0:0:0:0:
350,166,27102,5,0,3:0:0:0:
350,166,27191,1,0,0:0:0:0:
350,166,27279,2,0,L|337:246,1,80,2|0,0:0|3:0,0:0:0:0:
183,367,27632,2,0,L|170:288,1,80,8|0,0:0|0:0,0:0:0:0:
125,221,27897,1,2,3:2:0:0:
125,221,27985,1,0,0:0:0:0:
267,293,28161,1,2,3:2:0:0:
209,214,28338,1,8,0:0:0:0:
68,308,28514,5,2,3:3:0:0:
68,308,28602,1,0,0:0:0:0:
68,308,28691,2,0,P|32:263|49:154,1,160,2|8,0:0|0:0,0:0:0:0:
209,214,29220,1,0,3:0:0:0:
112,100,29397,2,0,P|78:75|36:67,1,80,0|2,0:0|3:2,0:0:0:0:
125,221,29749,1,8,0:0:0:0:
270,153,29926,5,0,3:0:0:0:
270,153,30014,1,0,0:0:0:0:
270,153,30102,2,0,L|279:67,1,80,2|0,0:0|3:2,0:0:0:0:
125,221,30455,2,0,P|141:262|185:296,1,80,8|0,0:0|3:0,0:0:0:0:
248,314,30720,1,0,0:0:0:0:
248,314,30808,1,2,0:3:0:0:
359,198,30985,1,2,3:2:0:0:
270,153,31161,1,8,0:0:0:0:
347,293,31338,5,2,3:3:0:0:
347,293,31426,1,0,0:0:0:0:
347,293,31514,2,0,P|417:275|454:199,1,160,2|8,0:0|0:0,0:0:0:0:
270,153,32044,1,0,3:2:0:0:
390,48,32220,2,0,L|409:133,1,80,0|2,0:0|3:2,0:0:0:0:
290,15,32573,1,8,0:0:0:0:
209,214,32749,5,0,0:0:0:0:
209,214,32838,1,0,0:0:0:0:
209,214,32926,2,0,P|250:240|282:239,1,80,2|0,0:0|3:0,0:0:0:0:
187,132,33279,2,0,P|143:154|128:182,1,80,8|0,0:0|0:0,0:0:0:0:
139,261,33544,1,2,3:2:0:0:
139,261,33632,1,0,0:0:0:0:
270,153,33808,5,2,3:2:0:0:
61,232,33985,1,8,0:0:0:0:
54,226,34338,6,0,P|46:276|79:334,1,120,4|0,1:0|0:0,0:0:0:0:
158,346,34691,2,0,L|241:332,1,80,8|0,0:0|0:0,0:0:0:0:
382,264,35044,2,0,L|299:250,1,80,0|2,0:0|0:0,0:0:0:0:
422,358,35397,1,8,0:0:0:0:
471,206,35573,5,0,0:0:0:0:
471,206,35661,1,0,0:0:0:0:
471,206,35749,2,0,P|431:170|353:162,1,120,2|0,0:0|0:0,0:0:0:0:
299,202,36102,1,8,0:0:0:0:
216,64,36279,2,0,B|183:38|183:38|161:155,1,160,0|2,0:0|0:0,0:0:0:0:
307,88,36808,2,0,P|309:54|293:10,1,80,8|0,0:0|0:0,0:0:0:0:
136,44,37161,6,0,L|57:53,2,80,2|0|8,0:0|0:0|0:0,0:0:0:0:
219,192,37691,2,0,L|298:201,2,80,0|0|2,0:0|0:0|0:0,0:0:0:0:
69,133,38220,1,8,0:0:0:0:
124,283,38397,5,0,0:0:0:0:
124,283,38485,1,0,0:0:0:0:
124,283,38573,2,0,L|129:198,1,80,2|0,0:0|0:0,0:0:0:0:
235,83,38926,1,8,0:0:0:0:
376,215,39102,1,0,0:0:0:0:
376,215,39191,2,0,P|348:263|270:275,1,120,2|2,0:0|0:0,0:0:0:0:
361,136,39632,1,8,0:0:0:0:
400,353,39808,5,2,0:3:0:0:
400,353,39897,1,0,0:0:0:0:
400,353,39985,2,0,L|270:363,1,120,2|0,0:0|0:0,0:0:0:0:
208,324,40338,2,0,P|197:289|202:244,1,80,8|0,0:0|0:0,0:0:0:0:
235,174,40602,1,0,0:0:0:0:
235,174,40691,1,0,0:0:0:0:
306,279,40867,1,2,0:0:0:0:
103,220,41044,1,8,0:0:0:0:
96,229,41397,6,0,L|101:140,1,80,2|0,0:0|0:0,0:0:0:0:
227,15,41749,2,0,L|231:94,1,80,8|0,0:0|0:0,0:0:0:0:
235,174,42014,1,0,0:0:0:0:
235,174,42102,1,0,0:0:0:0:
149,78,42279,1,2,0:0:0:0:
314,123,42455,2,0,P|354:122|396:113,1,80,8|0,0:0|0:0,0:0:0:0:
507,226,42808,6,0,P|454:210|369:237,1,120,2|0,0:0|0:0,0:0:0:0:
327,271,43161,2,0,P|287:262|247:261,1,80,8|0,0:0|0:0,0:0:0:0:
171,288,43426,1,0,0:0:0:0:
171,288,43514,1,0,0:0:0:0:
267,372,43691,1,2,0:0:0:0:
235,174,43867,1,8,0:0:0:0:
55,263,44044,5,0,0:0:0:0:
55,263,44132,1,0,0:0:0:0:
55,263,44220,2,0,P|64:219|59:133,1,120,2|0,0:0|0:0,0:0:0:0:
35,67,44573,1,8,0:0:0:0:
160,165,44749,1,0,0:0:0:0:
160,165,44838,2,0,B|234:175|234:175|267:144,1,120,2|2,0:0|0:0,0:0:0:0:
352,257,45279,1,8,0:0:0:0:
319,71,45455,5,2,0:3:0:0:
319,71,45544,1,0,0:0:0:0:
319,71,45632,2,0,P|305:162|320:201,1,120,4|0,0:1|0:0,0:0:0:0:
352,257,45985,2,0,L|440:269,1,80,8|0,0:0|3:0,0:0:0:0:
510,279,46249,1,0,0:0:0:0:
510,279,46338,1,0,0:0:0:0:
418,138,46514,1,2,3:2:0:0:
450,356,46691,1,8,0:0:0:0:
453,366,47044,6,0,P|403:340|334:348,1,120,2|0,0:0|0:0,0:0:0:0:
266,376,47397,2,0,L|186:365,1,80,8|0,0:0|3:0,0:0:0:0:
108,350,47661,1,0,0:0:0:0:
108,350,47749,1,0,0:0:0:0:
210,272,47926,1,2,3:2:0:0:
39,206,48102,2,0,P|33:259|44:292,1,80,8|0,0:0|3:0,0:0:0:0:
162,166,48455,6,0,L|150:71,2,80,2|0|8,0:0|0:0|0:0,0:0:0:0:
302,245,48985,2,0,L|290:340,2,80,0|0|2,3:0|0:0|3:2,0:0:0:0:
183,293,49514,1,8,0:0:0:0:
394,293,49691,5,0,3:0:0:0:
394,293,49779,1,0,0:0:0:0:
394,293,49867,2,0,P|385:241|380:157,1,120,2|0,0:0|0:0,0:0:0:0:
396,95,50220,1,8,0:0:0:0:
264,186,50397,1,0,0:0:0:0:
264,186,50485,2,0,B|185:175|185:175|157:146,1,120,2|2,3:2|3:2,0:0:0:0:
251,58,50926,1,8,0:0:0:0:
380,174,51102,5,2,3:0:0:0:
380,174,51191,1,0,0:0:0:0:
380,174,51279,2,0,B|370:220|374:257|374:257|339:258|321:269,1,120,2|0,0:0|0:0,0:0:0:0:
263,292,51632,2,0,P|223:280|174:278,1,80,8|0,0:0|3:0,0:0:0:0:
107,300,51897,1,0,0:0:0:0:
107,300,51985,1,0,0:0:0:0:
208,377,52161,1,2,3:2:0:0:
264,186,52338,1,8,0:0:0:0:
271,194,52691,6,0,B|261:101|261:101|234:129,1,120,2|0,0:0|0:0,0:0:0:0:
177,168,53044,2,0,P|133:176|96:166,1,80,8|0,0:0|3:0,0:0:0:0:
34,120,53308,1,0,0:0:0:0:
34,120,53397,1,0,0:0:0:0:
144,56,53573,1,2,3:2:0:0:
107,300,53749,1,8,0:0:0:0:
104,309,54102,6,0,P|146:295|219:323,1,120,2|0,0:0|0:0,0:0:0:0:
266,381,54455,2,0,L|351:370,1,80,8|0,0:0|3:0,0:0:0:0:
421,213,54808,1,0,0:0:0:0:
319,191,54985,1,2,3:2:0:0:
450,316,55161,1,8,0:0:0:0:
491,138,55338,5,0,3:0:0:0:
491,138,55426,1,0,0:0:0:0:
491,138,55514,2,0,L|401:127,1,80,2|0,0:0|3:0,0:0:0:0:
161,170,55867,2,0,L|240:179,1,80,8|0,0:0|0:0,0:0:0:0:
319,191,56132,1,2,3:2:0:0:
319,191,56220,1,2,0:3:0:0:
231,56,56397,5,2,3:2:0:0:
281,328,56573,1,8,0:0:0:0:
288,340,56926,6,0,P|254:311|178:314,1,120,4|0,1:0|0:0,0:0:0:0:
107,279,57279,2,0,L|99:198,1,80,8|0,0:0|0:0,0:0:0:0:
247,138,57632,2,0,L|239:217,1,80,0|2,0:0|3:2,0:0:0:0:
144,88,57985,1,8,0:0:0:0:
330,53,58161,5,0,3:0:0:0:
330,53,58249,1,0,0:0:0:0:
330,53,58338,2,0,P|357:87|350:202,1,160,2|8,0:0|0:0,0:0:0:0:
214,300,58867,2,0,P|252:267|354:289,1,160,0|2,3:0|3:2,0:0:0:0:
247,138,59397,1,8,0:0:0:0:
288,340,59573,1,0,3:0:0:0:
432,201,59749,6,0,L|349:197,1,80,4|0,0:1|0:0,0:0:0:0:
96,233,60102,2,0,L|179:229,1,80,8|0,0:0|0:0,0:0:0:0:
334,107,60455,2,0,P|311:73|277:52,1,80,0|2,0:0|3:2,0:0:0:0:
276,254,60808,1,8,0:0:0:0:
423,117,60985,5,0,3:0:0:0:
423,117,61073,1,0,0:0:0:0:
423,117,61161,1,2,0:0:0:0:
247,138,61338,1,0,0:0:0:0:
432,201,61514,1,8,0:0:0:0:
327,79,61691,1,0,3:0:0:0:
334,107,61779,2,0,P|339:166|322:234,1,120,2|2,0:0|3:2,0:0:0:0:
154,162,62220,2,0,P|117:148|75:146,1,80,8|0,0:0|3:0,0:0:0:0:
264,307,62573,6,0,P|308:327|388:309,1,120,4|0,0:1|0:0,0:0:0:0:
435,260,62926,2,0,L|442:176,1,80,8|0,0:0|0:0,0:0:0:0:
247,138,63279,2,0,L|253:217,1,80,0|2,0:0|0:0,0:0:0:0:
361,94,63632,1,8,0:0:0:0:
174,40,63808,5,0,3:0:0:0:
174,40,63897,1,0,0:0:0:0:
174,40,63985,2,0,P|141:68|139:184,1,160,2|8,0:0|0:0,0:0:0:0:
348,278,64514,2,0,P|312:234|207:236,1,160,0|2,3:0|3:2,0:0:0:0:
311,131,65044,1,8,0:0:0:0:
264,307,65220,1,0,0:0:0:0:
134,177,65397,6,0,L|217:182,1,80,4|0,0:1|0:0,0:0:0:0:
427,273,65749,2,0,L|348:278,1,80,8|0,0:0|0:0,0:0:0:0:
229,97,66102,2,0,P|255:63|292:46,1,80,0|2,0:0|0:0,0:0:0:0:
284,228,66455,1,8,0:0:0:0:
134,177,66632,5,0,3:0:0:0:
134,177,66720,1,0,0:0:0:0:
134,177,66808,2,0,P|126:118|130:48,1,120,2|0,0:0|0:0,0:0:0:0:
186,1,67161,1,8,0:0:0:0:
200,238,67338,1,0,3:0:0:0:
174,257,67426,2,0,P|130:265|62:231,1,120,2|2,0:0|3:2,0:0:0:0:
229,97,67867,1,8,0:0:0:0:
254,327,68044,5,0,3:0:0:0:
254,327,68132,1,0,0:0:0:0:
254,327,68220,2,0,P|207:327|145:363,1,120,4|0,1:0|0:0,0:0:0:0:
77,313,68573,2,0,L|63:233,1,80,8|0,0:0|0:0,0:0:0:0:
215,175,68926,2,0,L|228:95,1,80,0|0,0:0|0:0,0:0:0:0:
101,145,69279,1,8,0:0:0:0:
174,257,69455,5,0,3:0:0:0:
174,257,69544,1,0,0:0:0:0:
174,257,69632,2,0,P|234:264|300:206,1,120,2|0,0:0|0:0,0:0:0:0:
324,165,69985,2,0,L|409:181,1,80,8|0,0:0|3:0,0:0:0:0:
480,195,70249,1,2,0:0:0:0:
480,195,70338,1,2,0:3:0:0:
371,78,70514,1,2,3:2:0:0:
345,273,70691,2,0,L|427:265,1,80,8|0,0:0|3:0,0:0:0:0:
255,83,71044,6,0,P|218:137|227:218,1,120,4|0,0:1|0:0,0:0:0:0:
269,248,71397,2,0,L|253:326,1,80,8|0,0:0|0:0,0:0:0:0:
112,243,71749,1,0,0:0:0:0:
324,165,71926,1,2,0:0:0:0:
291,377,72102,2,0,L|210:369,1,80,8|0,0:0|3:0,0:0:0:0:
131,357,72367,1,0,0:0:0:0:
131,357,72455,6,0,P|110:318|126:218,1,120,2|0,0:0|0:0,0:0:0:0:
159,178,72808,1,8,0:0:0:0:
345,273,72985,1,0,3:0:0:0:
321,294,73073,2,0,L|197:286,1,120,2|2,0:0|3:2,0:0:0:0:
73,167,73514,1,8,0:0:0:0:
255,74,73691,5,0,3:0:0:0:
255,74,73779,1,0,0:0:0:0:
255,74,73867,2,0,L|264:199,1,120,4|0,0:1|0:0,0:0:0:0:
325,245,74220,2,0,L|412:248,1,80,8|0,0:0|0:0,0:0:0:0:
183,217,74573,2,0,L|103:214,1,80,0|2,0:0|0:0,0:0:0:0:
242,293,74926,1,8,0:0:0:0:
349,159,75102,1,0,3:0:0:0:
163,39,75279,6,0,L|170:126,1,80,2|0,0:0|3:0,0:0:0:0:
197,362,75632,1,8,0:0:0:0:
324,244,75808,2,0,P|259:201|183:216,1,160,0|2,3:0|3:2,0:0:0:0:
331,341,76338,1,8,0:0:0:0:
479,282,76514,5,0,3:0:0:0:
479,282,76602,1,0,0:0:0:0:
479,282,76691,2,0,P|470:225|470:153,1,120,4|0,0:1|0:0,0:0:0:0:
507,91,77044,2,0,L|498:7,1,80,8|0,0:0|0:0,0:0:0:0:
333,164,77397,2,0,L|324:248,1,80,0|2,0:0|0:0,0:0:0:0:
416,62,77749,1,8,0:0:0:0:
216,124,77926,5,0,3:0:0:0:
216,124,78014,1,0,0:0:0:0:
216,124,78102,2,0,P|225:181|208:286,1,160,2|0,0:0|0:0,0:0:0:0:
80,274,78632,6,0,P|58:237|122:201,1,120.000004577637,0|0,0:0|0:0,0:0:0:0:
297,255,79161,1,0,0:0:0:0:
126,108,79338,1,0,0:0:0:0:
172,365,79514,5,4,1:0:0:0:
172,365,90808,6,0,L|256:355,1,80,4|0,1:0|0:0,0:0:0:0:
381,224,91161,1,8,0:0:0:0:
365,196,91249,1,0,0:0:0:0:
340,175,91338,1,2,0:0:0:0:
309,166,91426,1,0,0:0:0:0:
277,167,91514,2,0,B|236:181|236:181|198:175|198:175|161:188,1,120,2|0,0:3|0:0,0:0:0:0:
165,268,91867,2,0,L|204:257,1,40,8|0,0:0|0:0,0:0:0:0:
268,87,92043,2,0,L|230:99,1,40,2|0,0:3|0:0,0:0:0:0:
89,234,92220,6,0,P|81:273|95:316,1,80,2|2,0:0|0:3,0:0:0:0:
112,335,92485,1,0,0:0:0:0:
139,350,92573,1,2,0:0:0:0:
170,354,92661,1,2,0:0:0:0:
201,347,92749,1,2,0:0:0:0:
228,329,92838,1,2,0:0:0:0:
245,302,92926,6,0,L|249:258,1,40,2|0,0:3|0:0,0:0:0:0:
203,153,93102,2,0,L|199:192,1,40,0|0,3:0|0:0,0:0:0:0:
332,297,93279,6,0,L|336:253,1,40,8|0,0:0|0:0,0:0:0:0:
289,147,93455,2,0,L|286:187,1,40,0|0,3:0|0:0,0:0:0:0:
419,292,93632,5,2,0:0:0:0:
375,141,93808,2,0,L|371:180,4,40,0|0|8|0|2,0:0|0:0|0:0|0:0|0:0,0:0:0:0:
419,292,94338,6,0,L|422:252,1,40,2|0,0:3|0:0,0:0:0:0:
332,297,94514,2,0,L|335:257,1,40,2|0,3:0|0:0,0:0:0:0:
245,302,94691,2,0,L|248:262,1,40,8|0,0:0|0:0,0:0:0:0:
157,306,94867,2,0,L|161:267,1,40,2|0,0:3|0:0,0:0:0:0:
69,310,95044,6,0,L|76:225,1,80,2|0,0:0|0:0,0:0:0:0:
196,73,95397,2,0,L|203:153,1,80,8|2,0:0|0:0,0:0:0:0:
298,371,95749,6,0,P|408:324|277:235,1,350,2|0,3:3|0:0,0:0:0:0:
332,297,96455,6,0,L|339:177,1,120,2|0,0:0|0:0,0:0:0:0:
343,96,96808,2,0,P|299:108|268:137,1,80,8|2,0:0|0:0,0:0:0:0:
251,207,97073,1,0,0:0:0:0:
251,207,97161,2,0,B|214:190|181:197|181:197|156:178|156:178|106:186,1,120,2|0,0:3|0:0,0:0:0:0:
78,233,97514,2,0,L|72:274,1,40,8|0,0:0|0:0,0:0:0:0:
210,326,97691,2,0,L|204:286,1,40,2|0,0:3|0:0,0:0:0:0:
60,153,97867,5,2,0:0:0:0:
215,111,98044,1,0,3:0:0:0:
3,208,98220,1,10,0:0:0:0:
0,239,98308,1,2,0:0:0:0:
9,269,98397,1,2,0:0:0:0:
28,294,98485,1,2,0:0:0:0:
56,308,98573,6,0,L|53:348,1,40,2|0,0:3|0:0,0:0:0:0:
143,303,98749,2,0,L|140:343,1,40,0|0,3:0|0:0,0:0:0:0:
230,298,98926,2,0,L|227:338,1,40,8|0,0:0|0:0,0:0:0:0:
318,294,99102,2,0,L|314:333,1,40,2|0,3:3|0:0,0:0:0:0:
406,290,99279,6,0,L|399:375,1,80,2|0,0:0|0:0,0:0:0:0:
509,176,99632,1,8,0:0:0:0:
512,145,99720,1,0,0:0:0:0:
503,115,99807,1,0,0:0:0:0:
484,90,99897,1,0,0:0:0:0:
456,76,99985,6,0,L|459:36,1,40,2|0,0:3|0:0,0:0:0:0:
369,81,100161,2,0,L|372:41,1,40,2|0,3:3|0:0,0:0:0:0:
282,86,100338,2,0,L|285:46,1,40,8|0,0:0|0:0,0:0:0:0:
194,90,100514,2,0,L|198:51,1,40,2|0,0:3|0:0,0:0:0:0:
106,94,100691,6,0,L|113:9,1,80,4|0,0:0|0:0,0:0:0:0:
406,290,101220,2,0,L|399:375,1,80,0|0,1:0|0:0,0:0:0:0:
354,41,101749,2,0,L|439:49,1,80,6|0,0:0|0:0,0:0:0:0:
158,342,102102,6,0,L|73:335,1,80,4|0,1:0|0:0,0:0:0:0:
7,297,102367,1,0,0:0:0:0:
7,297,102455,2,0,P|-1:258|3:215,1,80,8|0,0:0|0:0,0:0:0:0:
166,166,102808,1,0,0:0:0:0:
97,248,102985,1,2,3:2:0:0:
260,211,103161,2,0,P|268:172|264:129,1,80,8|2,0:0|3:3,0:0:0:0:
234,57,103426,1,0,0:0:0:0:
234,57,103514,5,2,0:0:0:0:
69,156,103691,1,2,3:3:0:0:
131,18,103867,1,8,0:0:0:0:
260,211,104044,1,2,3:3:0:0:
292,208,104132,1,0,0:0:0:0:
324,204,104220,1,0,0:0:0:0:
356,200,104308,1,0,0:0:0:0:
388,196,104397,1,2,3:2:0:0:
308,106,104573,1,8,0:0:0:0:
366,325,104749,5,2,3:3:0:0:
366,325,104838,1,0,0:0:0:0:
366,325,104926,2,0,P|324:317|254:351,1,120,4|0,0:1|0:0,0:0:0:0:
181,317,105279,2,0,L|166:226,1,80,8|0,0:0|0:0,0:0:0:0:
308,106,105632,1,2,0:3:0:0:
194,48,105808,1,2,0:0:0:0:
292,208,105985,2,0,L|378:197,1,80,8|2,0:0|3:3,0:0:0:0:
182,142,106338,5,2,0:0:0:0:
273,319,106514,1,2,0:3:0:0:
308,106,106691,1,8,0:0:0:0:
167,238,106866,1,2,3:3:0:0:
135,235,106954,1,2,0:0:0:0:
103,231,107044,1,0,0:0:0:0:
71,227,107132,1,0,0:0:0:0:
39,223,107219,1,2,3:2:0:0:
182,142,107397,1,8,0:0:0:0:
273,319,107573,5,2,3:3:0:0:
273,319,107661,1,0,0:0:0:0:
273,319,107749,2,0,P|265:266|293:207,1,120,4|0,0:1|0:0,0:0:0:0:
337,140,108102,2,0,L|326:58,1,80,8|0,0:0|0:0,0:0:0:0:
364,280,108455,1,0,0:0:0:0:
256,138,108632,1,2,3:2:0:0:
432,109,108808,2,0,L|421:188,1,80,8|2,0:0|3:3,0:0:0:0:
273,319,109161,5,2,0:0:0:0:
465,281,109338,1,2,3:3:0:0:
353,381,109514,1,8,0:0:0:0:
272,193,109690,1,2,3:3:0:0:
304,197,109779,1,2,0:0:0:0:
336,201,109867,1,2,0:3:0:0:
368,205,109955,1,0,0:0:0:0:
400,208,110043,1,2,3:0:0:0:
273,319,110220,1,8,0:0:0:0:
191,104,110397,5,2,0:3:0:0:
191,104,110485,1,0,0:0:0:0:
191,104,110573,2,0,P|231:78|308:82,1,120,4|0,0:1|0:0,0:0:0:0:
364,126,110926,2,0,L|368:205,1,80,8|0,0:0|0:0,0:0:0:0:
180,304,111279,1,2,0:3:0:0:
272,193,111455,1,2,3:2:0:0:
353,381,111632,2,0,L|272:369,1,80,8|2,0:0|0:3,0:0:0:0:
122,191,111985,5,2,0:0:0:0:
275,278,112161,1,0,0:0:0:0:
121,368,112338,1,8,0:0:0:0:
356,294,112514,1,2,3:3:0:0:
356,262,112602,1,2,0:0:0:0:
344,232,112690,1,0,0:0:0:0:
322,209,112778,1,0,0:0:0:0:
294,195,112866,1,2,3:2:0:0:
223,355,113044,1,8,0:0:0:0:
445,337,113220,1,2,3:3:0:0:
121,277,113397,5,4,1:0:0:0:
132,283,113749,2,0,L|225:275,1,80,8|0,0:0|0:0,0:0:0:0:
285,113,114102,1,0,0:0:0:0:
179,185,114279,1,2,0:0:0:0:
356,262,114455,2,0,P|366:221|361:177,1,80,8|2,0:0|3:3,0:0:0:0:
185,85,114808,5,2,0:0:0:0:
277,213,114985,1,2,0:3:0:0:
262,10,115161,1,8,0:0:0:0:
93,129,115338,1,2,3:0:0:0:
81,158,115426,1,2,0:0:0:0:
78,190,115514,1,0,0:0:0:0:
84,221,115602,1,0,0:0:0:0:
98,250,115690,1,2,3:2:0:0:
277,213,115867,1,8,0:0:0:0:
185,85,116044,1,2,3:3:0:0:
218,372,116220,5,4,0:1:0:0:
225,383,116573,2,0,L|233:297,1,80,8|0,0:0|0:0,0:0:0:0:
370,186,116926,1,2,0:3:0:0:
326,306,117103,1,2,0:0:0:0:
220,136,117279,2,0,P|256:120|296:121,1,80,8|2,0:0|3:3,0:0:0:0:
455,282,117632,5,2,0:0:0:0:
277,215,117808,1,2,0:3:0:0:
380,102,117985,1,8,0:0:0:0:
326,306,118161,1,2,3:3:0:0:
295,316,118249,1,2,0:0:0:0:
264,317,118337,1,2,0:3:0:0:
233,307,118425,1,0,0:0:0:0:
207,289,118513,1,2,3:2:0:0:
320,41,118691,1,8,0:0:0:0:
370,186,118867,1,2,3:3:0:0:
97,159,119044,5,4,0:1:0:0:
86,165,119397,2,0,L|167:157,1,80,8|0,0:0|0:0,0:0:0:0:
380,102,119749,1,0,0:0:0:0:
262,49,119926,1,2,3:2:0:0:
373,229,120102,2,0,P|375:273|361:311,1,80,8|2,0:0|0:3,0:0:0:0:
192,243,120455,5,2,0:0:0:0:
303,158,120632,1,2,0:3:0:0:
290,362,120808,1,8,0:0:0:0:
99,289,120985,1,2,3:3:0:0:
89,258,121073,1,0,0:0:0:0:
89,226,121161,1,0,0:0:0:0:
98,196,121249,1,0,0:0:0:0:
117,170,121337,1,2,3:2:0:0:
295,255,121514,1,8,0:0:0:0:
240,90,121691,1,2,3:3:0:0:
184,354,121867,5,4,0:1:0:0:
178,361,122220,2,0,L|98:353,1,80,8|0,0:0|0:0,0:0:0:0:
295,255,122573,2,0,L|375:247,1,80,2|2,0:3|3:2,0:0:0:0:
278,375,122926,1,8,0:0:0:0:
193,237,123102,1,2,0:3:0:0:
193,237,123191,1,0,0:0:0:0:
193,237,123279,2,0,P|190:186|194:121,1,80,2|0,0:0|0:0,0:0:0:0:
200,126,123808,6,0,B|273:119|236:153|316:145,1,120.000004577637,0|0,0:0|0:0,0:0:0:0:
391,89,124338,6,0,P|345:106|315:145,1,100,0|0,0:0|0:0,0:0:0:0:
278,375,124691,5,4,0:0:0:0:
