osu file format v14

[General]
AudioFilename: Eisou Youga ~Meikyou Shisui~.mp3
AudioLeadIn: 0
PreviewTime: 100690
Countdown: 0
SampleSet: Soft
StackLeniency: 0.7
Mode: 0
LetterboxInBreaks: 0
WidescreenStoryboard: 0

[Editor]
DistanceSpacing: 1
BeatDivisor: 4
GridSize: 4
TimelineZoom: 2.699999

[Metadata]
Title:Eisou Youga ~Meikyou Shisui~
TitleUnicode:詠奏妖華 ~明鏡止水~
Artist:Sharlo
ArtistUnicode:Sharlo
Creator:Sharlo
Version:Nachi's Extra
Source:東方Project
Tags:夏萝 EastNewSound 茶太 Chata 東方妖怪小町 Auxiliary Brightness dnB Narcissu TT Mouse FrostxE Frostmourne Satellite Sakaue Nachi Len Fast Skystar Amamiya Yuko Left Hand victorica_db
BeatmapID:833042
BeatmapSetID:380740

[Difficulty]
HPDrainRate:6.3
CircleSize:4
OverallDifficulty:8.5
ApproachRate:9.3
SliderMultiplier:1.9
SliderTickRate:1

[Events]
//Background and Video events
0,0,"BG.jpg",0,0
//Break Periods
//Storyboard Layer 0 (Background)
//Storyboard Layer 1 (Fail)
//Storyboard Layer 2 (Pass)
//Storyboard Layer 3 (Foreground)
//Storyboard Sound Samples

[TimingPoints]
455,352.941176470588,4,2,1,60,1,0
23043,-100,4,2,1,50,0,0
45631,-100,4,2,1,50,0,0
51278,-100,4,2,1,60,0,0
54101,-100,4,2,1,70,0,0
56925,-90.9090909090909,4,2,1,80,0,1
79513,-83.3333333333333,4,2,1,60,0,0
80219,-66.6666666666667,4,2,1,60,0,0
80572,-83.3333333333333,4,2,1,60,0,0
84102,-50,4,2,1,60,0,0
84278,-83.3333333333333,4,2,1,60,0,0
85690,-83.3333333333333,4,2,1,60,0,0
85866,-66.6666666666667,4,2,1,60,0,0
86219,-83.3333333333333,4,2,1,60,0,0
89749,-66.6666666666667,4,2,1,60,0,0
90454,-83.3333333333333,4,2,1,60,0,0
90631,-50,4,2,1,60,0,0
90807,-83.3333333333333,4,2,1,70,0,0
91513,-66.6666666666667,4,2,1,70,0,0
91778,-83.3333333333333,4,2,1,70,0,0
95749,-66.6666666666667,4,2,1,70,0,0
96102,-83.3333333333333,4,2,1,70,0,0
96454,-83.3333333333333,4,2,1,80,0,0
97160,-66.6666666666667,4,2,1,80,0,0
97425,-83.3333333333333,4,2,1,80,0,0
100690,-83.3333333333333,4,2,1,80,0,0
101396,-66.6666666666667,4,2,1,80,0,0
101749,-66.6666666666667,4,2,1,90,0,0
102102,-90.9090909090909,4,2,1,90,0,1
123984,-90.9090909090909,4,2,1,50,0,1
124690,-83.3333333333333,4,2,2,70,0,0

[Colours]
Combo1 : 162,227,51
Combo2 : 250,168,133
Combo3 : 242,225,128
Combo4 : 221,87,90

[HitObjects]
49,211,11750,6,0,P|119:203|204:197,1,142.5,4|0,1:0|0:0,0:0:0:0:
207,230,12102,2,0,P|250:283|346:207,1,190,8|0,0:0|0:0,0:0:0:0:
404,55,12632,1,2,0:0:0:0:
276,217,12808,1,8,0:0:0:0:
60,166,13161,6,0,P|111:113|201:144,1,142.5,2|0,0:0|0:0,0:0:0:0:
199,161,13514,2,0,P|209:243|220:354,1,190,8|0,0:0|0:0,0:0:0:0:
125,234,14044,1,2,0:0:0:0:
20,356,14220,1,8,0:0:0:0:
10,126,14573,6,0,P|83:139|166:164,1,142.5,2|0,0:0|0:0,0:0:0:0:
189,157,14926,2,0,P|245:108|345:167,1,190,8|0,0:0|0:0,0:0:0:0:
382,345,15455,1,2,0:0:0:0:
264,182,15632,1,8,0:0:0:0:
74,359,15985,6,0,P|47:316|90:239,1,142.5,2|0,0:0|0:0,0:0:0:0:
123,156,16338,2,0,P|172:204|163:282,2,142.5,8|2|2,0:0|0:0|0:0,0:0:0:0:
217,68,17044,2,0,P|179:138|105:154,1,142.5,8|0,0:0|0:0,0:0:0:0:
69,146,17397,6,0,L|92:337,1,190,2|8,0:0|0:0,0:0:0:0:
196,213,17926,2,0,P|247:239|240:285,1,95,0|0,0:0|0:0,0:0:0:0:
218,376,18279,1,2,0:0:0:0:
377,213,18455,1,8,0:0:0:0:
76,238,18808,6,0,P|157:251|201:198,1,142.5,2|0,0:0|0:0,0:0:0:0:
243,143,19161,2,0,L|250:342,1,190,8|0,0:0|0:0,0:0:0:0:
366,174,19691,1,2,0:0:0:0:
158,49,19867,1,8,0:0:0:0:
33,298,20220,6,0,P|112:285|192:275,1,142.5,2|0,0:0|0:0,0:0:0:0:
205,230,20573,2,0,P|255:240|281:385,1,190,8|0,0:0|0:0,0:0:0:0:
208,329,21102,1,2,0:0:0:0:
332,110,21279,1,8,0:0:0:0:
448,297,21632,6,0,P|350:277|275:269,1,142.5,2|0,0:0|0:0,0:0:0:0:
245,282,21985,2,0,P|254:225|262:102,2,142.5,8|2|2,0:0|0:0|0:0,0:0:0:0:
175,347,22691,2,0,P|168:320|159:299,1,47.5,2|0,0:3|0:0,0:0:0:0:
61,256,22867,2,0,P|61:231|66:199,1,47.5,2|0,0:3|0:0,0:0:0:0:
87,86,23044,6,0,P|101:180|112:284,1,190,4|8,1:0|0:0,0:0:0:0:
215,156,23573,1,0,3:0:0:0:
251,358,23749,2,0,P|261:329|262:302,1,47.5,0|0,0:0|0:0,0:0:0:0:
340,179,23926,2,0,P|350:208|351:235,1,47.5,2|0,3:2|0:0,0:0:0:0:
360,327,24102,1,8,0:0:0:0:
177,234,24279,1,0,3:0:0:0:
355,86,24455,6,0,L|465:73,1,95,2|0,0:0|3:0,0:0:0:0:
177,234,24808,2,0,L|82:222,1,95,8|0,0:0|3:0,0:0:0:0:
291,316,25161,1,2,0:3:0:0:
153,130,25338,1,2,3:2:0:0:
291,316,25514,1,8,0:0:0:0:
82,222,25691,1,2,3:3:0:0:
82,222,25779,1,2,0:3:0:0:
82,222,25867,6,0,P|87:266|95:324,1,95,2|0,0:0|3:0,0:0:0:0:
247,100,26220,2,0,L|240:211,1,95,8|0,0:0|0:0,0:0:0:0:
354,337,26573,2,0,L|371:284,1,47.5,0|0,0:0|0:0,0:0:0:0:
351,150,26749,2,0,L|336:195,1,47.5,2|0,3:2|0:0,0:0:0:0:
251,291,26926,1,8,0:0:0:0:
173,78,27102,1,0,3:0:0:0:
100,249,27279,6,0,P|48:245|108:237,1,190,2|8,0:0|0:0,0:0:0:0:
224,338,27808,1,0,0:0:0:0:
224,338,27897,1,2,3:2:0:0:
224,338,27985,2,0,L|281:322,1,47.5,2|0,0:3|0:0,0:0:0:0:
390,296,28161,1,2,3:2:0:0:
110,224,28338,1,8,0:0:0:0:
257,197,28514,2,0,P|259:173|261:149,1,47.5,2|0,3:3|0:0,0:0:0:0:
393,142,28691,6,0,L|378:42,1,95,2|0,0:0|3:0,0:0:0:0:
257,197,29044,1,8,0:0:0:0:
68,94,29220,1,0,3:0:0:0:
68,94,29308,1,0,0:0:0:0:
68,94,29397,1,0,0:0:0:0:
144,234,29573,1,2,3:2:0:0:
248,34,29749,1,8,0:0:0:0:
328,258,29926,1,0,3:0:0:0:
328,258,30014,1,0,0:0:0:0:
328,258,30102,6,0,L|319:356,1,95,2|0,0:0|3:2,0:0:0:0:
138,214,30455,2,0,L|130:97,1,95,8|0,0:0|3:0,0:0:0:0:
131,119,30720,1,0,0:0:0:0:
131,119,30808,1,2,0:3:0:0:
17,90,30985,1,2,3:2:0:0:
249,185,31160,1,8,0:0:0:0:
46,278,31338,1,2,3:3:0:0:
46,278,31426,1,2,0:3:0:0:
46,278,31514,6,0,P|33:184|18:91,1,190,2|8,0:0|0:0,0:0:0:0:
172,179,32044,1,0,3:2:0:0:
172,179,32132,1,0,0:0:0:0:
172,179,32220,1,0,0:0:0:0:
335,277,32397,1,2,3:2:0:0:
142,162,32573,1,8,0:0:0:0:
189,380,32749,1,0,0:0:0:0:
189,380,32838,1,0,0:0:0:0:
189,380,32926,6,0,L|316:358,1,95,2|0,0:0|3:0,0:0:0:0:
329,126,33279,1,8,0:0:0:0:
192,258,33455,1,0,0:0:0:0:
192,258,33544,1,2,3:2:0:0:
192,258,33632,1,2,0:3:0:0:
306,36,33808,1,2,3:2:0:0:
441,287,33985,1,8,0:0:0:0:
441,287,34338,6,0,P|395:270|339:256,1,95,4|0,1:0|0:0,0:0:0:0:
150,221,34691,1,8,0:0:0:0:
218,378,34867,1,0,0:0:0:0:
315,186,35044,1,0,0:0:0:0:
218,378,35220,1,2,0:0:0:0:
315,186,35397,2,0,L|267:173,1,47.5,8|0,0:0|0:0,0:0:0:0:
193,102,35573,2,0,L|144:109,1,47.5,0|0,0:0|0:0,0:0:0:0:
6,241,35749,6,0,P|81:248|217:268,1,190,2|8,0:0|0:0,0:0:0:0:
295,189,36279,1,0,0:0:0:0:
295,189,36367,1,0,0:0:0:0:
295,189,36455,1,0,0:0:0:0:
400,359,36632,1,2,0:0:0:0:
295,189,36808,1,8,0:0:0:0:
189,352,36985,1,0,0:0:0:0:
407,243,37161,6,0,P|424:201|375:97,1,142.5,2|0,0:0|0:0,0:0:0:0:
360,63,37514,2,0,L|237:98,1,95,8|0,0:0|0:0,0:0:0:0:
222,109,37779,1,0,0:0:0:0:
222,109,37867,1,0,0:0:0:0:
313,287,38044,1,2,0:0:0:0:
427,108,38220,1,8,0:0:0:0:
205,319,38397,1,0,0:0:0:0:
205,319,38485,1,0,0:0:0:0:
205,319,38573,6,0,P|152:325|108:217,1,190,2|8,0:0|0:0,0:0:0:0:
286,146,39102,1,0,0:0:0:0:
286,146,39191,1,2,0:0:0:0:
286,146,39279,1,2,0:3:0:0:
171,253,39455,1,2,0:0:0:0:
218,37,39632,1,8,0:0:0:0:
387,161,39808,1,2,0:3:0:0:
387,161,39897,1,0,0:0:0:0:
387,161,39985,6,0,P|373:234|364:280,1,95,2|0,0:0|0:0,0:0:0:0:
150,366,40338,2,0,P|140:319|132:272,1,95,8|0,0:0|0:0,0:0:0:0:
60,195,40602,1,0,0:0:0:0:
60,195,40691,2,0,L|72:142,1,47.5,0|0,0:0|0:0,0:0:0:0:
41,293,40867,1,2,0:0:0:0:
0,125,41044,2,0,P|6:78|13:30,1,95,8|0,0:0|0:0,0:0:0:0:
299,208,41397,6,0,P|211:224|168:146,1,190,2|8,0:0|0:0,0:0:0:0:
163,339,41926,1,0,0:0:0:0:
243,155,42102,1,0,0:0:0:0:
303,351,42279,1,2,0:0:0:0:
121,222,42455,1,8,0:0:0:0:
412,170,42632,1,0,0:0:0:0:
412,170,42720,1,0,0:0:0:0:
412,170,42808,6,0,P|404:217|394:279,1,95,2|0,0:0|0:0,0:0:0:0:
230,297,43161,1,8,0:0:0:0:
295,94,43338,2,0,L|302:153,1,47.5,0|0,0:0|0:0,0:0:0:0:
193,167,43514,2,0,L|216:218,1,47.5,0|0,0:0|0:0,0:0:0:0:
323,281,43691,1,2,0:0:0:0:
114,134,43867,1,8,0:0:0:0:
230,297,44044,1,0,0:0:0:0:
230,297,44132,1,0,0:0:0:0:
230,297,44220,6,0,P|292:286|330:281,1,95,2|0,0:0|0:0,0:0:0:0:
461,90,44573,1,8,0:0:0:0:
248,155,44749,2,0,L|252:209,1,47.5,0|2,0:0|0:0,0:0:0:0:
160,113,44926,2,0,P|168:72|179:20,2,95,2|2|8,0:3|0:0|0:0,0:0:0:0:
0,207,45455,2,0,P|9:234|17:263,1,47.5,2|0,0:3|0:0,0:0:0:0:
76,324,45632,6,0,P|137:312|271:291,1,190,4|8,0:1|0:0,0:0:0:0:
400,165,46161,1,0,3:0:0:0:
250,248,46338,1,0,0:0:0:0:
465,289,46514,1,2,3:2:0:0:
380,69,46691,1,8,0:0:0:0:
339,241,46867,1,0,3:0:0:0:
339,241,46955,1,0,0:0:0:0:
339,241,47044,5,2,0:0:0:0:
183,281,47220,2,0,L|125:271,1,47.5,0|0,3:0|0:0,0:0:0:0:
53,204,47397,1,8,0:0:0:0:
239,37,47573,2,0,P|251:70|256:95,1,47.5,0|0,3:0|0:0,0:0:0:0:
269,211,47749,2,0,P|264:253|249:288,1,47.5,0|0,0:0|0:0,0:0:0:0:
177,362,47926,1,2,3:2:0:0:
161,219,48102,1,8,0:0:0:0:
387,264,48279,1,0,3:0:0:0:
113,291,48455,5,2,0:0:0:0:
336,101,48632,1,0,3:0:0:0:
275,293,48808,1,8,0:0:0:0:
177,136,48985,1,0,3:0:0:0:
177,136,49073,1,0,0:0:0:0:
177,136,49161,1,0,0:0:0:0:
113,291,49338,2,0,P|84:292|56:285,1,47.5,2|0,3:2|0:0,0:0:0:0:
2,186,49514,1,8,0:0:0:0:
177,41,49691,1,0,3:0:0:0:
177,41,49779,1,0,0:0:0:0:
177,41,49867,5,2,0:0:0:0:
191,318,50044,1,0,3:0:0:0:
264,157,50220,1,8,0:0:0:0:
98,81,50397,2,0,L|109:134,1,47.5,0|2,0:0|3:2,0:0:0:0:
238,241,50573,2,0,L|255:185,1,47.5,2|0,0:3|0:0,0:0:0:0:
305,61,50749,1,2,3:2:0:0:
413,241,50926,1,8,0:0:0:0:
413,241,51014,1,0,0:0:0:0:
413,241,51102,1,2,3:0:0:0:
413,241,51191,1,0,0:0:0:0:
413,241,51279,6,0,P|363:251|309:266,1,95,2|0,0:0|3:0,0:0:0:0:
131,58,51632,1,8,0:0:0:0:
217,205,51808,1,0,3:0:0:0:
217,205,51897,1,0,0:0:0:0:
217,205,51985,1,0,0:0:0:0:
73,264,52161,1,2,3:2:0:0:
168,40,52338,1,8,0:0:0:0:
323,278,52514,1,0,3:0:0:0:
323,278,52602,1,0,0:0:0:0:
323,278,52691,6,0,B|331:327|331:327|322:373,1,95,2|0,0:0|3:0,0:0:0:0:
122,212,53044,2,0,B|114:163|114:163|123:117,1,95,8|0,0:0|3:0,0:0:0:0:
337,24,53397,1,0,0:0:0:0:
248,364,53573,1,2,3:2:0:0:
403,131,53749,1,8,0:0:0:0:
166,287,53926,1,2,0:3:0:0:
417,119,54102,6,0,P|414:166|409:213,1,95,2|0,0:0|3:0,0:0:0:0:
335,339,54455,1,8,0:0:0:0:
236,202,54632,1,0,3:0:0:0:
236,202,54720,1,0,0:0:0:0:
236,202,54808,1,0,0:0:0:0:
58,286,54985,2,0,L|70:340,1,47.5,2|0,3:2|0:0,0:0:0:0:
192,343,55161,2,0,L|248:328,1,47.5,8|0,0:0|0:0,0:0:0:0:
235,201,55338,2,0,L|225:155,1,47.5,0|0,3:0|0:0,0:0:0:0:
335,339,55514,6,0,P|346:278|353:230,1,95,2|0,0:0|3:0,0:0:0:0:
107,109,55867,2,0,P|117:167|132:230,1,95,8|0,0:0|0:0,0:0:0:0:
125,203,56132,1,2,3:2:0:0:
125,203,56220,1,2,0:3:0:0:
305,113,56397,1,2,3:2:0:0:
397,262,56573,1,8,0:0:0:0:
509,81,56749,1,2,0:3:0:0:
397,262,56926,6,0,P|323:253|184:240,1,209.000006378174,4|8,1:0|0:0,0:0:0:0:
130,144,57455,1,0,0:0:0:0:
60,342,57632,2,0,P|66:289|74:231,1,104.500003189087,0|2,0:0|3:2,0:0:0:0:
192,66,57985,1,8,0:0:0:0:
233,252,58161,1,0,3:0:0:0:
233,252,58249,1,0,0:0:0:0:
233,252,58338,5,2,0:0:0:0:
130,144,58514,1,0,3:0:0:0:
368,91,58691,1,8,0:0:0:0:
347,351,58867,6,0,P|354:313|357:283,1,52.2500015945435,0|2,3:0|0:0,0:0:0:0:
224,200,59044,2,0,P|228:227|233:255,1,52.2500015945435,2|0,0:3|0:0,0:0:0:0:
271,376,59220,5,2,3:2:0:0:
320,211,59397,1,8,0:0:0:0:
151,285,59573,1,0,3:0:0:0:
401,245,59749,6,0,P|380:144|280:132,1,209.000006378174,4|8,0:1|0:0,0:0:0:0:
151,285,60279,1,0,0:0:0:0:
160,134,60455,2,0,B|158:91|158:91|167:59|167:59|166:4,1,104.500003189087,0|2,0:0|3:2,0:0:0:0:
151,303,60808,1,8,0:0:0:0:
269,198,60985,1,0,3:0:0:0:
269,198,61073,1,0,0:0:0:0:
269,198,61161,5,2,0:0:0:0:
53,99,61338,1,0,0:0:0:0:
149,325,61514,1,8,0:0:0:0:
269,198,61691,1,0,3:0:0:0:
269,198,61779,1,2,0:0:0:0:
269,198,61867,2,0,P|238:193|210:187,1,52.2500015945435,2|0,0:3|0:0,0:0:0:0:
97,315,62044,2,0,P|122:320|148:324,1,52.2500015945435,2|0,3:2|0:0,0:0:0:0:
396,223,62220,2,0,P|365:218|337:212,1,52.2500015945435,8|0,0:0|0:0,0:0:0:0:
232,339,62397,2,0,P|257:344|283:348,1,52.2500015945435,0|0,3:0|0:0,0:0:0:0:
491,351,62573,6,0,B|519:276|503:197|503:197|476:248,1,209.000006378174,4|8,0:1|0:0,0:0:0:0:
398,334,63102,1,0,0:0:0:0:
183,229,63279,2,0,P|172:176|196:110,1,104.500003189087,0|2,0:0|0:0,0:0:0:0:
292,181,63632,1,8,0:0:0:0:
186,328,63808,1,0,3:0:0:0:
186,328,63897,1,0,0:0:0:0:
186,328,63985,5,2,0:0:0:0:
354,256,64161,1,0,3:0:0:0:
190,45,64338,1,8,0:0:0:0:
223,215,64514,1,0,3:0:0:0:
35,129,64691,1,2,0:3:0:0:
251,227,64867,1,2,3:2:0:0:
17,289,65044,1,8,0:0:0:0:
278,238,65220,1,0,0:0:0:0:
278,238,65308,1,0,0:0:0:0:
278,238,65397,5,4,0:1:0:0:
141,45,65573,1,0,0:0:0:0:
76,200,65749,2,0,P|83:259|87:307,1,104.500003189087,8|0,0:0|0:0,0:0:0:0:
257,370,66102,1,0,0:0:0:0:
290,156,66279,1,2,0:0:0:0:
275,262,66455,1,8,0:0:0:0:
304,49,66632,1,0,3:0:0:0:
304,49,66720,1,0,0:0:0:0:
304,49,66808,5,2,0:0:0:0:
376,314,66985,1,0,3:0:0:0:
213,91,67161,1,8,0:0:0:0:
100,260,67338,1,0,3:0:0:0:
100,260,67426,1,2,0:0:0:0:
100,260,67514,2,0,P|65:255|39:248,1,52.2500015945435,2|0,0:3|0:0,0:0:0:0:
226,172,67691,2,0,P|251:175|277:181,1,52.2500015945435,2|0,3:2|0:0,0:0:0:0:
333,333,67867,2,0,P|307:329|281:323,1,52.2500015945435,8|0,0:0|0:0,0:0:0:0:
459,245,68044,2,0,P|494:250|520:257,1,52.2500015945435,0|0,3:0|0:0,0:0:0:0:
351,365,68220,6,0,P|283:385|221:277,1,209.000006378174,4|8,1:0|0:0,0:0:0:0:
288,163,68749,1,0,0:0:0:0:
95,261,68926,2,0,P|36:246|-7:214,1,104.500003189087,0|2,0:0|0:0,0:0:0:0:
226,66,69279,1,8,0:0:0:0:
179,243,69455,1,0,3:0:0:0:
179,243,69544,1,0,0:0:0:0:
179,243,69632,5,2,0:0:0:0:
360,84,69808,1,0,3:0:0:0:
204,341,69985,1,8,0:0:0:0:
103,77,70161,2,0,L|112:146,1,52.2500015945435,0|2,3:0|0:0,0:0:0:0:
179,243,70338,2,0,L|229:228,1,52.2500015945435,2|0,0:3|0:0,0:0:0:0:
375,284,70514,1,2,3:2:0:0:
200,133,70691,1,8,0:0:0:0:
230,311,70867,1,0,3:0:0:0:
230,311,70955,1,0,0:0:0:0:
230,311,71044,6,0,P|132:321|92:232,1,209.000006378174,4|8,0:1|0:0,0:0:0:0:
199,104,71573,1,0,0:0:0:0:
421,262,71749,2,0,P|371:246|320:232,1,104.500003189087,0|2,0:0|0:0,0:0:0:0:
216,79,72102,1,8,0:0:0:0:
321,233,72279,1,0,3:0:0:0:
321,233,72367,1,0,0:0:0:0:
321,233,72455,5,2,0:0:0:0:
183,272,72632,1,0,3:0:0:0:
353,47,72808,1,8,0:0:0:0:
435,315,72985,1,0,3:0:0:0:
435,315,73073,1,2,0:0:0:0:
435,315,73161,2,0,P|441:278|441:253,1,52.2500015945435,2|0,0:3|0:0,0:0:0:0:
281,145,73338,2,0,P|256:154|234:168,1,52.2500015945435,2|0,3:2|0:0,0:0:0:0:
303,297,73514,2,0,P|322:266|332:238,1,52.2500015945435,8|0,0:0|0:0,0:0:0:0:
436,80,73691,2,0,P|408:83|384:90,1,52.2500015945435,0|0,3:0|0:0,0:0:0:0:
235,169,73867,6,0,B|243:109|234:8|234:8|251:52,1,209.000006378174,4|8,0:1|0:0,0:0:0:0:
203,291,74397,1,0,0:0:0:0:
58,139,74573,2,0,B|71:202|78:256,1,104.500003189087,0|2,0:0|0:0,0:0:0:0:
222,372,74926,1,8,0:0:0:0:
158,210,75102,1,0,3:0:0:0:
158,210,75191,1,0,0:0:0:0:
158,210,75279,5,2,0:0:0:0:
309,326,75455,1,0,3:0:0:0:
198,52,75632,1,8,0:0:0:0:
405,198,75808,1,0,3:0:0:0:
405,198,75985,1,2,0:3:0:0:
180,304,76161,1,2,3:2:0:0:
335,55,76338,1,8,0:0:0:0:
313,318,76514,1,0,3:0:0:0:
313,318,76602,1,0,0:0:0:0:
313,318,76691,5,4,0:1:0:0:
181,131,76867,1,0,0:0:0:0:
60,267,77044,2,0,P|118:257|191:247,1,104.500003189087,8|0,0:0|0:0,0:0:0:0:
440,191,77397,2,0,P|382:181|309:171,1,104.500003189087,0|2,0:0|0:0,0:0:0:0:
176,160,77749,1,8,0:0:0:0:
287,354,77926,1,0,3:0:0:0:
287,354,78014,1,0,0:0:0:0:
287,354,78102,1,2,0:0:0:0:
254,331,79514,6,0,B|261:248|230:188|230:188|214:234,1,170.999994781494,4|0,1:0|0:0,0:0:0:0:
254,331,79867,2,0,L|308:316,1,56.9999982604981,8|0,0:0|0:0,0:0:0:0:
454,191,80044,1,2,0:0:0:0:
454,191,80220,2,0,P|453:117|341:157,1,213.750008153916,2|0,0:3|0:0,0:0:0:0:
324,183,80573,1,8,0:0:0:0:
235,51,80749,1,0,0:0:0:0:
58,176,80926,6,0,P|91:165|111:138,1,56.9999982604981,2|0,0:0|0:0,0:0:0:0:
181,112,81102,2,0,P|190:150|186:212,1,56.9999982604981,2|0,0:3|0:0,0:0:0:0:
129,272,81279,1,8,0:0:0:0:
324,183,81455,1,2,0:0:0:0:
324,183,81544,1,0,0:0:0:0:
324,183,81632,2,0,P|297:169|245:169,1,56.9999982604981,2|0,0:3|0:0,0:0:0:0:
323,320,81808,2,0,P|338:296|347:269,1,56.9999982604981,2|0,0:3|0:0,0:0:0:0:
383,120,81985,2,0,P|384:91|376:64,1,56.9999982604981,8|0,0:0|0:0,0:0:0:0:
191,167,82161,2,0,P|160:168|116:195,1,56.9999982604981,2|0,0:3|0:0,0:0:0:0:
48,360,82338,6,0,B|41:327|57:297|57:297|46:248|46:248|57:172,1,170.999994781494,2|0,0:0|0:0,0:0:0:0:
53,192,82691,1,8,0:0:0:0:
200,308,82867,2,0,P|274:314|316:278,1,113.999996520996,2|2,0:0|0:3,0:0:0:0:
424,80,83220,1,2,0:3:0:0:
305,294,83397,1,8,0:0:0:0:
500,197,83573,1,2,0:3:0:0:
305,294,83749,6,0,B|243:282|243:282|196:293|196:293|129:283,1,170.999994781494,2|0,0:0|0:0,0:0:0:0:
218,313,84102,6,0,B|166:318|166:318|123:309|123:309|49:316,1,142.5,0|0,1:0|0:0,0:0:0:0:
37,302,84278,2,0,P|69:257|25:189,1,113.999996520996,2|0,0:0|0:0,0:0:0:0:
19,108,84543,1,0,0:0:0:0:
19,108,84631,2,0,P|88:125|124:108,1,113.999996520996,2|8,0:0|0:0,0:0:0:0:
216,102,84897,1,0,0:0:0:0:
216,102,84984,2,0,L|207:46,1,56.9999982604981
249,201,85160,6,0,B|300:183|300:183|359:211|421:186,1,170.999994781494,2|0,0:0|0:0,0:0:0:0:
459,307,85513,2,0,P|464:271|462:245,1,56.9999982604981,8|0,0:0|0:0,0:0:0:0:
331,348,85690,1,2,0:0:0:0:
331,348,85866,2,0,B|302:330|271:326|271:326|223:346|223:346|186:331|121:342,1,213.750008153916,2|0,0:3|0:0,0:0:0:0:
44,357,86219,1,8,0:0:0:0:
185,223,86396,1,0,0:0:0:0:
14,146,86572,6,0,P|19:176|31:200,1,56.9999982604981,2|0,0:0|0:0,0:0:0:0:
149,267,86749,2,0,P|175:240|189:208,1,56.9999982604981,2|0,0:3|0:0,0:0:0:0:
185,102,86926,1,8,0:0:0:0:
280,273,87102,1,2,0:0:0:0:
280,273,87191,1,0,0:0:0:0:
280,273,87279,2,0,P|277:301|264:336,1,56.9999982604981,2|0,0:3|0:0,0:0:0:0:
297,170,87455,2,0,P|294:141|285:114,1,56.9999982604981,2|0,0:3|0:0,0:0:0:0:
137,237,87632,2,0,P|162:250|189:258,1,56.9999982604981,8|0,0:0|0:0,0:0:0:0:
411,209,87808,2,0,P|391:229|359:248,1,56.9999982604981,2|0,0:3|0:0,0:0:0:0:
267,328,87984,6,0,B|218:315|218:315|171:330|171:330|129:317|71:325,1,170.999994781494,2|0,0:0|0:0,0:0:0:0:
246,141,88338,1,8,0:0:0:0:
25,242,88513,2,0,B|84:251|84:251|149:233,1,113.999996520996,2|2,0:0|0:3,0:0:0:0:
167,166,88778,2,0,L|155:137,2,28.4999991302491,2|0|2,0:3|0:0|0:3,0:0:0:0:
246,141,88954,2,0,L|234:112,2,28.4999991302491,2|0|8,0:3|0:0|0:0,0:0:0:0:
246,141,89397,5,2,0:0:0:0:
385,286,89573,1,2,0:3:0:0:
385,286,89749,2,0,P|413:339|357:316,1,142.500005435944,8|2,0:0|0:0,0:0:0:0:
385,286,90102,2,0,P|410:319|308:325,1,213.750008153916,2|0,0:3|0:0,0:0:0:0:
194,256,90455,1,4,0:3:0:0:
194,256,90544,1,0,0:0:0:0:
194,256,90632,2,0,B|139:249|139:249|84:277,1,95,0|0,0:0|0:0,0:0:0:0:
67,276,90808,6,0,B|113:299|113:299|277:263,1,170.999994781494,4|0,1:0|0:0,0:0:0:0:
299,192,91161,2,0,P|315:221|302:256,1,56.9999982604981,8|0,0:0|0:0,0:0:0:0:
307,384,91337,1,2,0:0:0:0:
307,384,91513,2,0,B|301:346|301:346|307:323|307:323|299:297|299:297|305:274|305:274|299:245|299:245|306:218|306:218|298:190|298:190|304:162,1,213.750008153916,2|0,0:3|0:0,0:0:0:0:
300,176,91866,1,8,0:0:0:0:
451,281,92043,1,2,0:3:0:0:
446,53,92219,6,0,L|434:113,1,56.9999982604981,2|0,0:0|0:0,0:0:0:0:
331,223,92396,2,0,L|251:201,1,56.9999982604981,2|0,0:3|0:0,0:0:0:0:
207,70,92572,1,2,0:0:0:0:
207,70,92660,1,2,0:0:0:0:
207,70,92749,1,2,0:0:0:0:
207,70,92837,1,2,0:0:0:0:
207,70,92925,2,0,L|218:136,1,56.9999982604981,2|0,0:3|0:0,0:0:0:0:
314,298,93102,2,0,L|324:355,1,56.9999982604981,0|0,3:0|0:0,0:0:0:0:
213,245,93278,2,0,L|164:217,1,56.9999982604981,8|0,0:0|0:0,0:0:0:0:
367,208,93455,2,0,L|306:173,1,56.9999982604981,0|0,3:0|0:0,0:0:0:0:
90,367,93632,6,0,P|169:337|248:365,1,170.999994781494,2|0,0:0|0:0,0:0:0:0:
324,355,93985,2,0,P|333:292|322:239,1,113.999996520996,8|2,0:0|0:0,0:0:0:0:
323,243,94249,1,0,0:0:0:0:
323,243,94338,1,2,0:3:0:0:
172,311,94514,1,2,3:0:0:0:
242,89,94691,1,8,0:0:0:0:
373,317,94867,1,2,0:3:0:0:
157,224,95043,6,0,B|151:166|151:166|161:124|161:124|153:45,1,170.999994781494,2|0,0:0|0:0,0:0:0:0:
64,117,95397,2,0,L|70:181,1,56.9999982604981,8|0,0:0|0:0,0:0:0:0:
42,313,95573,1,2,0:0:0:0:
42,313,95661,1,0,0:0:0:0:
42,313,95749,2,0,P|122:338|130:208,1,213.750008153916,2|0,3:3|0:0,0:0:0:0:
66,226,96102,2,0,L|106:279,1,56.9999982604981,8|0,0:0|0:0,0:0:0:0:
236,329,96278,2,0,L|301:321,1,56.9999982604981,0|0,3:0|0:0,0:0:0:0:
371,265,96454,5,2,0:0:0:0:
240,172,96631,1,0,3:0:0:0:
371,265,96807,1,8,0:0:0:0:
398,29,96984,1,2,0:0:0:0:
398,29,97072,1,0,0:0:0:0:
398,29,97160,2,0,P|392:110|445:48,1,213.750008153916,2|0,0:3|0:0,0:0:0:0:
445,48,97514,2,0,P|390:25|342:80,1,113.999996520996,8|2,0:0|0:3,0:0:0:0:
245,188,97867,5,2,0:0:0:0:
152,47,98044,1,0,3:0:0:0:
67,259,98220,2,0,L|129:250,1,56.9999982604981,10|2,0:0|0:0,0:0:0:0:
234,131,98397,1,2,0:0:0:0:
234,131,98485,1,2,0:0:0:0:
234,131,98573,2,0,L|248:206,1,56.9999982604981,2|0,0:3|0:0,0:0:0:0:
327,87,98749,2,0,L|328:167,1,56.9999982604981,0|0,3:0|0:0,0:0:0:0:
426,78,98926,2,0,L|415:142,1,56.9999982604981,8|0,0:0|0:0,0:0:0:0:
512,108,99102,2,0,L|490:161,1,56.9999982604981,2|0,3:3|0:0,0:0:0:0:
359,277,99279,5,2,0:0:0:0:
356,282,99367,1,0,0:0:0:0:
353,287,99455,2,0,L|366:360,1,56.9999982604981,0|0,3:0|0:0,0:0:0:0:
390,196,99632,2,0,B|319:190|249:211|249:211|289:231,1,170.999994781494,8|0,0:0|0:0,0:0:0:0:
353,287,99985,5,2,0:3:0:0:
416,31,100161,1,2,3:3:0:0:
243,338,100338,1,8,0:0:0:0:
91,59,100514,1,2,0:3:0:0:
91,59,100690,6,0,P|92:96|100:134,1,56.9999982604981,4|0,0:0|0:0,0:0:0:0:
231,261,100866,2,0,P|234:240|239:197,1,56.9999982604981
343,64,101044,2,0,P|368:64|420:74,1,56.9999982604981,2|0,0:3|0:0,0:0:0:0:
459,227,101219,2,0,B|392:206|392:206|298:221|298:221|220:199,1,227.999993041992,0|2,1:0|0:3,0:0:0:0:
64,86,101749,1,6,0:0:0:0:
84,93,102102,6,0,L|91:214,1,104.500003189087,4|0,1:0|0:0,0:0:0:0:
288,332,102455,2,0,L|405:307,1,104.500003189087,8|0,0:0|0:0,0:0:0:0:
274,51,102808,2,0,L|157:76,1,104.500003189087,0|2,0:0|3:2,0:0:0:0:
288,332,103161,1,8,0:0:0:0:
115,182,103338,1,2,3:3:0:0:
115,182,103426,1,0,0:0:0:0:
115,182,103514,6,0,P|148:178|191:167,1,52.2500015945435,2|0,0:0|0:0,0:0:0:0:
276,132,103690,2,0,P|305:144|348:165,1,52.2500015945435,2|0,3:3|0:0,0:0:0:0:
306,307,103866,5,8,0:0:0:0:
1,200,104044,1,2,3:3:0:0:
42,192,104132,1,2,0:0:0:0:
83,185,104220,1,0,0:0:0:0:
124,179,104308,1,0,0:0:0:0:
166,174,104396,5,2,3:2:0:0:
256,299,104573,1,8,0:0:0:0:
256,299,104749,2,0,P|260:264|265:230,1,52.2500015945435,2|0,3:3|0:0,0:0:0:0:
343,121,104926,6,0,P|396:123|438:155,1,104.500003189087,4|0,0:1|0:0,0:0:0:0:
256,299,105279,2,0,P|203:297|161:265,1,104.500003189087,8|0,0:0|0:0,0:0:0:0:
182,78,105632,1,2,0:3:0:0:
250,279,105808,1,2,0:0:0:0:
167,44,105985,1,8,0:0:0:0:
64,294,106160,1,2,3:3:0:0:
64,294,106249,1,0,0:0:0:0:
64,294,106337,6,0,L|154:276,1,52.2500015945435,2|0,0:0|0:0,0:0:0:0:
266,380,106514,2,0,L|254:328,1,52.2500015945435,2|0,0:3|0:0,0:0:0:0:
207,190,106691,5,8,0:0:0:0:
411,303,106866,1,2,3:3:0:0:
434,256,106954,1,2,0:0:0:0:
432,205,107043,1,0,0:0:0:0:
405,161,107131,1,0,0:0:0:0:
359,135,107220,2,0,L|306:156,1,52.2500015945435,2|0,3:2|0:0,0:0:0:0:
207,190,107396,2,0,L|155:177,1,52.2500015945435,8|0,0:0|0:0,0:0:0:0:
46,138,107573,2,0,P|54:172|66:210,1,52.2500015945435,2|0,3:3|0:0,0:0:0:0:
93,331,107749,6,0,P|168:301|245:314,1,156.750004783631,4|0,0:1|0:0,0:0:0:0:
331,345,108102,2,0,L|343:241,1,104.500003189087,8|0,0:0|0:0,0:0:0:0:
116,44,108455,1,0,0:0:0:0:
199,241,108632,1,2,3:2:0:0:
199,241,108720,1,0,0:0:0:0:
199,241,108808,1,8,0:0:0:0:
79,26,108985,1,2,3:3:0:0:
169,274,109161,5,2,0:0:0:0:
291,53,109338,1,2,3:3:0:0:
234,358,109514,1,8,0:0:0:0:
443,139,109691,5,2,3:3:0:0:
449,190,109779,1,2,0:0:0:0:
449,242,109867,1,2,0:3:0:0:
444,293,109955,1,0,0:0:0:0:
434,344,110043,5,2,3:0:0:0:
184,64,110220,2,0,P|191:122|198:171,1,104.500003189087,8|2,0:0|0:3,0:0:0:0:
163,247,110485,1,0,0:0:0:0:
163,247,110572,6,0,B|109:259|109:259|38:248,1,104.500003189087,4|0,0:1|0:0,0:0:0:0:
410,182,110926,2,0,B|464:170|464:170|512:177,1,104.500003189087,8|0,0:0|0:0,0:0:0:0:
121,94,111279,1,2,0:3:0:0:
218,275,111455,1,2,3:2:0:0:
351,41,111632,1,8,0:0:0:0:
411,300,111808,1,2,0:3:0:0:
411,300,111897,1,0,0:0:0:0:
411,300,111985,6,0,P|371:293|332:282,1,52.2500015945435,2|0,0:0|0:0,0:0:0:0:
166,164,112161,2,0,P|166:191|168:219,1,52.2500015945435,2|0,0:3|0:0,0:0:0:0:
277,348,112338,5,8,0:0:0:0:
429,209,112514,1,2,3:3:0:0:
378,194,112602,1,2,0:0:0:0:
327,183,112690,1,0,0:0:0:0:
276,173,112778,1,0,0:0:0:0:
224,167,112867,2,0,L|228:232,1,52.2500015945435,2|0,3:2|0:0,0:0:0:0:
305,345,113044,2,0,L|301:292,1,52.2500015945435,8|0,0:0|0:0,0:0:0:0:
176,161,113220,2,0,L|180:226,1,52.2500015945435,2|0,3:3|0:0,0:0:0:0:
353,355,113397,6,0,L|346:248,1,104.500003189087,4|0,1:0|0:0,0:0:0:0:
193,48,113749,2,0,L|90:59,1,104.500003189087,8|0,0:0|0:0,0:0:0:0:
242,261,114102,2,0,L|345:250,1,104.500003189087,0|2,0:0|0:0,0:0:0:0:
290,1,114454,1,8,0:0:0:0:
161,191,114631,1,2,3:3:0:0:
161,191,114719,1,0,0:0:0:0:
161,191,114807,6,0,P|165:220|170:251,1,52.2500015945435,2|0,0:0|0:0,0:0:0:0:
294,344,114984,2,0,P|301:318|307:293,1,52.2500015945435,2|0,0:3|0:0,0:0:0:0:
290,140,115160,5,8,0:0:0:0:
89,252,115338,1,2,3:0:0:0:
76,201,115426,1,2,0:0:0:0:
64,150,115514,1,0,0:0:0:0:
55,99,115602,1,0,0:0:0:0:
47,48,115690,5,2,3:2:0:0:
212,183,115867,1,8,0:0:0:0:
212,183,116044,2,0,P|217:147|221:114,1,52.2500015945435,2|0,3:3|0:0,0:0:0:0:
410,39,116219,6,0,P|354:48|289:57,1,104.500003189087,4|0,0:1|0:0,0:0:0:0:
108,288,116573,2,0,P|164:279|229:270,1,104.500003189087,8|0,0:0|0:0,0:0:0:0:
306,54,116925,1,2,0:3:0:0:
211,272,117102,1,2,0:0:0:0:
151,113,117278,1,8,0:0:0:0:
236,354,117454,1,2,3:3:0:0:
236,354,117543,1,0,0:0:0:0:
236,354,117631,6,0,L|301:338,1,52.2500015945435,2|0,0:0|0:0,0:0:0:0:
404,346,117807,2,0,L|433:298,1,52.2500015945435,2|0,0:3|0:0,0:0:0:0:
402,140,117984,5,8,0:0:0:0:
130,273,118160,1,2,3:3:0:0:
181,263,118249,1,2,0:0:0:0:
232,251,118337,1,2,0:3:0:0:
282,238,118425,1,0,0:0:0:0:
333,224,118514,2,0,L|362:153,1,52.2500015945435,2|0,3:2|0:0,0:0:0:0:
211,36,118691,2,0,L|232:115,1,52.2500015945435,8|0,0:0|0:0,0:0:0:0:
101,210,118867,2,0,L|170:187,1,52.2500015945435,2|0,3:3|0:0,0:0:0:0:
330,98,119044,6,0,P|413:120|434:191,1,156.750004783631,4|0,0:1|0:0,0:0:0:0:
417,269,119397,2,0,L|392:375,1,104.500003189087,8|0,0:0|0:0,0:0:0:0:
154,278,119750,1,0,0:0:0:0:
352,175,119925,1,2,3:2:0:0:
352,175,120013,1,0,0:0:0:0:
352,175,120102,1,8,0:0:0:0:
265,358,120278,1,2,0:3:0:0:
304,60,120454,5,2,0:0:0:0:
391,350,120631,1,2,0:3:0:0:
183,62,120807,1,8,0:0:0:0:
265,358,120984,5,2,3:3:0:0:
270,306,121072,1,2,0:0:0:0:
276,254,121160,1,2,0:3:0:0:
282,202,121249,1,0,0:0:0:0:
288,150,121337,5,2,3:2:0:0:
93,51,121513,1,8,0:0:0:0:
20,282,121690,1,2,3:3:0:0:
20,282,121778,1,0,0:0:0:0:
20,282,121866,6,0,P|80:269|135:259,1,104.500003189087,4|0,0:1|0:0,0:0:0:0:
93,51,122220,1,8,0:0:0:0:
189,320,122397,1,0,0:0:0:0:
281,17,122572,1,2,0:3:0:0:
264,353,122749,1,2,3:2:0:0:
456,46,122925,1,8,0:0:0:0:
108,357,123102,1,2,0:3:0:0:
108,357,123190,1,0,0:0:0:0:
108,357,123278,6,0,P|96:304|87:250,2,104.500003189087,2|2|2,0:0|0:3|0:3,0:0:0:0:
352,191,123808,2,0,P|367:137|384:68,2,104.500003189087,0|2|0,0:0|0:3|0:0,0:0:0:0:
174,287,124338,1,0,0:0:0:0:
249,34,124514,1,2,0:3:0:0:
381,349,124691,5,4,0:0:0:0:
