osu file format v14

[General]
AudioFilename: Ailala.mp3
AudioLeadIn: 2000
PreviewTime: 48965
Countdown: 0
SampleSet: Soft
StackLeniency: 0.7
Mode: 0
LetterboxInBreaks: 0
WidescreenStoryboard: 0

[Editor]
DistanceSpacing: 1.4
BeatDivisor: 4
GridSize: 4
TimelineZoom: 1.5

[Metadata]
Title:Ai La La
TitleUnicode:爱啦啦
Artist:Sharlo
ArtistUnicode:Sharlo
Creator:Karen
Version:liangv587's Normal
Source:
Tags:海楠 Hai Nan 夏萝 Zero__wind Xinely liangv587
BeatmapID:837224
BeatmapSetID:378314

[Difficulty]
HPDrainRate:4
CircleSize:3
OverallDifficulty:3.5
ApproachRate:4
SliderMultiplier:1.2
SliderTickRate:1

[Events]
//Background and Video events
0,0,"bg.jpg",0,0
//Break Periods
2,65290,71770
2,137090,139770
//Storyboard Layer 0 (Background)
//Storyboard Layer 1 (Fail)
//Storyboard Layer 2 (Pass)
//Storyboard Layer 3 (Foreground)
//Storyboard Sound Samples

[TimingPoints]
1090,500,4,2,10,60,1,0
17090,-100,4,2,10,50,0,0
33090,-100,4,2,10,60,0,0
49090,-100,4,2,10,70,0,0
57090,-100,4,2,10,60,0,0
65090,-100,4,2,10,50,0,0
81090,-100,4,2,10,60,0,0
97090,-125,4,2,10,40,0,0
105090,-100,4,2,10,50,0,0
121090,-100,4,2,10,60,0,0
141090,-125,4,2,10,50,0,0
145090,-100,4,2,10,70,0,1
161090,-100,4,2,10,60,0,0

[Colours]
Combo1 : 255,221,221
Combo2 : 255,255,147
Combo3 : 255,189,123
Combo4 : 255,121,121

[HitObjects]
92,306,1090,6,0,P|152:304|209:287,1,120,4|8,3:2|0:0,0:0:0:0:
256,216,1840,1,0,0:0:0:0:
300,288,2090,2,0,P|328:300|360:308,1,60,0|0,3:0|3:0,0:0:0:0:
440,320,2590,1,8,0:0:0:0:
432,152,3090,2,0,P|368:142|308:156,1,120,0|8,3:0|0:0,0:0:0:0:
256,216,3840,1,0,0:0:0:0:
172,212,4090,2,0,P|140:208|112:196,1,60,0|0,3:0|3:0,0:0:0:0:
48,148,4590,2,0,P|67:122|91:104,1,60,8|8,0:0|0:0,0:0:0:0:
168,72,5090,6,0,B|180:101|182:131|182:131|212:116|248:116,1,120,0|8,3:0|0:0,0:0:0:0:
314,153,5840,1,0,0:0:0:0:
356,224,6090,2,0,P|356:260|352:288,1,60,0|0,3:0|3:0,0:0:0:0:
328,364,6590,1,8,0:0:0:0:
160,364,7090,2,0,P|130:362|100:355,1,60,0|0,3:0|0:0,0:0:0:0:
28,312,7590,1,8,0:0:0:0:
20,228,7840,1,0,0:0:0:0:
100,200,8090,2,0,P|129:201|159:208,1,60,0|8,3:0|3:2,0:0:0:0:
216,272,8590,2,0,L|224:304,2,30,8|8|8,0:0|0:0|0:0,0:0:0:0:
248,192,9090,6,0,P|280:176|312:152,1,60,4|0,3:2|0:0,0:0:0:0:
360,104,9590,1,8,0:0:0:0:
216,20,10090,2,0,P|184:36|152:60,1,60,0|0,3:0|3:0,0:0:0:0:
104,108,10590,1,8,0:0:0:0:
100,276,11090,2,0,P|115:313|132:336,1,60,0|0,3:0|0:0,0:0:0:0:
212,332,11590,2,0,P|243:306|260:284,1,60,8|0,0:0|0:0,0:0:0:0:
264,208,12090,2,0,P|230:184|205:174,1,60,0|0,3:0|3:0,0:0:0:0:
132,196,12590,1,8,0:0:0:0:
276,108,13090,6,0,L|352:96,1,60,0|0,3:0|0:0,0:0:0:0:
420,84,13590,1,8,0:0:0:0:
500,232,14090,2,0,L|432:244,1,60,0|0,3:0|3:0,0:0:0:0:
356,256,14590,1,8,0:0:0:0:
213,176,15090,2,0,L|193:108,1,60,0|0,3:0|0:0,0:0:0:0:
132,64,15590,2,0,L|64:92,1,60,8|0,0:0|0:0,0:0:0:0:
52,168,16090,2,0,L|88:224,1,60,0|8,3:0|3:2,0:0:0:0:
164,248,16590,1,8,0:0:0:0:
332,260,17090,6,0,L|316:324,1,60,4|0,3:1|0:0,0:0:0:0:
248,364,17590,1,8,0:0:0:0:
412,332,18090,2,0,L|428:268,1,60,0|0,3:0|3:0,0:0:0:0:
492,224,18590,1,8,0:0:0:0:
424,72,19090,2,0,L|360:76,1,60,0|0,3:0|0:0,0:0:0:0:
280,80,19590,1,8,0:0:0:0:
248,156,19840,1,0,0:0:0:0:
163,164,20090,2,0,L|99:168,1,60,0|0,3:0|3:0,0:0:0:0:
136,88,20590,2,0,L|195:84,1,60,8|8,0:0|3:2,0:0:0:0:
248,156,21090,6,0,P|240:200|228:216,1,60,0|0,3:0|0:0,0:0:0:0:
156,248,21590,1,8,0:0:0:0:
324,224,22090,2,0,P|332:192|332:160,1,60,0|0,3:0|3:0,0:0:0:0:
332,80,22590,1,8,0:0:0:0:
444,204,23090,2,0,P|441:264|428:328,1,120,0|8,3:0|0:0,0:0:0:0:
348,344,23840,1,0,0:0:0:0:
264,328,24090,2,0,P|224:336|196:352,1,60,0|8,3:0|3:2,0:0:0:0:
124,344,24590,2,0,P|96:332|66:327,1,60,8|0,0:0|3:0,0:0:0:0:
56,244,25090,6,0,P|60:184|72:124,2,120,0|8|0,3:0|0:0|3:0,0:0:0:0:
224,248,26590,1,8,0:0:0:0:
288,92,27090,2,0,P|229:77|170:70,2,120,0|8|0,3:0|0:0|3:0,0:0:0:0:
356,144,28340,1,0,3:0:0:0:
360,228,28590,2,0,P|352:256|336:288,1,60,8|8,0:0|3:2,0:0:0:0:
276,340,29090,6,0,P|216:332|158:318,2,120,0|8|0,3:0|0:0|3:0,0:0:0:0:
432,280,30590,1,8,0:0:0:0:
280,208,31090,2,0,P|216:212|148:224,1,120,0|8,3:0|0:0,0:0:0:0:
84,256,31840,1,0,0:0:0:0:
76,340,32090,2,0,P|107:355|144:368,1,60,0|8,3:0|0:0,0:0:0:0:
208,328,32590,2,0,L|204:276,2,30,8|8|8,0:0|0:0|3:2,0:0:0:0:
292,348,33090,6,0,P|356:344|416:328,1,120,4|8,3:1|0:0,0:0:0:0:
472,272,33840,1,0,0:0:0:0:
424,200,34090,2,0,P|416:135|428:68,1,120,0|8,3:0|0:0,0:0:0:0:
264,32,35090,2,0,P|228:80|204:144,1,120,0|8,3:0|0:0,0:0:0:0:
184,216,35840,1,0,0:0:0:0:
100,232,36090,2,0,P|64:224|28:212,1,60,0|0,3:0|3:0,0:0:0:0:
64,136,36590,2,0,P|100:144|136:156,1,60,8|8,0:0|3:2,0:0:0:0:
184,216,37090,6,0,B|192:260|168:288|184:340,1,120,0|8,3:0|0:0,0:0:0:0:
256,376,37840,1,0,0:0:0:0:
324,328,38090,2,0,B|338:280|314:252|322:208,1,120,0|8,3:0|0:0,0:0:0:0:
444,92,39090,2,0,P|388:76|324:72,1,120,0|8,3:0|0:0,0:0:0:0:
244,92,39840,1,0,0:0:0:0:
168,56,40090,2,0,P|138:50|92:56,1,60,0|8,3:0|0:0,0:0:0:0:
112,136,40590,2,0,P|141:141|188:136,1,60,8|0,0:0|3:0,0:0:0:0:
244,92,41090,6,0,P|260:148|259:210,2,120,0|8|0,3:0|0:0|3:0,0:0:0:0:
80,60,42590,1,8,0:0:0:0:
40,224,43090,2,0,P|32:288|40:344,2,120,0|8|0,3:0|0:0|3:0,0:0:0:0:
124,220,44340,1,0,3:0:0:0:
200,256,44590,2,0,P|208:284|212:316,1,60,8|8,0:0|3:2,0:0:0:0:
292,344,45090,6,0,P|352:336|410:322,2,120,0|8|0,3:0|0:0|3:0,0:0:0:0:
128,304,46590,1,8,0:0:0:0:
268,212,47090,2,0,P|332:216|400:228,1,120,0|8,3:0|0:0,0:0:0:0:
464,260,47840,1,0,3:0:0:0:
484,180,48090,2,0,P|480:148|472:116,1,60,0|8,3:0|0:0,0:0:0:0:
392,104,48590,2,0,L|389:133,2,30,8|8|8,0:0|0:0|0:0,0:0:0:0:
336,44,49090,5,4,3:2:0:0:
168,36,49590,2,0,P|139:42|104:52,1,60,8|0,0:0|0:0,0:0:0:0:
32,80,50090,1,0,3:0:0:0:
196,124,50590,2,0,P|167:130|132:140,1,60,8|0,0:0|0:0,0:0:0:0:
60,168,51090,1,0,3:0:0:0:
220,212,51590,2,0,P|191:218|156:228,1,60,8|0,0:0|0:0,0:0:0:0:
80,248,52090,2,0,P|86:276|96:312,1,60,0|0,3:0|3:0,0:0:0:0:
140,376,52590,2,0,L|168:369|204:360,1,60,8|8,0:0|3:2,0:0:0:0:
248,296,53090,5,0,3:0:0:0:
412,336,53590,2,0,P|403:307|390:273,1,60,8|0,0:0|0:0,0:0:0:0:
322,235,54090,1,0,3:0:0:0:
416,96,54590,2,0,P|386:95|350:97,1,60,8|0,0:0|0:0,0:0:0:0:
292,150,55090,1,0,3:0:0:0:
180,28,55590,2,0,P|176:64|176:92,1,60,8|0,0:0|3:0,0:0:0:0:
112,144,56090,2,0,P|81:143|32:148,1,60,0|8,3:0|0:0,0:0:0:0:
16,220,56590,2,0,L|12:260,2,30,8|8|8,0:0|0:0|0:0,0:0:0:0:
100,228,57090,6,0,P|156:228|232:220,1,120,4|8,3:2|0:0,0:0:0:0:
300,200,57840,1,0,0:0:0:0:
352,136,58090,2,0,P|353:102|352:68,2,60,0|0|8,3:0|3:0|0:0,0:0:0:0:
476,248,59090,2,0,P|488:300|492:368,2,120,0|8|0,3:0|0:0|3:0,0:0:0:0:
312,288,60590,1,8,0:0:0:0:
148,324,61090,6,0,L|76:312,2,60,0|0|8,3:0|0:0|0:0,0:0:0:0:
84,168,62090,2,0,L|12:156,2,60,0|0|8,3:0|3:0|0:0,0:0:0:0:
204,48,63090,2,0,L|132:36,2,60,0|0|8,3:0|0:0|0:0,0:0:0:0:
212,216,64090,2,0,P|224:274|246:330,2,120,0|8|4,3:0|0:0|3:1,0:0:0:0:
312,152,73090,6,0,B|344:112|384:144|432:116,1,120,0|8,3:0|0:0,0:0:0:0:
472,52,73840,1,0,0:0:0:0:
388,48,74090,2,0,P|326:53|263:82,1,120,0|8,3:0|0:0,0:0:0:0:
349,226,75090,2,0,P|293:248|233:250,1,120,0|8,3:0|0:0,0:0:0:0:
152,228,75840,1,0,0:0:0:0:
165,145,76090,2,0,P|143:114|113:98,1,60,0|0,3:0|3:0,0:0:0:0:
86,177,76590,2,0,P|69:209|68:242,1,60,8|8,0:0|3:2,0:0:0:0:
108,305,77090,6,0,B|151:329|192:298|227:337,1,120,0|8,3:0|0:0,0:0:0:0:
301,360,77840,1,0,0:0:0:0:
384,358,78090,2,0,P|362:300|303:275,1,120,0|8,3:0|0:0,0:0:0:0:
152,228,79090,1,0,3:0:0:0:
261,355,79590,1,8,0:0:0:0:
293,190,80090,2,0,P|294:161|288:126,1,60,0|8,3:0|3:2,0:0:0:0:
246,58,80590,2,0,L|211:60,2,30,8|8|8,0:0|0:0|3:2,0:0:0:0:
329,53,81090,6,0,B|368:80|376:104|380:160,1,120,4|8,3:1|0:0,0:0:0:0:
240,252,82090,1,0,3:0:0:0:
157,269,82340,1,0,3:0:0:0:
82,230,82590,1,8,0:0:0:0:
72,62,83090,2,0,P|120:30|188:42,1,120,0|8,3:0|0:0,0:0:0:0:
227,103,83840,1,0,0:0:0:0:
251,185,84090,2,0,P|236:215|209:235,1,60,0|0,3:0|3:0,0:0:0:0:
168,162,84590,2,0,P|149:138|143:106,1,60,8|8,0:0|3:2,0:0:0:0:
227,103,85090,6,0,P|291:111|331:158,1,120,0|8,3:0|0:0,0:0:0:0:
393,303,86090,1,0,3:0:0:0:
474,280,86340,1,0,3:0:0:0:
415,219,86590,1,8,0:0:0:0:
269,301,87090,2,0,P|213:318|158:297,1,120,0|8,3:0|0:0,0:0:0:0:
96,240,87840,1,0,0:0:0:0:
54,166,88090,2,0,P|79:154|114:158,1,60,0|8,3:0|0:0,0:0:0:0:
183,114,88590,2,0,P|179:82|189:49,1,60,8|0,0:0|3:0,0:0:0:0:
267,32,89090,6,0,P|333:31|385:51,2,120,0|8|0,3:0|0:0|3:0,0:0:0:0:
100,58,90590,1,8,0:0:0:0:
187,204,91090,2,0,P|243:223|302:221,1,120,0|8,3:0|0:0,0:0:0:0:
375,179,91840,1,0,0:0:0:0:
303,135,92090,2,0,P|271:141|233:136,1,60,0|0,3:0|3:0,0:0:0:0:
161,124,92590,2,0,P|136:138|114:168,1,60,8|8,0:0|3:2,0:0:0:0:
116,246,93090,6,0,B|141:320|92:329|102:373,2,120,0|8|0,3:0|0:0|3:0,0:0:0:0:
43,203,94340,1,0,3:0:0:0:
39,286,94590,1,8,0:0:0:0:
183,371,95090,2,0,B|229:368|230:321|293:324,1,120,0|8,3:0|0:0,0:0:0:0:
366,358,95840,1,0,0:0:0:0:
439,317,96090,2,0,P|444:293|445:256,1,60,0|8,3:0|0:0,0:0:0:0:
361,245,96590,2,0,L|362:284,2,30,8|8|8,0:0|0:0|3:2,0:0:0:0:
279,243,97090,6,0,P|260:198|264:145,1,96,4|8,3:2|0:1,0:0:0:0:
332,37,98090,2,0,P|285:51|236:50,1,96,2|8,0:0|0:1,0:0:0:0:
144,146,99090,2,0,P|98:140|44:112,1,96,2|8,0:0|0:1,0:0:0:0:
76,251,100090,2,0,L|67:307,2,48,2|0|8,0:0|0:0|0:1,0:0:0:0:
195,312,101090,6,0,P|209:260|207:207,1,96,2|8,0:0|0:1,0:0:0:0:
146,98,102090,2,0,P|196:113|246:114,1,96,2|8,0:0|0:1,0:0:0:0:
315,225,103090,2,0,P|372:212|416:187,1,96,2|8,0:0|0:1,0:0:0:0:
442,323,104090,2,0,L|437:380,2,48,2|8|8,0:0|0:1|0:1,0:0:0:0:
273,332,105090,6,0,L|151:313,1,120,0|8,3:0|0:0,0:0:0:0:
71,329,105840,1,0,0:0:0:0:
92,247,106090,2,0,L|87:115,1,120,0|8,3:0|0:0,0:0:0:0:
229,37,107090,1,0,3:0:0:0:
171,195,107590,1,8,0:0:0:0:
145,28,108090,2,0,L|80:35,1,60,0|0,3:0|3:0,0:0:0:0:
26,94,108590,2,0,L|28:160,1,60,8|8,0:0|0:0,0:0:0:0:
88,211,109090,6,0,L|208:227,1,120,0|8,3:0|0:0,0:0:0:0:
281,264,109840,1,0,0:0:0:0:
280,180,110090,2,0,L|308:43,1,120,0|8,3:0|0:0,0:0:0:0:
143,113,111090,1,0,3:0:0:0:
197,271,111590,1,8,0:0:0:0:
361,306,112090,2,0,L|437:307,1,60,0|8,3:0|0:0,0:0:0:0:
455,230,112590,2,0,L|499:238,2,30,8|8|8,0:0|0:0|3:2,0:0:0:0:
428,149,113090,6,0,L|304:157,1,120,0|8,3:0|0:0,0:0:0:0:
160,77,114090,1,0,3:0:0:0:
327,72,114590,1,8,0:0:0:0:
250,221,115090,2,0,L|263:342,1,120,0|8,3:0|0:0,0:0:0:0:
136,229,116090,1,0,3:0:0:0:
281,145,116590,2,0,L|347:167,1,60,8|8,0:0|0:0,0:0:0:0:
416,194,117090,5,0,3:0:0:0:
361,353,117590,1,8,0:0:0:0:
498,257,118090,1,0,3:0:0:0:
330,255,118590,1,8,0:0:0:0:
464,356,119090,2,0,L|344:351,1,120,0|8,3:0|0:0,0:0:0:0:
175,349,120090,2,0,L|106:360,2,60,0|8|8,3:0|0:0|0:0,0:0:0:0:
246,196,121090,6,0,P|242:166|233:137,1,60,4|0,3:1|0:0,0:0:0:0:
170,81,121590,2,0,B|119:53|88:86|43:73,2,120,8|0|8,0:0|0:0|0:0,0:0:0:0:
163,248,123090,2,0,B|214:276|245:243|290:256,1,120,0|8,3:0|0:0,0:0:0:0:
363,266,123840,1,0,0:0:0:0:
437,305,124090,2,0,P|448:342|448:364,1,60,0|0,3:0|3:0,0:0:0:0:
364,351,124590,2,0,P|340:349|299:320,1,60,8|8,0:0|0:0,0:0:0:0:
280,253,125090,6,0,B|293:193|343:193|349:142,1,120,0|8,3:0|0:0,0:0:0:0:
470,42,126090,2,0,P|484:73|493:108,2,60,0|0|8,3:0|3:0|0:0,0:0:0:0:
307,80,127090,2,0,P|298:51|286:23,2,60,0|0|8,3:0|0:0|0:0,0:0:0:0:
238,129,127840,1,0,0:0:0:0:
154,131,128090,2,0,P|123:130|94:121,1,60,0|8,3:0|0:0,0:0:0:0:
89,205,128590,2,0,P|103:232|110:261,1,60,8|0,0:0|3:0,0:0:0:0:
186,224,129090,6,0,B|199:192|225:176|225:176|244:185|286:194,2,120,0|8|0,3:0|0:0|3:0,0:0:0:0:
337,296,130590,1,8,0:0:0:0:
170,319,131090,2,0,B|131:310|115:290|115:290|68:299|41:278,2,120,0|8|0,3:0|0:0|3:0,0:0:0:0:
253,324,132340,1,0,3:0:0:0:
335,341,132590,2,0,P|361:354|384:374,1,60,8|8,0:0|3:2,0:0:0:0:
406,278,133090,6,0,P|406:211|429:151,1,120,0|8,3:0|0:0,0:0:0:0:
474,94,133840,1,0,0:0:0:0:
391,80,134090,2,0,B|359:97|337:133|328:181,1,120,0|8,3:0|0:0,0:0:0:0:
168,228,135090,2,0,P|97:249|39:246,2,120,0|8|0,3:0|0:0|3:0,0:0:0:0:
200,150,136340,1,8,0:0:0:0:
160,75,136590,2,0,L|133:61,2,30,8|8|8,0:0|0:0|3:2,0:0:0:0:
68,287,141090,6,0,P|107:269|168:264,1,96,2|8,0:0|0:1,0:0:0:0:
251,363,142090,2,0,P|298:358|342:339,1,96,2|8,0:0|0:1,0:0:0:0:
378,209,143090,2,0,B|329:193|305:211|276:209,1,96,2|8,0:0|0:1,0:0:0:0:
157,165,144090,2,0,B|135:165|111:183|62:167,1,96,2|8,0:0|0:1,0:0:0:0:
176,44,145090,5,4,3:2:0:0:
344,36,145590,2,0,P|373:42|408:52,1,60,8|0,0:0|0:0,0:0:0:0:
480,80,146090,1,0,3:0:0:0:
316,124,146590,2,0,P|345:130|380:140,1,60,8|0,0:0|0:0,0:0:0:0:
452,168,147090,1,0,3:0:0:0:
292,212,147590,2,0,P|321:218|356:228,1,60,8|0,0:0|0:0,0:0:0:0:
432,248,148090,2,0,P|426:276|416:312,1,60,0|0,3:0|3:0,0:0:0:0:
372,376,148590,2,0,L|344:369|308:360,1,60,8|8,0:0|0:0,0:0:0:0:
264,296,149090,5,0,3:0:0:0:
100,336,149590,2,0,P|109:307|122:273,1,60,8|0,0:0|0:0,0:0:0:0:
190,235,150090,1,0,3:0:0:0:
96,96,150590,2,0,P|126:95|162:97,1,60,8|0,0:0|0:0,0:0:0:0:
220,150,151090,1,0,3:0:0:0:
332,28,151590,2,0,P|336:64|336:92,1,60,8|0,0:0|0:0,0:0:0:0:
400,144,152090,2,0,P|431:143|480:148,1,60,0|8,3:0|3:2,0:0:0:0:
496,220,152590,2,0,L|500:260,2,30,8|8|8,0:0|0:0|3:2,0:0:0:0:
412,228,153090,6,0,P|356:228|280:220,1,120,4|8,3:2|0:0,0:0:0:0:
233,161,153840,1,0,0:0:0:0:
172,103,154090,2,0,P|112:97|52:96,1,120,0|8,3:0|0:0,0:0:0:0:
15,261,155090,2,0,P|11:338|41:371,1,120,0|8,3:0|0:0,0:0:0:0:
119,379,155840,1,0,0:0:0:0:
93,299,156090,2,0,P|100:275|96:231,1,60,0|0,3:0|3:0,0:0:0:0:
182,248,156590,2,0,P|209:246|251:263,1,60,8|8,0:0|3:2,0:0:0:0:
199,329,157090,6,0,B|253:356|281:327|316:352,1,120,0|8,3:0|0:0,0:0:0:0:
395,324,157840,1,0,0:0:0:0:
336,263,158090,2,0,B|311:229|340:201|313:147,1,120,0|8,3:0|0:0,0:0:0:0:
147,119,159090,2,0,B|171:152|142:180|169:234,1,120,0|8,3:0|0:0,0:0:0:0:
243,195,159840,1,0,0:0:0:0:
313,147,160090,2,0,L|385:147,2,60,0|8|8,3:0|3:2|0:0,0:0:0:0:
238,108,160840,1,0,3:0:0:0:
188,39,161090,6,0,B|131:13|91:54|46:40,2,120,4|0|0,3:2|1:0|3:0,0:0:0:0:
243,195,162590,1,0,1:0:0:0:
78,162,163090,1,0,3:0:0:0:
238,108,163590,1,0,1:0:0:0:
139,244,164090,2,0,P|120:280|108:316,2,60,0|0|0,3:0|3:0|1:0,0:0:0:0:
263,356,165090,6,0,L|335:362,2,60,0|0|0,3:0|0:0|1:0,0:0:0:0:
352,213,166090,2,0,L|424:219,2,60,0|0|0,3:0|3:0|1:0,0:0:0:0:
320,47,167090,2,0,L|444:57,2,120,0|0|0,3:0|1:0|3:0,0:0:0:0:
237,66,168340,1,0,1:0:0:0:
265,145,168590,2,0,L|265:209,1,60,0|0,1:0|3:0,0:0:0:0:
256,192,169090,12,4,171090,0:0:0:0:
