osu file format v14

[General]
AudioFilename: Ailala.mp3
AudioLeadIn: 2000
PreviewTime: 48965
Countdown: 0
SampleSet: Soft
StackLeniency: 0.4
Mode: 0
LetterboxInBreaks: 0
WidescreenStoryboard: 0

[Editor]
DistanceSpacing: 1.4
BeatDivisor: 4
GridSize: 4
TimelineZoom: 1.5

[Metadata]
Title:Ai La La
TitleUnicode:爱啦啦
Artist:Sharlo
ArtistUnicode:Sharlo
Creator:Karen
Version:Zero's Hard
Source:
Tags:海楠 Hai Nan 夏萝 Zero__wind Xinely liangv587
BeatmapID:839942
BeatmapSetID:378314

[Difficulty]
HPDrainRate:5
CircleSize:4
OverallDifficulty:5.5
ApproachRate:6.6
SliderMultiplier:1.4
SliderTickRate:2

[Events]
//Background and Video events
0,0,"bg.jpg",0,0
//Break Periods
2,57290,64130
2,137290,144130
//Storyboard Layer 0 (Background)
//Storyboard Layer 1 (Fail)
//Storyboard Layer 2 (Pass)
//Storyboard Layer 3 (Foreground)
//Storyboard Sound Samples

[TimingPoints]
1090,500,4,2,17,50,1,0
16840,-100,4,2,17,35,0,0
17090,-100,4,2,17,50,0,0
49090,-100,4,2,17,60,0,1
57090,-100,4,2,17,60,0,0
65090,-100,4,2,17,50,0,0
97090,-125,4,2,17,40,0,0
104340,-100,4,2,17,50,0,0
145090,-100,4,2,17,60,0,1
161090,-100,4,2,17,50,0,0

[Colours]
Combo1 : 255,221,221
Combo2 : 255,255,147
Combo3 : 255,189,123
Combo4 : 255,121,121

[HitObjects]
228,144,1090,6,0,P|284:152|312:148,1,70,4|2,1:2|0:0,0:0:0:0:
360,236,1590,2,0,L|448:240,1,70,8|2,0:0|0:0,0:0:0:0:
292,316,2090,2,0,L|222:312,1,70,0|2,1:0|1:2,0:0:0:0:
137,242,2590,2,0,P|125:198|141:154,1,70,8|2,0:0|0:0,0:0:0:0:
144,64,3090,5,0,1:0:0:0:
240,104,3340,1,2,0:0:0:0:
336,64,3590,2,0,P|364:128|360:184,1,105,8|0,0:0|3:0,0:0:0:0:
368,196,4090,2,0,L|292:224,1,70,2|0,1:2|1:0,0:0:0:0:
184,244,4590,2,0,L|120:236,3,35,10|2|2|2,0:0|0:0|1:2|0:0,0:0:0:0:
112,240,5090,6,0,P|92:272|88:308,1,70,0|2,1:0|0:0,0:0:0:0:
60,148,5590,2,0,P|58:110|73:77,1,70,8|2,0:0|0:0,0:0:0:0:
96,56,5965,1,0,3:0:0:0:
128,44,6090,2,0,L|200:48,1,70,0|2,1:0|1:2,0:0:0:0:
244,144,6590,2,0,L|316:140,1,70,8|2,0:0|0:0,0:0:0:0:
416,168,7090,5,0,1:0:0:0:
500,104,7340,2,0,P|504:60|496:32,2,70,2|8|2,0:0|0:0|0:0,0:0:0:0:
496,208,8090,1,0,1:0:0:0:
384,252,8340,1,8,1:0:0:0:
480,324,8590,1,8,0:0:0:0:
480,324,8715,1,8,0:1:0:0:
480,324,8840,1,8,1:0:0:0:
344,348,9090,6,0,P|304:352|248:352,1,70,4|2,1:2|0:0,0:0:0:0:
176,308,9590,1,8,0:0:0:0:
176,308,9840,1,2,0:0:0:0:
304,256,10090,6,0,P|308:216|308:160,1,70,0|2,1:0|1:2,0:0:0:0:
264,88,10590,1,8,0:0:0:0:
264,88,10840,1,2,0:0:0:0:
212,216,11090,6,0,P|172:220|116:220,1,70,0|2,1:0|0:0,0:0:0:0:
44,176,11590,1,8,0:0:0:0:
44,176,11840,1,2,0:0:0:0:
172,124,12090,6,0,P|176:84|176:28,1,70,2|2,1:2|1:2,0:0:0:0:
300,120,12590,2,0,P|298:154|295:189,1,70,10|0,0:0|1:0,0:0:0:0:
212,256,13090,6,0,L|168:260,2,35,0|0|2,1:0|0:0|0:0,0:0:0:0:
216,360,13590,2,0,L|304:368,1,70,8|2,0:0|0:0,0:0:0:0:
404,351,14090,6,0,L|429:387,2,35,0|0|2,1:0|0:0|0:0,0:0:0:0:
492,295,14590,2,0,L|454:214,1,70,8|2,0:0|0:0,0:0:0:0:
391,136,15090,6,0,L|409:95,2,35,0|0|2,1:0|0:0|0:0,0:0:0:0:
299,88,15590,2,0,L|248:160,1,70,8|2,0:0|0:0,0:0:0:0:
212,256,16090,5,2,1:2:0:0:
80,253,16340,1,8,1:0:0:0:
80,253,16465,1,0,0:0:0:0:
80,253,16590,1,10,0:0:0:0:
148,140,16840,1,4,1:2:0:0:
148,140,17090,6,0,P|148:104|156:68,1,70,4|2,1:2|0:0,0:0:0:0:
248,16,17590,2,0,L|356:40,1,105,8|0,0:0|3:0,0:0:0:0:
380,56,18090,2,0,P|384:96|380:128,1,70,0|2,1:0|1:2,0:0:0:0:
376,232,18590,2,0,P|372:272|376:304,1,70,8|2,0:0|0:0,0:0:0:0:
476,268,19090,5,0,1:0:0:0:
508,180,19340,1,2,0:0:0:0:
508,88,19590,2,0,P|480:60|452:44,1,70,8|2,0:0|0:0,0:0:0:0:
420,44,19965,1,0,3:0:0:0:
392,64,20090,2,0,P|376:100|364:140,1,70,2|2,1:2|1:2,0:0:0:0:
312,220,20590,2,0,P|328:256|340:296,1,70,10|0,0:0|1:0,0:0:0:0:
288,376,21090,6,0,P|236:376|204:372,1,70,0|2,1:0|0:0,0:0:0:0:
124,324,21590,2,0,P|116:272|132:216,1,105,8|0,0:0|3:0,0:0:0:0:
148,192,22090,2,0,L|216:224,1,70,0|2,1:0|1:2,0:0:0:0:
316,228,22590,1,8,0:0:0:0:
257,316,22840,1,2,0:0:0:0:
316,228,23090,6,0,P|328:192|328:156,1,70,0|2,1:0|0:0,0:0:0:0:
312,56,23590,1,8,0:0:0:0:
216,12,23840,1,2,0:0:0:0:
216,12,23965,1,0,3:0:0:0:
216,12,24090,2,0,P|179:14|144:8,1,70,2|8,1:2|1:0,0:0:0:0:
60,91,24590,2,0,P|39:59|27:26,1,70,10|2,0:0|1:2,0:0:0:0:
172,116,25090,6,0,L|164:188,1,70,0|2,1:0|0:2,0:0:0:0:
80,248,25590,2,0,L|88:320,1,70,8|2,0:0|0:2,0:0:0:0:
100,350,25965,1,0,3:0:0:0:
124,376,26090,6,0,P|196:372|256:308,2,140,0|10|0,1:0|0:0|1:0,0:0:0:0:
80,296,27340,1,2,0:0:0:0:
176,252,27590,1,8,0:0:0:0:
132,172,27840,1,2,0:0:0:0:
184,80,28090,2,0,P|220:80|252:96,1,70,2|2,1:2|1:2,0:0:0:0:
356,112,28590,2,0,P|374:143|376:178,1,70,10|0,0:0|1:0,0:0:0:0:
316,264,29090,6,0,L|244:272,1,70,0|2,1:0|0:0,0:0:0:0:
191,178,29590,2,0,L|296:167,1,105,8|0,0:0|3:0,0:0:0:0:
320,140,30090,2,0,P|388:112|448:144,1,140,2|8,1:2|0:0,0:0:0:0:
443,139,31090,6,0,P|432:172|432:208,1,70,0|2,1:0|0:0,0:0:0:0:
500,288,31590,2,0,P|499:322|488:355,1,70,8|2,0:0|0:0,0:0:0:0:
395,306,32090,1,0,1:0:0:0:
280,360,32340,1,8,1:0:0:0:
180,284,32590,1,8,0:0:0:0:
180,284,32715,1,8,0:1:0:0:
180,284,32840,1,8,1:0:0:0:
295,230,33090,6,0,L|372:228,1,70,4|2,0:0|0:0,0:0:0:0:
468,172,33590,1,8,0:0:0:0:
476,80,33840,1,2,0:0:0:0:
384,4,34090,2,0,L|307:6,1,70,0|2,1:0|1:2,0:0:0:0:
212,64,34590,1,8,0:0:0:0:
204,156,34840,1,2,0:0:0:0:
200,248,35090,6,0,P|196:288|184:320,1,70,0|2,1:0|0:0,0:0:0:0:
92,260,35590,2,0,P|80:226|78:192,1,70,8|2,0:0|0:0,0:0:0:0:
84,156,35965,1,0,3:0:0:0:
104,128,36090,2,0,P|144:136|176:148,1,70,2|2,1:2|1:2,0:0:0:0:
256,212,36590,2,0,P|296:218|330:217,1,70,10|0,0:0|1:0,0:0:0:0:
416,164,37090,5,0,1:0:0:0:
480,232,37340,1,2,0:0:0:0:
472,324,37590,2,0,P|424:356|368:356,1,105,8|0,0:0|3:0,0:0:0:0:
352,336,38090,2,0,L|276:340,1,70,0|2,1:0|1:2,0:0:0:0:
208,264,38590,2,0,L|176:326,1,70,8|2,0:0|0:0,0:0:0:0:
312,240,39090,6,0,L|273:181,1,70,0|2,1:0|0:0,0:0:0:0:
224,88,39590,1,8,0:0:0:0:
296,12,39840,1,2,0:0:0:0:
296,12,39965,1,0,3:0:0:0:
296,12,40090,2,0,P|340:4|368:12,1,70,2|8,1:2|1:0,0:0:0:0:
224,88,40590,2,0,P|189:85|158:68,1,70,8|2,0:0|1:2,0:0:0:0:
76,8,41090,5,0,1:0:0:0:
24,96,41340,1,2,0:0:0:0:
24,200,41590,2,0,P|40:232|66:257,1,70,8|2,0:0|0:0,0:0:0:0:
97,268,41965,1,0,3:0:0:0:
132,260,42090,6,0,P|195:234|260:260,2,140,0|8|0,1:0|0:0|1:0,0:0:0:0:
196,328,43340,1,2,0:0:0:0:
304,328,43590,1,8,0:0:0:0:
368,260,43840,1,2,0:0:0:0:
396,172,44090,2,0,P|436:196|452:220,1,70,2|2,1:2|1:2,0:0:0:0:
440,318,44590,2,0,P|402:346|374:351,1,70,10|0,0:0|1:0,0:0:0:0:
280,320,45090,6,0,L|200:324,1,70,0|2,1:0|0:0,0:0:0:0:
140,248,45590,2,0,P|148:196|136:140,1,105,8|0,0:0|3:0,0:0:0:0:
108,128,46090,2,0,P|56:220|68:276,1,140,2|8,1:2|0:0,0:0:0:0:
58,250,47090,6,0,L|132:256,1,70,0|2,1:0|0:0,0:0:0:0:
224,208,47590,2,0,L|297:213,1,70,8|2,0:0|0:0,0:0:0:0:
384,272,48090,1,0,1:0:0:0:
268,328,48340,1,8,1:0:0:0:
224,208,48590,1,8,0:0:0:0:
224,208,48715,1,8,0:1:0:0:
224,208,48840,1,8,1:0:0:0:
305,257,49090,5,4,1:2:0:0:
168,376,49590,1,8,0:0:0:0:
76,328,49840,2,0,P|64:308|60:292,1,35,2|0,0:0|3:0,0:0:0:0:
56,260,50090,2,0,L|60:184,1,70,0|2,1:0|1:2,0:0:0:0:
168,232,50590,2,0,L|172:156,1,70,8|2,0:0|0:0,0:0:0:0:
152,48,51090,5,0,1:0:0:0:
76,120,51340,1,2,0:0:0:0:
171,162,51590,2,0,P|216:164|248:160,1,70,8|2,0:0|0:0,0:0:0:0:
272,144,51965,1,0,3:0:0:0:
304,132,52090,2,0,L|392:136,1,70,2|2,1:2|1:2,0:0:0:0:
464,188,52590,2,0,L|452:224,3,35,10|2|2|2,0:0|0:0|1:2|0:0,0:0:0:0:
440,252,53090,5,0,1:0:0:0:
256,248,53590,1,8,0:0:0:0:
288,348,53840,2,0,L|328:360,1,35,2|0,0:0|3:0,0:0:0:0:
356,368,54090,2,0,P|391:368|424:352,1,70,0|2,1:0|1:2,0:0:0:0:
391,211,54590,2,0,P|374:241|371:276,1,70,8|2,0:0|0:0,0:0:0:0:
462,269,55090,6,0,P|479:238|482:204,1,70,0|2,1:0|0:0,0:0:0:0:
492,108,55590,1,8,0:0:0:0:
420,44,55840,1,2,0:0:0:0:
420,44,55965,1,0,3:0:0:0:
420,44,56090,2,0,L|340:40,1,70,2|8,1:2|1:0,0:0:0:0:
226,81,56590,2,0,L|186:83,2,35,8|8|8,0:0|0:1|0:1,0:0:0:0:
324,168,57090,1,4,1:2:0:0:
252,292,65090,6,0,L|324:288,1,70,4|2,1:2|0:0,0:0:0:0:
364,192,65590,2,0,L|433:195,1,70,8|2,0:0|0:0,0:0:0:0:
464,180,65965,1,0,3:0:0:0:
492,160,66090,2,0,P|504:116|504:88,1,70,0|2,1:0|1:2,0:0:0:0:
448,4,66590,2,0,P|403:15|379:29,1,70,8|2,0:0|0:0,0:0:0:0:
334,120,67090,5,0,1:0:0:0:
324,212,67340,1,2,0:0:0:0:
260,280,67590,2,0,P|224:280|152:264,1,105,8|0,0:0|3:0,0:0:0:0:
124,276,68090,2,0,P|108:328|108:352,1,70,2|2,1:2|1:2,0:0:0:0:
40,196,68590,2,0,P|36:230|23:263,1,70,10|0,0:0|1:0,0:0:0:0:
144,176,69090,6,0,L|224:180,1,70,0|2,1:0|0:0,0:0:0:0:
312,208,69590,1,8,0:0:0:0:
408,176,69840,1,2,0:0:0:0:
408,176,69965,1,0,3:0:0:0:
408,176,70090,2,0,P|424:136|424:104,1,70,0|2,1:0|1:2,0:0:0:0:
336,52,70590,2,0,P|304:81|291:110,1,70,8|2,0:0|0:0,0:0:0:0:
312,208,71090,5,0,1:0:0:0:
324,312,71340,1,2,0:0:0:0:
228,271,71590,2,0,P|168:272|120:276,1,105,8|0,0:0|3:0,0:0:0:0:
100,252,72090,2,0,L|64:188,1,70,2|8,1:2|1:0,0:0:0:0:
168,160,72590,2,0,L|168:86,1,70,10|2,0:0|1:2,0:0:0:0:
244,12,73090,5,0,1:0:0:0:
340,12,73340,1,2,0:0:0:0:
424,56,73590,2,0,P|444:92|448:120,1,70,8|2,0:0|0:0,0:0:0:0:
448,156,73965,1,0,3:0:0:0:
439,190,74090,6,0,P|400:246|330:256,2,140,0|8|0,1:0|0:0|1:0,0:0:0:0:
431,98,75340,1,2,0:0:0:0:
355,174,75590,1,8,0:0:0:0:
302,98,75840,1,2,0:0:0:0:
215,66,76090,2,0,P|175:73|147:94,1,70,2|2,1:2|1:2,0:0:0:0:
99,178,76590,2,0,P|106:218|127:246,1,70,10|0,0:0|1:0,0:0:0:0:
208,296,77090,6,0,L|284:300,1,70,0|2,1:0|0:0,0:0:0:0:
380,292,77590,1,8,0:0:0:0:
444,212,77840,1,2,0:0:0:0:
444,212,77965,1,0,3:0:0:0:
444,212,78090,2,0,P|481:281|464:352,1,140,2|8,1:2|0:0,0:0:0:0:
471,339,79090,6,0,P|432:344|400:344,1,70,0|2,1:0|0:0,0:0:0:0:
328,276,79590,2,0,P|289:271|257:271,1,70,8|2,0:0|0:0,0:0:0:0:
168,320,80090,1,0,1:0:0:0:
196,188,80340,1,8,1:0:0:0:
68,230,80590,1,8,0:0:0:0:
68,230,80715,1,8,0:1:0:0:
68,230,80840,1,8,1:0:0:0:
100,329,81090,6,0,P|134:331|167:319,1,70,4|2,0:0|0:0,0:0:0:0:
258,270,81590,2,0,P|250:236|256:202,1,70,8|2,0:0|0:0,0:0:0:0:
260,168,81965,1,0,3:0:0:0:
272,136,82090,2,0,L|344:124,1,70,0|2,1:0|1:2,0:0:0:0:
344,232,82590,2,0,L|356:304,1,70,8|2,0:0|0:0,0:0:0:0:
444,360,83090,5,0,1:0:0:0:
504,284,83340,1,2,0:0:0:0:
512,188,83590,2,0,P|494:134|451:101,1,105,8|0,0:0|3:0,0:0:0:0:
424,96,84090,2,0,P|384:120|368:156,1,70,2|2,1:2|1:2,0:0:0:0:
416,236,84590,2,0,P|370:247|333:233,1,70,10|0,0:0|1:0,0:0:0:0:
244,232,85090,6,0,L|172:240,1,70,0|2,1:0|0:0,0:0:0:0:
72,256,85590,1,8,0:0:0:0:
64,152,85840,1,2,0:0:0:0:
64,152,85965,1,0,3:0:0:0:
64,152,86090,2,0,P|72:112|72:76,1,70,0|2,1:0|1:2,0:0:0:0:
168,36,86590,2,0,P|175:70|176:105,1,70,8|2,0:0|0:0,0:0:0:0:
156,208,87090,5,0,1:0:0:0:
112,292,87340,1,2,0:0:0:0:
164,372,87590,2,0,P|220:380|268:364,1,105,8|0,0:0|3:0,0:0:0:0:
284,336,88090,2,0,P|304:308|336:284,1,70,2|8,1:2|1:0,0:0:0:0:
268,196,88590,2,0,P|299:181|339:176,1,70,8|2,0:0|1:2,0:0:0:0:
436,208,89090,5,0,1:0:0:0:
500,136,89340,1,2,0:0:0:0:
508,40,89590,2,0,P|469:23|434:24,1,70,8|2,0:0|0:0,0:0:0:0:
412,42,89965,1,0,3:0:0:0:
384,64,90090,6,0,P|308:80|256:40,2,140,0|8|0,1:0|0:0|1:0,0:0:0:0:
472,92,91340,1,2,0:0:0:0:
440,196,91590,1,8,0:0:0:0:
352,168,91840,1,2,0:0:0:0:
264,140,92090,2,0,P|225:154|201:179,1,70,2|2,1:2|1:2,0:0:0:0:
148,260,92590,2,0,P|141:300|151:333,1,70,10|0,0:0|1:0,0:0:0:0:
36,296,93090,6,0,P|43:261|36:227,1,70,0|2,1:0|0:0,0:0:0:0:
12,128,93590,1,8,0:0:0:0:
56,36,93840,1,2,0:0:0:0:
56,36,93965,1,0,3:0:0:0:
56,36,94090,2,0,P|132:44|188:80,1,140,2|8,1:2|0:0,0:0:0:0:
184,77,95090,6,0,L|256:64,1,70,0|2,1:0|0:0,0:0:0:0:
252,172,95590,2,0,L|183:184,1,70,8|2,0:0|0:0,0:0:0:0:
144,284,96090,1,0,1:0:0:0:
252,348,96340,1,8,1:0:0:0:
360,284,96590,1,8,0:0:0:0:
360,284,96715,1,8,0:1:0:0:
360,284,96840,1,8,1:0:0:0:
340,372,97090,5,4,1:2:0:0:
340,196,97590,2,0,P|364:180|392:172,1,56,8|0,0:0|0:0,0:0:0:0:
472,176,98090,1,2,0:0:0:0:
304,128,98590,2,0,P|278:115|257:94,1,56,8|0,0:0|0:0,0:0:0:0:
220,23,99090,1,2,0:0:0:0:
263,193,99590,6,0,P|264:221|257:250,1,56,8|0,0:0|0:0,0:0:0:0:
214,318,100090,2,0,P|185:319|156:312,1,56,2|0,0:0|0:0,0:0:0:0:
84,276,100590,2,0,L|56:284,3,28,10|2|2|2,0:0|0:0|0:0|0:0,0:0:0:0:
40,308,101090,1,2,0:0:0:0:
148,176,101590,6,0,P|160:148|164:116,1,56,8|0,0:0|0:0,0:0:0:0:
148,40,102090,1,2,0:0:0:0:
256,168,102590,2,0,L|256:228,1,56,8|0,0:0|0:0,0:0:0:0:
256,308,103090,1,2,0:0:0:0:
364,176,103590,6,0,P|352:148|348:116,1,56,8|0,0:0|0:0,0:0:0:0:
364,40,104090,1,2,0:0:0:0:
452,32,104340,1,8,0:0:0:0:
452,32,104590,2,0,P|468:63|472:100,1,70,8|0,0:0|0:0,0:0:0:0:
456,200,105090,5,0,1:0:0:0:
364,176,105340,1,2,0:0:0:0:
328,264,105590,1,8,0:0:0:0:
236,240,105840,1,2,0:0:0:0:
184,160,106090,2,0,P|183:125|194:91,1,70,0|2,1:0|1:2,0:0:0:0:
128,8,106590,2,0,P|104:33|90:65,1,70,8|2,0:0|0:0,0:0:0:0:
84,176,107090,5,0,1:0:0:0:
120,264,107340,1,2,0:0:0:0:
188,196,107590,1,8,0:0:0:0:
152,108,107840,1,2,0:0:0:0:
84,176,108090,2,0,P|54:196|28:236,1,70,2|2,1:2|1:2,0:0:0:0:
120,264,108590,2,0,P|131:296|129:345,1,70,10|0,0:0|1:0,0:0:0:0:
36,316,109090,5,0,1:0:0:0:
33,222,109340,1,2,0:0:0:0:
56,132,109590,2,0,P|82:96|101:79,1,70,8|2,0:0|0:0,0:0:0:0:
192,88,110090,1,0,1:0:0:0:
238,167,110340,1,2,1:2:0:0:
328,144,110590,2,0,P|363:117|380:98,1,70,8|2,0:0|0:0,0:0:0:0:
376,4,111090,5,0,1:0:0:0:
296,56,111340,1,2,0:0:0:0:
216,8,111590,1,8,0:0:0:0:
136,60,111840,1,2,0:0:0:0:
112,152,112090,2,0,L|108:224,1,70,0|8,1:0|1:0,0:0:0:0:
188,292,112590,2,0,L|186:328,2,35,8|8|8,0:0|0:1|1:0,0:0:0:0:
268,220,113090,6,0,L|344:216,1,70,2|2,1:2|0:0,0:0:0:0:
436,188,113590,1,8,0:0:0:0:
447,200,113715,1,2,0:0:0:0:
457,215,113840,1,2,0:0:0:0:
463,231,113965,1,0,3:0:0:0:
468,248,114090,2,0,P|464:304|448:340,1,70,2|2,1:2|1:2,0:0:0:0:
372,368,114590,2,0,L|302:371,1,70,8|2,0:0|0:0,0:0:0:0:
220,324,115090,5,0,1:0:0:0:
228,230,115340,1,2,0:0:0:0:
284,154,115590,1,8,0:0:0:0:
292,60,115840,1,2,0:0:0:0:
212,12,116090,2,0,P|170:22|144:40,1,70,2|2,1:2|1:2,0:0:0:0:
68,104,116590,2,0,P|55:145|58:176,1,70,10|0,0:0|1:0,0:0:0:0:
84,264,117090,5,0,1:0:0:0:
172,228,117340,1,2,0:0:0:0:
159,322,117590,2,0,L|160:360,2,35,8|2|2,0:0|0:0|0:0,0:0:0:0:
247,286,118090,2,0,L|280:304,2,35,0|2|2,1:0|0:0|1:2,0:0:0:0:
260,192,118590,2,0,L|293:210,2,35,8|2|2,0:0|0:0|0:0,0:0:0:0:
172,228,119090,5,0,1:0:0:0:
185,134,119340,1,2,0:0:0:0:
97,170,119590,1,8,0:0:0:0:
110,76,119840,1,2,0:0:0:0:
198,40,120090,2,0,L|231:22,2,35,0|2|10,1:0|0:0|1:2,0:0:0:0:
273,98,120590,1,8,0:1:0:0:
287,87,120715,1,2,0:0:0:0:
298,74,120840,1,2,1:2:0:0:
307,59,120965,1,2,0:0:0:0:
312,44,121090,6,0,L|392:44,1,70,2|2,1:2|0:0,0:0:0:0:
484,72,121590,2,0,L|480:144,1,70,8|2,0:0|0:0,0:0:0:0:
384,192,122090,2,0,L|387:122,1,70,0|2,1:0|1:2,0:0:0:0:
472,248,122590,2,0,L|468:320,1,70,8|2,0:0|0:0,0:0:0:0:
372,368,123091,6,0,L|375:298,1,70,0|2,1:0|0:0,0:0:0:0:
384,192,123590,1,8,0:0:0:0:
316,112,123840,1,2,0:0:0:0:
316,112,123965,1,0,3:0:0:0:
316,112,124090,2,0,P|280:125|256:148,1,70,2|0,1:2|1:2,0:0:0:0:
260,252,124590,2,0,P|234:275|201:286,1,70,10|0,0:0|1:0,0:0:0:0:
108,264,125090,5,0,1:0:0:0:
60,348,125340,1,2,0:0:0:0:
108,264,125590,2,0,P|124:204|100:152,1,105,8|0,0:0|3:0,0:0:0:0:
92,136,126090,2,0,L|28:100,1,70,0|2,1:0|1:2,0:0:0:0:
112,28,126590,2,0,L|173:62,1,70,8|2,0:0|0:0,0:0:0:0:
228,152,127090,5,0,1:0:0:0:
208,256,127340,1,2,0:0:0:0:
264,344,127590,2,0,P|296:352|340:352,1,70,8|2,0:0|0:0,0:0:0:0:
368,344,127965,1,0,3:0:0:0:
396,320,128090,2,0,L|452:272,1,70,2|8,1:2|1:0,0:0:0:0:
320,232,128590,2,0,L|373:186,1,70,10|2,0:2|1:2,0:0:0:0:
412,92,129090,5,0,1:0:0:0:
356,16,129340,1,2,0:0:0:0:
260,16,129590,2,0,L|184:36,1,70,8|2,0:0|0:0,0:0:0:0:
160,48,129965,1,0,3:0:0:0:
136,72,130090,6,0,P|136:152|192:196,2,140,0|8|0,1:0|0:0|1:0,0:0:0:0:
220,108,131340,1,2,0:0:0:0:
300,40,131590,1,8,0:0:0:0:
384,76,131840,1,2,0:0:0:0:
432,156,132090,2,0,P|434:193|428:232,1,70,2|2,1:2|1:2,0:0:0:0:
352,292,132590,2,0,P|350:329|356:368,1,70,10|0,0:0|1:0,0:0:0:0:
344,188,133090,6,0,L|264:192,1,70,0|2,1:0|0:0,0:0:0:0:
220,276,133590,2,0,L|99:270,1,105,8|0,0:0|3:0,0:0:0:0:
80,280,134090,2,0,P|24:240|16:168,1,140,2|8,1:2|0:0,0:0:0:0:
14,173,135090,6,0,P|48:160|84:160,1,70,0|2,1:0|0:0,0:0:0:0:
172,108,135590,2,0,P|205:122|230:147,1,70,8|2,0:0|0:0,0:0:0:0:
244,248,136090,1,0,1:0:0:0:
232,372,136340,1,8,1:0:0:0:
346,320,136590,1,8,0:0:0:0:
346,320,136715,1,8,0:1:0:0:
346,320,136840,1,8,1:0:0:0:
332,232,137090,1,2,0:0:0:0:
332,232,145090,5,4,1:2:0:0:
180,152,145590,2,0,L|108:160,1,70,8|2,0:0|0:0,0:0:0:0:
80,144,145965,1,0,3:0:0:0:
52,124,146090,2,0,P|36:84|40:52,1,70,0|2,1:0|1:2,0:0:0:0:
136,16,146590,2,0,L|208:24,1,70,8|2,0:0|0:0,0:0:0:0:
296,76,147090,6,0,P|296:110|282:142,1,70,0|2,1:0|0:0,0:0:0:0:
224,232,147590,1,8,0:0:0:0:
328,236,147840,2,0,L|367:234,1,35,2|0,0:0|3:0,0:0:0:0:
396,228,148090,2,0,P|432:208|452:184,1,70,2|2,1:2|1:2,0:0:0:0:
464,84,148590,2,0,L|460:44,3,35,10|2|2|2,0:0|0:0|1:2|0:0,0:0:0:0:
464,120,149090,5,0,1:0:0:0:
288,72,149590,2,0,P|256:96|240:124,1,70,8|2,0:0|0:0,0:0:0:0:
236,156,149965,1,0,3:0:0:0:
245,190,150090,2,0,P|245:234|241:270,1,70,0|2,1:0|1:2,0:0:0:0:
188,352,150590,2,0,P|144:352|108:348,1,70,8|2,0:0|0:0,0:0:0:0:
40,300,151090,5,0,1:0:0:0:
112,240,151340,1,2,0:0:0:0:
40,180,151590,1,8,0:0:0:0:
112,120,151840,2,0,L|112:80,1,35,2|0,0:0|3:0,0:0:0:0:
108,48,152090,2,0,P|76:24|36:12,1,70,2|8,1:2|1:0,0:0:0:0:
204,88,152590,2,0,P|221:84|236:76,2,35,8|8|8,0:0|0:1|1:0,0:0:0:0:
120,152,153090,5,0,1:0:0:0:
160,328,153590,1,8,0:0:0:0:
260,308,153840,2,0,L|304:308,1,35,2|0,0:0|3:0,0:0:0:0:
329,306,154090,2,0,P|373:298|397:286,1,70,0|2,1:0|1:2,0:0:0:0:
464,204,154590,2,0,L|456:132,1,70,8|2,0:0|0:0,0:0:0:0:
360,176,155090,5,0,1:0:0:0:
268,128,155340,1,2,0:0:0:0:
184,192,155590,2,0,P|145:188|120:172,1,70,8|2,0:0|0:0,0:0:0:0:
101,143,155965,1,0,3:0:0:0:
100,108,156090,2,0,L|112:40,1,70,2|2,1:2|1:2,0:0:0:0:
32,188,156590,2,0,L|38:222,3,35,10|2|2|2,0:0|0:2|1:2|0:0,0:0:0:0:
36,256,157090,5,0,1:0:0:0:
208,196,157590,1,8,0:0:0:0:
312,184,157840,2,0,P|331:190|348:200,1,35,2|0,0:0|3:0,0:0:0:0:
372,220,158090,2,0,L|376:296,1,70,0|2,1:0|1:2,0:0:0:0:
276,312,158590,2,0,L|272:388,1,70,8|2,0:0|0:0,0:0:0:0:
176,348,159090,5,0,1:0:0:0:
72,348,159340,1,2,0:0:0:0:
124,257,159590,2,0,P|128:217|124:184,1,70,8|2,0:0|0:0,0:0:0:0:
112,156,159965,1,0,3:0:0:0:
88,132,160090,2,0,L|24:100,1,70,2|8,1:2|1:0,0:0:0:0:
152,24,160590,2,0,L|236:32,1,70,10|0,0:0|1:0,0:0:0:0:
320,64,161090,6,0,P|340:132|312:200,1,140,2|8,1:2|0:0,0:0:0:0:
232,252,161840,1,2,0:0:0:0:
136,212,162090,6,0,P|96:216|56:236,1,70,0|2,1:0|1:2,0:0:0:0:
124,316,162590,1,8,0:0:0:0:
124,316,162840,1,2,0:0:0:0:
232,252,163090,6,0,P|272:248|312:228,1,70,0|2,1:0|0:0,0:0:0:0:
244,148,163590,1,8,0:0:0:0:
244,148,163840,1,2,0:0:0:0:
148,108,164090,6,0,P|108:112|68:132,1,70,2|2,1:2|1:2,0:0:0:0:
232,44,164590,2,0,P|272:48|312:68,1,70,10|0,0:0|1:0,0:0:0:0:
376,136,165090,6,0,L|372:170,2,35,0|0|2,1:0|0:0|0:0,0:0:0:0:
396,272,165590,2,0,L|388:352,1,70,8|2,0:0|0:0,0:0:0:0:
256,304,166090,6,0,L|256:340,2,35,0|0|2,1:0|0:0|1:2,0:0:0:0:
256,192,166590,2,0,L|256:120,1,70,8|2,0:0|0:0,0:0:0:0:
136,136,167090,6,0,L|139:170,2,35,0|0|2,1:0|0:0|0:0,0:0:0:0:
116,272,167590,2,0,L|124:352,1,70,8|2,0:0|0:0,0:0:0:0:
256,304,168090,5,2,1:2:0:0:
256,192,168340,1,8,1:0:0:0:
256,192,168465,1,0,0:0:0:0:
256,192,168590,1,10,0:0:0:0:
256,80,168840,2,0,L|256:44,1,35,2|2,1:2|0:0,0:0:0:0:
256,304,170965,2,0,L|256:316,3,11.6666666666667,2|2|2|4,0:0|0:0|0:0|0:0,0:0:0:0:
