osu file format v14

[General]
AudioFilename: Ailala.mp3
AudioLeadIn: 2000
PreviewTime: 48965
Countdown: 0
SampleSet: Soft
StackLeniency: 0.7
Mode: 0
LetterboxInBreaks: 0
WidescreenStoryboard: 0

[Editor]
DistanceSpacing: 1.2
BeatDivisor: 4
GridSize: 4
TimelineZoom: 1.5

[Metadata]
Title:Ai La La
TitleUnicode:爱啦啦
Artist:Sharlo
ArtistUnicode:Sharlo
Creator:Karen
Version:Easy
Source:
Tags:海楠 Hai Nan 夏萝 Zero__wind Xinely liangv587
BeatmapID:841464
BeatmapSetID:378314

[Difficulty]
HPDrainRate:2
CircleSize:3
OverallDifficulty:2
ApproachRate:2
SliderMultiplier:0.9
SliderTickRate:1

[Events]
//Background and Video events
0,0,"bg.jpg",0,0
//Break Periods
2,57290,63530
2,137290,143530
//Storyboard Layer 0 (Background)
//Storyboard Layer 1 (Fail)
//Storyboard Layer 2 (Pass)
//Storyboard Layer 3 (Foreground)
//Storyboard Sound Samples

[TimingPoints]
1090,500,4,2,0,65,1,0
2090,-100,4,2,1,40,0,0
2465,-100,4,2,0,65,0,0
3090,-100,4,2,1,40,0,0
3215,-100,4,2,0,65,0,0
4090,-100,4,2,1,40,0,0
4465,-100,4,2,0,65,0,0
5090,-100,4,2,1,40,0,0
5215,-100,4,2,0,65,0,0
6090,-100,4,2,1,40,0,0
6465,-100,4,2,0,65,0,0
7090,-100,4,2,1,40,0,0
7215,-100,4,2,0,65,0,0
8090,-100,4,2,1,40,0,0
8215,-100,4,2,0,65,0,0
10090,-100,4,2,1,40,0,0
10465,-100,4,2,0,65,0,0
11090,-100,4,2,1,40,0,0
11215,-100,4,2,0,65,0,0
12090,-100,4,2,1,40,0,0
13215,-100,4,2,0,65,0,0
14090,-100,4,2,1,40,0,0
14465,-100,4,2,0,65,0,0
15090,-100,4,2,1,40,0,0
15215,-100,4,2,0,65,0,0
16090,-100,4,2,1,40,0,0
16215,-100,4,2,0,65,0,0
17090,-100,4,2,0,60,0,0
18090,-100,4,2,1,40,0,0
18465,-100,4,2,0,60,0,0
19090,-100,4,2,1,40,0,0
19215,-100,4,2,0,60,0,0
20090,-100,4,2,1,40,0,0
21215,-100,4,2,0,60,0,0
22090,-100,4,2,1,40,0,0
22465,-100,4,2,0,60,0,0
23090,-100,4,2,1,40,0,0
23215,-100,4,2,0,60,0,0
24090,-100,4,2,1,40,0,0
25215,-100,4,2,0,60,0,0
26090,-100,4,2,1,40,0,0
26465,-100,4,2,0,60,0,0
27090,-100,4,2,1,40,0,0
27215,-100,4,2,0,60,0,0
28090,-100,4,2,1,40,0,0
29215,-100,4,2,0,60,0,0
30090,-100,4,2,1,40,0,0
30465,-100,4,2,0,60,0,0
31090,-100,4,2,1,40,0,0
31215,-100,4,2,0,60,0,0
32090,-100,4,2,1,40,0,0
32215,-100,4,2,0,60,0,0
33090,-100,4,2,0,60,0,0
34090,-100,4,2,1,40,0,0
34465,-100,4,2,0,60,0,0
35090,-100,4,2,1,40,0,0
35215,-100,4,2,0,60,0,0
36090,-100,4,2,1,40,0,0
37215,-100,4,2,0,60,0,0
38090,-100,4,2,1,40,0,0
38465,-100,4,2,0,60,0,0
39090,-100,4,2,1,40,0,0
39215,-100,4,2,0,60,0,0
40090,-100,4,2,1,40,0,0
41215,-100,4,2,0,60,0,0
42090,-100,4,2,1,40,0,0
42465,-100,4,2,0,60,0,0
43090,-100,4,2,1,40,0,0
43215,-100,4,2,0,60,0,0
44090,-100,4,2,1,40,0,0
45215,-100,4,2,0,60,0,0
46090,-100,4,2,1,40,0,0
46465,-100,4,2,0,60,0,0
47090,-100,4,2,1,40,0,0
47215,-100,4,2,0,60,0,0
48090,-100,4,2,1,40,0,0
48215,-100,4,2,0,60,0,0
49090,-100,4,2,0,70,0,1
57090,-100,4,2,0,65,0,0
65090,-100,4,2,0,60,0,0
66090,-100,4,2,1,40,0,0
66465,-100,4,2,0,60,0,0
67090,-100,4,2,1,40,0,0
67215,-100,4,2,0,60,0,0
68090,-100,4,2,1,40,0,0
69215,-100,4,2,0,60,0,0
70090,-100,4,2,1,40,0,0
70465,-100,4,2,0,60,0,0
71090,-100,4,2,1,40,0,0
71215,-100,4,2,0,60,0,0
72090,-100,4,2,1,40,0,0
73215,-100,4,2,0,60,0,0
74090,-100,4,2,1,40,0,0
74465,-100,4,2,0,60,0,0
75090,-100,4,2,1,40,0,0
75215,-100,4,2,0,60,0,0
76090,-100,4,2,1,40,0,0
77215,-100,4,2,0,60,0,0
78090,-100,4,2,1,40,0,0
78465,-100,4,2,0,60,0,0
79090,-100,4,2,1,40,0,0
79215,-100,4,2,0,60,0,0
80090,-100,4,2,1,40,0,0
80215,-100,4,2,0,60,0,0
81090,-100,4,2,0,60,0,0
82090,-100,4,2,1,40,0,0
82465,-100,4,2,0,60,0,0
83090,-100,4,2,1,40,0,0
83215,-100,4,2,0,60,0,0
84090,-100,4,2,1,40,0,0
85215,-100,4,2,0,60,0,0
86090,-100,4,2,1,40,0,0
86465,-100,4,2,0,60,0,0
87090,-100,4,2,1,40,0,0
87215,-100,4,2,0,60,0,0
88090,-100,4,2,1,40,0,0
89215,-100,4,2,0,60,0,0
90090,-100,4,2,1,40,0,0
90465,-100,4,2,0,60,0,0
91090,-100,4,2,1,40,0,0
91215,-100,4,2,0,60,0,0
92090,-100,4,2,1,40,0,0
93215,-100,4,2,0,60,0,0
94090,-100,4,2,1,40,0,0
94465,-100,4,2,0,60,0,0
95090,-100,4,2,1,40,0,0
95215,-100,4,2,0,60,0,0
96090,-100,4,2,1,40,0,0
96215,-100,4,2,0,60,0,0
97090,-100,4,2,0,40,0,0
105090,-100,4,2,0,65,0,0
106090,-100,4,2,1,40,0,0
106465,-100,4,2,0,65,0,0
107090,-100,4,2,1,40,0,0
107215,-100,4,2,0,65,0,0
108090,-100,4,2,1,40,0,0
109215,-100,4,2,0,65,0,0
110090,-100,4,2,1,40,0,0
110465,-100,4,2,0,65,0,0
111090,-100,4,2,1,40,0,0
111215,-100,4,2,0,65,0,0
112090,-100,4,2,1,40,0,0
112215,-100,4,2,0,65,0,0
113090,-100,4,2,1,40,0,0
113215,-100,4,2,0,65,0,0
114090,-100,4,2,1,40,0,0
114215,-100,4,2,0,65,0,0
115090,-100,4,2,1,40,0,0
115215,-100,4,2,0,65,0,0
116090,-100,4,2,1,40,0,0
116465,-100,4,2,0,65,0,0
117090,-100,4,2,1,40,0,0
117215,-100,4,2,0,65,0,0
118090,-100,4,2,1,40,0,0
118465,-100,4,2,0,65,0,0
119090,-100,4,2,1,40,0,0
119215,-100,4,2,0,65,0,0
120090,-100,4,2,1,40,0,0
120465,-100,4,2,0,65,0,0
121090,-100,4,2,0,60,0,0
122090,-100,4,2,1,40,0,0
122465,-100,4,2,0,60,0,0
123090,-100,4,2,1,40,0,0
123215,-100,4,2,0,60,0,0
124090,-100,4,2,1,40,0,0
125215,-100,4,2,0,60,0,0
126090,-100,4,2,1,40,0,0
126465,-100,4,2,0,60,0,0
127090,-100,4,2,1,40,0,0
127215,-100,4,2,0,60,0,0
128090,-100,4,2,1,40,0,0
129215,-100,4,2,0,60,0,0
130090,-100,4,2,1,40,0,0
130465,-100,4,2,0,60,0,0
131090,-100,4,2,1,40,0,0
131215,-100,4,2,0,60,0,0
132090,-100,4,2,1,40,0,0
133215,-100,4,2,0,60,0,0
134090,-100,4,2,1,40,0,0
134465,-100,4,2,0,60,0,0
135090,-100,4,2,1,40,0,0
135215,-100,4,2,0,60,0,0
136090,-100,4,2,1,40,0,0
136215,-100,4,2,0,60,0,0
137090,-100,4,2,0,50,0,0
145090,-100,4,2,0,70,0,1
152590,-100,4,2,0,70,0,0
153090,-100,4,2,0,70,0,1
161090,-100,4,2,0,65,0,0
170965,-100,4,2,0,80,0,0

[Colours]
Combo1 : 255,221,221
Combo2 : 255,255,147
Combo3 : 255,189,123
Combo4 : 255,121,121

[HitObjects]
35,137,1090,6,0,L|135:145,1,90,4|8,0:0|0:0,0:0:0:0:
220,95,2090,2,0,P|232:143|217:202,1,90,8|8,0:0|0:0,0:0:0:0:
155,264,3090,2,0,P|148:314|169:364,2,90,8|8|8,0:0|0:0|0:0,0:0:0:0:
256,300,4590,1,8,0:0:0:0:
358,333,5090,6,0,L|455:333,1,90,8|8,0:0|0:0,0:0:0:0:
475,228,6090,2,0,L|385:228,1,90,8|8,0:0|0:0,0:0:0:0:
302,158,7090,2,0,P|290:108|309:57,2,90,8|8|8,0:0|0:0|0:0,0:0:0:0:
385,228,8590,1,8,0:0:0:0:
300,295,9090,6,0,P|256:287|208:294,1,90,4|8,0:0|0:0,0:0:0:0:
133,367,10090,2,0,P|88:372|44:364,1,90,8|8,0:0|0:0,0:0:0:0:
1,267,11090,2,0,P|-3:217|9:165,1,90,8|8,0:0|0:0,0:0:0:0:
55,82,12090,1,4,0:0:0:0:
138,150,12590,1,4,0:0:0:0:
231,204,13090,6,0,P|246:157|233:103,1,90,8|8,0:0|0:0,0:0:0:0:
191,20,14090,2,0,L|301:18,1,90,8|8,0:0|0:0,0:0:0:0:
387,38,15090,2,0,B|450:38|450:38|484:5,2,90,8|8|8,0:0|0:0|0:0,0:0:0:0:
318,121,16590,1,8,0:0:0:0:
232,186,17090,6,0,P|223:231|242:291,1,90,4|8,0:0|0:0,0:0:0:0:
312,346,18090,2,0,P|355:355|412:340,1,90,8|8,0:0|0:0,0:0:0:0:
444,248,19090,2,0,B|497:276|504:329,2,90,8|8|4,0:0|0:0|0:0,0:0:0:0:
336,241,20590,1,4,0:0:0:0:
229,260,21090,6,0,L|135:259,1,90,8|8,0:0|0:0,0:0:0:0:
51,195,22090,2,0,P|31:247|37:293,1,90,8|8,0:0|0:0,0:0:0:0:
110,356,23090,2,0,L|199:356,1,90,8|8,0:0|0:0,0:0:0:0:
290,297,24090,2,0,B|306:255|306:255|289:204,1,90,4|4,0:0|0:0,0:0:0:0:
220,131,25090,6,0,P|176:120|116:136,2,90,8|8|8,0:0|0:0|0:0,0:0:0:0:
291,212,26590,1,8,0:0:0:0:
374,143,27090,2,0,L|371:36,1,90,8|8,0:0|0:0,0:0:0:0:
479,53,28090,2,0,L|481:142,1,90,4|4,0:0|0:0,0:0:0:0:
431,238,29090,6,0,P|422:283|440:342,2,90,8|8|8,0:0|0:0|0:0,0:0:0:0:
481,142,30590,1,8,0:0:0:0:
382,98,31090,2,0,L|274:98,1,90,8|8,0:0|0:0,0:0:0:0:
205,31,32090,2,0,L|97:31,1,90,8|8,0:0|0:0,0:0:0:0:
26,91,33090,6,0,P|18:136|36:193,1,90,4|8,0:0|0:0,0:0:0:0:
127,221,34090,2,0,P|135:176|117:119,1,90,8|8,0:0|0:0,0:0:0:0:
116,31,35090,2,0,L|206:31,1,90,8|8,0:0|0:0,0:0:0:0:
278,110,36090,1,4,0:0:0:0:
286,217,36590,1,4,0:0:0:0:
242,315,37090,6,0,P|199:330|147:322,2,90,8|8|8,0:0|0:0|0:0,0:0:0:0:
286,217,38590,1,8,0:0:0:0:
381,167,39090,2,0,P|394:212|384:262,1,90,8|8,0:0|0:0,0:0:0:0:
342,352,40090,2,0,L|451:352,2,90,4|4|8,0:0|0:0|0:0,0:0:0:0:
242,315,41590,5,8,0:0:0:0:
141,353,42090,2,0,L|45:353,1,90,8|8,0:0|0:0,0:0:0:0:
14,251,43090,2,0,P|4:211|25:153,1,90,8|8,0:0|0:0,0:0:0:0:
80,77,44090,1,4,0:0:0:0:
180,38,44590,1,4,0:0:0:0:
287,50,45090,6,0,B|298:94|298:94|278:149,1,90,8|8,0:0|0:0,0:0:0:0:
178,165,46090,2,0,L|177:262,1,90,8|8,0:0|0:0,0:0:0:0:
260,323,47090,2,0,P|310:313|354:326,2,90,8|8|8,0:0|0:0|0:0,0:0:0:0:
158,361,48590,1,8,0:0:0:0:
52,338,49090,6,0,L|58:232,1,90,4|8,0:0|0:0,0:0:0:0:
113,156,50090,1,2,0:0:0:0:
219,140,50590,1,8,0:0:0:0:
308,201,51090,2,0,P|356:206|410:195,1,90,2|8,0:0|0:0,0:0:0:0:
439,99,52090,2,0,P|391:94|337:105,1,90,2|8,0:0|0:0,0:0:0:0:
308,201,53090,6,0,P|299:259|313:303,1,90,2|8,0:0|0:0,0:0:0:0:
388,359,54090,1,2,0:0:0:0:
493,337,54590,1,8,0:0:0:0:
496,229,55090,2,0,L|498:136,1,90,2|8,0:0|0:0,0:0:0:0:
451,41,56090,2,0,P|404:30|351:35,1,90,2|8,0:0|0:0,0:0:0:0:
264,77,57090,5,4,0:0:0:0:
294,236,65090,6,0,L|390:231,1,90,4|8,0:0|0:0,0:0:0:0:
481,186,66090,2,0,P|491:234|477:287,1,90,8|8,0:0|0:0,0:0:0:0:
416,358,67090,2,0,L|326:362,1,90,8|8,0:0|0:0,0:0:0:0:
232,308,68090,1,4,0:0:0:0:
138,361,68590,1,4,0:0:0:0:
36,323,69090,6,0,P|30:273|37:225,1,90,8|8,0:0|0:0,0:0:0:0:
119,166,70090,2,0,L|224:164,1,90,8|8,0:0|0:0,0:0:0:0:
189,57,71090,2,0,L|99:58,1,90,8|8,0:0|0:0,0:0:0:0:
17,130,72090,1,4,0:0:0:0:
34,233,72590,1,4,0:0:0:0:
124,291,73090,6,0,P|171:299|226:280,1,90,8|8,0:0|0:0,0:0:0:0:
289,214,74090,2,0,L|393:211,1,90,8|8,0:0|0:0,0:0:0:0:
378,103,75090,2,0,L|288:105,1,90,8|8,0:0|0:0,0:0:0:0:
191,56,76090,1,4,0:0:0:0:
97,110,76590,1,4,0:0:0:0:
171,187,77090,6,0,P|181:235|162:292,1,90,8|8,0:0|0:0,0:0:0:0:
126,372,78090,2,0,L|229:375,1,90,8|8,0:0|0:0,0:0:0:0:
323,367,79090,1,8,0:0:0:0:
403,294,79590,1,8,0:0:0:0:
388,186,80090,2,0,P|342:177|291:192,1,90,8|8,0:0|0:0,0:0:0:0:
315,294,81090,6,0,P|361:303|412:288,1,90,4|8,0:0|0:0,0:0:0:0:
484,223,82090,2,0,L|486:114,1,90,8|8,0:0|0:0,0:0:0:0:
445,32,83090,2,0,P|397:22|344:39,2,90,8|8|4,0:0|0:0|0:0,0:0:0:0:
485,133,84590,1,4,0:0:0:0:
399,199,85090,6,0,L|293:200,1,90,8|8,0:0|0:0,0:0:0:0:
210,155,86090,2,0,L|104:156,1,90,8|8,0:0|0:0,0:0:0:0:
51,239,87090,2,0,P|40:282|54:342,2,90,8|8|4,0:0|0:0|0:0,0:0:0:0:
146,289,88590,1,4,0:0:0:0:
219,210,89090,6,0,P|264:205|308:215,1,90,8|8,0:0|0:0,0:0:0:0:
414,227,90090,2,0,L|413:124,1,90,8|8,0:0|0:0,0:0:0:0:
317,85,91090,2,0,L|210:70,1,90,8|8,0:0|0:0,0:0:0:0:
130,25,92090,1,4,0:0:0:0:
24,47,92590,1,4,0:0:0:0:
80,138,93090,6,0,P|90:185|71:238,1,90,8|8,0:0|0:0,0:0:0:0:
36,324,94090,2,0,L|146:325,1,90,8|8,0:0|0:0,0:0:0:0:
204,250,95090,2,0,P|215:205|201:152,2,90,8|8|8,0:0|0:0|0:0,0:0:0:0:
125,324,96590,1,8,0:0:0:0:
228,353,97090,6,0,L|422:351,1,180,4|2,0:0|0:0,0:0:0:0:
478,269,98590,1,8,0:0:0:0:
427,173,99090,2,0,P|415:127|426:80,2,90,2|8|2,0:0|0:0|0:0,0:0:0:0:
478,269,100590,1,8,0:0:0:0:
370,267,101090,6,0,B|285:236|285:236|229:307,1,180,2|2,0:0|0:0,0:0:0:0:
130,343,102590,1,8,0:0:0:0:
75,249,103090,2,0,P|69:202|87:154,1,90,2|8,0:0|0:0,0:0:0:0:
144,73,104090,2,0,P|183:48|235:37,1,90,2|8,0:0|0:0,0:0:0:0:
313,98,105090,6,0,P|365:104|413:97,1,90,4|8,0:0|0:0,0:0:0:0:
487,33,106090,2,0,P|505:79|505:130,1,90,8|8,0:0|0:0,0:0:0:0:
430,196,107090,2,0,P|424:251|435:295,1,90,8|8,0:0|0:0,0:0:0:0:
494,371,108090,1,4,0:0:0:0:
386,376,108590,1,4,0:0:0:0:
308,300,109090,6,0,L|207:296,1,90,8|8,0:0|0:0,0:0:0:0:
141,372,110090,2,0,L|40:368,1,90,8|8,0:0|0:0,0:0:0:0:
3,271,111090,2,0,P|-7:229|3:174,2,90,8|8|8,0:0|0:0|0:0,0:0:0:0:
99,222,112590,1,8,0:0:0:0:
154,129,113090,6,0,P|195:119|258:140,2,90,8|10|10,0:0|0:0|0:0,0:0:0:0:
99,222,114590,1,8,0:0:0:0:
196,268,115090,2,0,L|307:268,1,90,8|8,0:0|0:0,0:0:0:0:
368,197,116090,2,0,L|479:197,1,90,8|8,0:0|0:0,0:0:0:0:
509,101,117090,5,10,0:0:0:0:
456,6,117590,1,10,0:0:0:0:
366,67,118090,2,0,P|321:76|268:62,1,90,10|10,0:0|0:0,0:0:0:0:
182,17,119090,1,10,0:0:0:0:
113,100,119590,1,8,0:0:0:0:
185,179,120090,2,0,L|191:277,1,90,10|10,0:0|0:0,0:0:0:0:
104,334,121090,6,0,P|58:341|2:326,1,90,4|8,0:0|0:0,0:0:0:0:
7,224,122090,2,0,P|60:211|102:224,1,90,8|8,0:0|0:0,0:0:0:0:
190,268,123090,2,0,L|299:269,1,90,8|8,0:0|0:0,0:0:0:0:
379,226,124090,1,4,0:0:0:0:
476,273,124590,1,4,0:0:0:0:
508,170,125090,6,0,P|516:136|505:69,1,90,8|8,0:0|0:0,0:0:0:0:
413,33,126090,2,0,L|317:32,1,90,8|8,0:0|0:0,0:0:0:0:
226,81,127090,2,0,P|218:115|229:182,1,90,8|8,0:0|0:0,0:0:0:0:
275,264,128090,1,4,0:0:0:0:
249,368,128590,1,6,0:0:0:0:
144,342,129090,6,0,P|100:334|51:349,2,90,8|8|8,0:0|0:0|0:0,0:0:0:0:
249,368,130590,1,8,0:0:0:0:
334,302,131090,2,0,L|334:202,1,90,8|8,0:0|0:0,0:0:0:0:
259,134,132090,1,4,0:0:0:0:
151,146,132590,1,4,0:0:0:0:
65,211,133090,6,0,P|45:162|54:110,1,90,8|8,0:0|0:0,0:0:0:0:
91,27,134090,2,0,L|201:28,1,90,8|8,0:0|0:0,0:0:0:0:
288,38,135090,1,8,0:0:0:0:
349,127,135590,1,8,0:0:0:0:
317,230,136090,2,0,B|278:270|278:270|233:255,2,90,8|8|4,0:0|0:0|0:0,0:0:0:0:
154,193,145090,6,0,L|253:184,1,90,4|8,0:0|0:0,0:0:0:0:
337,132,146090,1,2,0:0:0:0:
440,161,146590,1,8,0:0:0:0:
371,244,147090,2,0,P|363:292|379:350,1,90,2|8,0:0|0:0,0:0:0:0:
469,375,148090,2,0,P|477:327|461:269,1,90,2|8,0:0|0:0,0:0:0:0:
371,244,149090,6,0,L|278:249,1,90,2|8,0:0|0:0,0:0:0:0:
177,217,150090,1,2,0:0:0:0:
167,109,150590,1,8,0:0:0:0:
111,16,151090,2,0,P|67:13|17:24,1,90,2|8,0:0|0:0,0:0:0:0:
5,128,152090,1,2,0:0:0:0:
4,235,152590,1,8,0:0:0:0:
40,336,153090,6,0,B|77:358|130:341,1,90,2|8,0:0|0:0,0:0:0:0:
185,250,154090,2,0,B|235:233|272:255,1,90,2|8,0:0|0:0,0:0:0:0:
355,324,155090,2,0,L|444:328,1,90,2|8,0:0|0:0,0:0:0:0:
465,222,156090,2,0,L|375:217,1,90,2|8,0:0|0:0,0:0:0:0:
271,255,157090,6,0,P|265:203|281:162,1,90,2|8,0:0|0:0,0:0:0:0:
369,111,158090,1,2,0:0:0:0:
476,105,158590,1,8,0:0:0:0:
409,19,159090,2,0,P|367:12|315:28,1,90,2|8,0:0|0:0,0:0:0:0:
240,94,160090,2,0,L|144:91,1,90,2|8,0:0|0:0,0:0:0:0:
56,145,161090,5,4,0:0:0:0:
32,250,161590,1,8,0:0:0:0:
65,352,162090,2,0,L|158:355,1,90,2|8,0:0|0:0,0:0:0:0:
236,283,163090,2,0,L|329:286,1,90,2|8,0:0|0:0,0:0:0:0:
409,354,164090,1,2,0:0:0:0:
497,291,164590,1,8,0:0:0:0:
424,210,165090,6,0,P|416:166|433:113,1,90,2|8,0:0|0:0,0:0:0:0:
454,18,166090,2,0,L|357:20,1,90,2|8,0:0|0:0,0:0:0:0:
275,81,167090,2,0,L|178:83,1,90,2|8,0:0|0:0,0:0:0:0:
82,49,168090,1,2,0:0:0:0:
38,148,168590,1,8,0:0:0:0:
256,192,169090,12,4,171090,0:0:0:0:
