osu file format v14

[General]
AudioFilename: Ailala.mp3
AudioLeadIn: 2000
PreviewTime: 48965
Countdown: 0
SampleSet: Soft
StackLeniency: 0.7
Mode: 0
LetterboxInBreaks: 0
WidescreenStoryboard: 0

[Editor]
Bookmarks: 105090,121090
DistanceSpacing: 1.5
BeatDivisor: 4
GridSize: 4
TimelineZoom: 1.5

[Metadata]
Title:Ai La La
TitleUnicode:爱啦啦
Artist:Sharlo
ArtistUnicode:Sharlo
Creator:Karen
Version:Collab Insane
Source:
Tags:海楠 Hai Nan 夏萝 Zero__wind Xinely liangv587
BeatmapID:831716
BeatmapSetID:378314

[Difficulty]
HPDrainRate:6
CircleSize:4
OverallDifficulty:7
ApproachRate:8
SliderMultiplier:1.6
SliderTickRate:1

[Events]
//Background and Video events
0,0,"bg.jpg",0,0
//Break Periods
//Storyboard Layer 0 (Background)
//Storyboard Layer 1 (Fail)
//Storyboard Layer 2 (Pass)
//Storyboard Layer 3 (Foreground)
//Storyboard Sound Samples

[TimingPoints]
1090,500,4,2,0,65,1,0
2090,-100,4,2,1,40,0,0
2465,-100,4,2,0,65,0,0
3090,-100,4,2,1,40,0,0
3215,-100,4,2,0,65,0,0
4090,-100,4,2,1,40,0,0
4465,-100,4,2,0,65,0,0
5090,-100,4,2,1,40,0,0
5215,-100,4,2,0,65,0,0
6090,-100,4,2,1,40,0,0
6465,-100,4,2,0,65,0,0
7090,-100,4,2,1,40,0,0
7215,-100,4,2,0,65,0,0
8090,-100,4,2,1,40,0,0
8215,-100,4,2,0,65,0,0
10090,-100,4,2,1,40,0,0
10465,-100,4,2,0,65,0,0
11090,-100,4,2,1,40,0,0
11215,-100,4,2,0,65,0,0
12090,-100,4,2,1,40,0,0
12215,-100,4,2,1,65,0,0
12590,-100,4,2,1,40,0,0
12715,-100,4,2,0,65,0,0
13090,-100,4,2,1,40,0,0
13215,-100,4,2,0,65,0,0
14090,-100,4,2,1,40,0,0
14465,-100,4,2,0,65,0,0
15090,-100,4,2,1,40,0,0
15215,-100,4,2,0,65,0,0
16090,-100,4,2,1,40,0,0
16215,-100,4,2,0,65,0,0
17090,-100,4,2,0,60,0,0
18090,-100,4,2,1,40,0,0
18465,-100,4,2,0,60,0,0
19090,-100,4,2,1,40,0,0
19215,-100,4,2,0,60,0,0
20090,-100,4,2,1,40,0,0
20215,-100,4,2,1,60,0,0
20590,-100,4,2,1,40,0,0
20715,-100,4,2,0,60,0,0
21090,-100,4,2,1,40,0,0
21215,-100,4,2,0,60,0,0
22090,-100,4,2,1,40,0,0
22465,-100,4,2,0,60,0,0
23090,-100,4,2,1,40,0,0
23215,-100,4,2,0,60,0,0
24090,-100,4,2,1,40,0,0
24215,-100,4,2,0,65,0,0
24590,-100,4,2,1,40,0,0
24715,-100,4,2,0,60,0,0
25090,-100,4,2,1,40,0,0
25215,-100,4,2,0,60,0,0
26090,-100,4,2,1,40,0,0
26465,-100,4,2,0,60,0,0
27090,-100,4,2,1,40,0,0
27215,-100,4,2,0,60,0,0
28090,-100,4,2,1,40,0,0
28215,-100,4,2,1,65,0,0
28590,-100,4,2,1,40,0,0
28715,-100,4,2,0,60,0,0
29090,-100,4,2,1,40,0,0
29215,-100,4,2,0,60,0,0
30090,-100,4,2,1,40,0,0
30465,-100,4,2,0,60,0,0
31090,-100,4,2,1,40,0,0
31215,-100,4,2,0,60,0,0
32090,-100,4,2,1,40,0,0
32215,-100,4,2,0,60,0,0
34090,-100,4,2,1,40,0,0
34465,-100,4,2,0,60,0,0
35090,-100,4,2,1,40,0,0
35215,-100,4,2,0,60,0,0
36090,-100,4,2,1,40,0,0
36215,-100,4,2,1,60,0,0
36590,-100,4,2,1,40,0,0
36715,-100,4,2,0,60,0,0
37090,-100,4,2,1,40,0,0
37215,-100,4,2,0,60,0,0
38090,-100,4,2,1,40,0,0
38465,-100,4,2,0,60,0,0
39090,-100,4,2,1,40,0,0
39215,-100,4,2,0,60,0,0
40090,-100,4,2,1,40,0,0
40215,-100,4,2,0,60,0,0
40590,-100,4,2,1,40,0,0
40715,-100,4,2,0,60,0,0
41090,-100,4,2,1,40,0,0
41215,-100,4,2,0,60,0,0
42090,-100,4,2,1,40,0,0
42465,-100,4,2,0,60,0,0
43090,-100,4,2,1,40,0,0
43215,-100,4,2,0,60,0,0
44090,-100,4,2,1,40,0,0
44215,-100,4,2,1,60,0,0
44590,-100,4,2,1,40,0,0
44715,-100,4,2,0,60,0,0
45090,-100,4,2,1,40,0,0
45215,-100,4,2,0,60,0,0
46090,-100,4,2,1,40,0,0
46465,-100,4,2,0,60,0,0
47090,-100,4,2,1,40,0,0
47215,-100,4,2,0,60,0,0
48090,-100,4,2,1,40,0,0
48215,-100,4,2,0,60,0,0
49090,-100,4,2,0,70,0,1
50340,-100,4,2,1,40,0,1
50465,-100,4,2,0,70,0,1
52340,-100,4,2,1,40,0,1
52465,-100,4,2,0,70,0,1
54340,-100,4,2,1,40,0,1
54465,-100,4,2,0,70,0,1
57090,-100,4,2,0,65,0,0
58090,-100,4,2,1,40,0,0
58465,-100,4,2,0,65,0,0
59090,-100,4,2,1,40,0,0
59215,-100,4,2,0,65,0,0
60090,-100,4,2,1,40,0,0
60215,-100,4,2,1,65,0,0
60590,-100,4,2,1,40,0,0
60715,-100,4,2,0,65,0,0
61090,-100,4,2,1,40,0,0
61215,-100,4,2,0,65,0,0
62090,-100,4,2,1,40,0,0
62465,-100,4,2,0,65,0,0
63090,-100,4,2,1,40,0,0
63215,-100,4,2,0,65,0,0
64090,-100,4,2,1,40,0,0
64215,-100,4,2,0,65,0,0
65090,-100,4,2,0,60,0,0
66090,-100,4,2,1,40,0,0
66465,-100,4,2,0,60,0,0
67090,-100,4,2,1,40,0,0
67215,-100,4,2,0,60,0,0
68090,-100,4,2,1,40,0,0
68215,-100,4,2,1,60,0,0
68590,-100,4,2,1,40,0,0
68715,-100,4,2,0,60,0,0
69090,-100,4,2,1,40,0,0
69215,-100,4,2,0,60,0,0
70090,-100,4,2,1,40,0,0
70465,-100,4,2,0,60,0,0
71090,-100,4,2,1,40,0,0
71215,-100,4,2,0,60,0,0
72090,-100,4,2,1,40,0,0
72215,-100,4,2,1,60,0,0
72590,-100,4,2,1,40,0,0
72715,-100,4,2,0,60,0,0
73090,-100,4,2,1,40,0,0
73215,-100,4,2,0,60,0,0
74090,-100,4,2,1,40,0,0
74465,-100,4,2,0,60,0,0
75090,-100,4,2,1,40,0,0
75215,-100,4,2,0,60,0,0
76090,-100,4,2,1,40,0,0
76215,-100,4,2,1,60,0,0
76590,-100,4,2,1,40,0,0
76715,-100,4,2,0,60,0,0
77090,-100,4,2,1,40,0,0
77215,-100,4,2,0,60,0,0
78090,-100,4,2,1,40,0,0
78465,-100,4,2,0,60,0,0
79090,-100,4,2,1,40,0,0
79215,-100,4,2,0,60,0,0
80090,-100,4,2,1,40,0,0
80215,-100,4,2,0,60,0,0
82090,-100,4,2,1,40,0,0
82465,-100,4,2,0,60,0,0
83090,-100,4,2,1,40,0,0
83215,-100,4,2,0,60,0,0
84090,-100,4,2,1,40,0,0
84215,-100,4,2,1,60,0,0
84590,-100,4,2,1,40,0,0
84715,-100,4,2,0,60,0,0
85090,-100,4,2,1,40,0,0
85215,-100,4,2,0,60,0,0
86090,-100,4,2,1,40,0,0
86465,-100,4,2,0,60,0,0
87090,-100,4,2,1,40,0,0
87215,-100,4,2,0,60,0,0
88090,-100,4,2,1,40,0,0
88215,-100,4,2,0,60,0,0
88590,-100,4,2,1,40,0,0
88715,-100,4,2,0,60,0,0
89090,-100,4,2,1,40,0,0
89215,-100,4,2,0,60,0,0
90090,-100,4,2,1,40,0,0
90465,-100,4,2,0,60,0,0
91090,-100,4,2,1,40,0,0
91215,-100,4,2,0,60,0,0
92090,-100,4,2,1,40,0,0
92215,-100,4,2,1,60,0,0
92715,-100,4,2,0,60,0,0
93090,-100,4,2,1,40,0,0
93215,-100,4,2,0,60,0,0
94090,-100,4,2,1,40,0,0
94465,-100,4,2,0,60,0,0
95090,-100,4,2,1,40,0,0
95215,-100,4,2,0,60,0,0
96090,-100,4,2,1,40,0,0
96215,-100,4,2,0,60,0,0
97090,-100,4,2,0,40,0,0
105090,-100,4,2,0,65,0,0
106090,-100,4,2,1,40,0,0
106465,-100,4,2,0,65,0,0
107090,-100,4,2,1,40,0,0
107215,-100,4,2,0,65,0,0
108090,-100,4,2,1,40,0,0
108215,-100,4,2,1,65,0,0
108715,-100,4,2,0,65,0,0
109090,-100,4,2,1,40,0,0
109215,-100,4,2,0,65,0,0
110090,-100,4,2,1,40,0,0
110465,-100,4,2,0,65,0,0
111090,-100,4,2,1,40,0,0
111215,-100,4,2,0,65,0,0
112090,-100,4,2,1,40,0,0
112215,-100,4,2,0,65,0,0
113090,-100,4,2,1,40,0,0
113215,-100,4,2,0,65,0,0
114090,-100,4,2,1,40,0,0
115215,-100,4,2,0,65,0,0
116090,-100,4,2,1,40,0,0
116465,-100,4,2,0,65,0,0
117090,-100,4,2,1,40,0,0
117215,-100,4,2,0,65,0,0
118090,-100,4,2,1,40,0,0
118465,-100,4,2,0,65,0,0
119090,-100,4,2,1,40,0,0
119465,-100,4,2,0,65,0,0
119840,-100,4,2,1,40,0,0
120465,-100,4,2,0,65,0,0
121090,-100,4,2,0,60,0,0
122090,-100,4,2,1,40,0,0
122465,-100,4,2,0,60,0,0
123090,-100,4,2,1,40,0,0
123215,-100,4,2,0,60,0,0
124090,-100,4,2,1,40,0,0
124215,-100,4,2,1,60,0,0
124590,-100,4,2,1,40,0,0
124715,-100,4,2,0,60,0,0
125090,-100,4,2,1,40,0,0
125215,-100,4,2,0,60,0,0
126090,-100,4,2,1,40,0,0
126465,-100,4,2,0,60,0,0
127090,-100,4,2,1,40,0,0
127215,-100,4,2,0,60,0,0
128090,-100,4,2,1,40,0,0
128215,-100,4,2,0,60,0,0
128590,-100,4,2,1,40,0,0
128715,-100,4,2,0,5,0,0
128840,-100,4,2,1,40,0,0
128965,-100,4,2,0,5,0,0
129090,-100,4,2,1,40,0,0
129215,-100,4,2,0,60,0,0
130090,-100,4,2,1,40,0,0
130465,-100,4,2,0,60,0,0
131090,-100,4,2,1,40,0,0
131215,-100,4,2,0,60,0,0
132090,-100,4,2,1,40,0,0
132215,-100,4,2,1,60,0,0
132590,-100,4,2,1,40,0,0
132715,-100,4,2,0,60,0,0
133090,-100,4,2,1,40,0,0
133215,-100,4,2,0,60,0,0
134090,-100,4,2,1,40,0,0
134465,-100,4,2,0,60,0,0
135090,-100,4,2,1,40,0,0
135215,-100,4,2,0,60,0,0
136090,-100,4,2,1,40,0,0
136215,-100,4,2,0,60,0,0
137090,-125,4,2,0,50,0,0
145090,-90.9090909090909,4,2,0,70,0,1
146340,-90.9090909090909,4,2,1,40,0,1
146465,-90.9090909090909,4,2,0,70,0,1
148340,-90.9090909090909,4,2,1,40,0,1
148465,-90.9090909090909,4,2,0,70,0,1
150340,-90.9090909090909,4,2,1,40,0,1
150465,-90.9090909090909,4,2,0,70,0,1
152590,-100,4,2,0,70,0,0
153090,-90.9090909090909,4,2,0,70,0,1
154340,-90.9090909090909,4,2,1,40,0,1
154465,-90.9090909090909,4,2,0,70,0,1
156340,-90.9090909090909,4,2,1,40,0,1
156465,-90.9090909090909,4,2,0,70,0,1
158340,-90.9090909090909,4,2,1,40,0,1
158465,-90.9090909090909,4,2,0,70,0,1
160340,-90.9090909090909,4,2,1,40,0,1
160465,-90.9090909090909,4,2,0,70,0,1
161090,-100,4,2,0,65,0,0
162340,-100,4,2,1,40,0,0
162465,-100,4,2,0,65,0,0
164340,-100,4,2,1,40,0,0
164465,-100,4,2,0,65,0,0
166340,-100,4,2,1,40,0,0
166465,-100,4,2,0,65,0,0
170965,-100,4,2,0,80,0,0

[Colours]
Combo1 : 255,221,221
Combo2 : 255,255,147
Combo3 : 255,189,123
Combo4 : 255,121,121

[HitObjects]
184,140,1090,5,4,0:0:0:0:
288,81,1340,1,0,0:0:0:0:
288,201,1590,1,8,0:0:0:0:
184,140,1840,1,0,0:0:0:0:
288,81,2090,1,8,0:0:0:0:
201,223,2340,1,8,0:0:0:0:
120,76,2590,1,8,0:0:0:0:
288,81,2840,1,0,0:0:0:0:
385,186,3090,6,0,P|395:238|388:270,1,80,8|0,0:0|0:0,0:0:0:0:
433,376,3590,2,0,P|472:352|498:312,1,80,8|0,0:0|0:0,0:0:0:0:
302,231,4090,1,8,0:0:0:0:
491,235,4340,1,8,0:0:0:0:
347,352,4590,2,0,L|243:351,1,80,8|2,0:0|0:0,0:0:0:0:
194,300,4965,1,2,0:0:0:0:
194,300,5090,6,0,B|181:249|181:249|208:217,1,80,8|0,0:0|0:0,0:0:0:0:
286,146,5590,1,8,0:0:0:0:
189,74,5840,1,0,0:0:0:0:
198,228,6090,1,8,0:0:0:0:
289,48,6340,1,8,0:0:0:0:
303,244,6590,1,8,0:0:0:0:
130,153,6840,1,0,0:0:0:0:
286,146,7090,6,0,L|375:143,1,80,8|0,0:0|0:0,0:0:0:0:
450,57,7590,1,8,0:0:0:0:
470,175,7840,1,0,0:0:0:0:
303,244,8090,1,8,0:0:0:0:
303,244,8340,1,8,0:0:0:0:
365,143,8590,1,8,0:0:0:0:
365,143,8715,1,8,0:0:0:0:
365,143,8840,1,8,0:0:0:0:
369,340,9090,6,0,P|325:360|282:358,1,80,4|0,0:0|0:0,0:0:0:0:
189,299,9590,1,8,0:0:0:0:
293,360,9840,1,0,0:0:0:0:
82,336,10090,2,0,P|76:292|89:246,1,80,8|8,0:0|0:0,0:0:0:0:
155,161,10590,1,8,0:0:0:0:
83,257,10840,1,0,0:0:0:0:
248,247,11090,5,8,0:0:0:0:
61,163,11340,1,0,0:0:0:0:
167,304,11590,1,8,0:0:0:0:
225,94,11840,1,0,0:0:0:0:
88,47,12090,2,0,L|-1:39,1,80,4|2,0:0|0:0,0:0:0:0:
140,170,12590,2,0,L|51:162,1,80,4|2,0:0|0:0,0:0:0:0:
197,70,13090,5,8,0:0:0:0:
316,73,13340,1,0,0:0:0:0:
435,76,13590,1,8,0:0:0:0:
370,177,13840,1,0,0:0:0:0:
210,98,14090,1,8,0:0:0:0:
329,101,14340,1,8,0:0:0:0:
448,104,14590,1,8,0:0:0:0:
383,205,14840,1,0,0:0:0:0:
393,324,15090,6,0,L|508:323,1,80,8|0,0:0|0:0,0:0:0:0:
383,205,15590,2,0,P|340:211|303:244,1,80,8|0,0:0|0:0,0:0:0:0:
230,321,16090,1,8,0:0:0:0:
153,228,16340,2,0,L|138:166,2,40,8|0|8,0:0|0:0|0:0,0:0:0:0:
230,321,16840,1,2,0:0:0:0:
230,321,16965,1,2,0:0:0:0:
230,321,17090,6,0,B|288:344|288:344|396:316,1,160,4|8,0:0|0:0,0:0:0:0:
421,205,17840,1,0,0:0:0:0:
307,243,18090,1,8,0:0:0:0:
484,306,18340,1,8,0:0:0:0:
493,122,18590,1,8,0:0:0:0:
381,319,18840,1,0,0:0:0:0:
328,154,19090,6,0,L|212:149,1,80,8|0,0:0|0:0,0:0:0:0:
132,42,19590,2,0,L|211:45,1,80,8|0,0:0|0:0,0:0:0:0:
248,150,20090,1,4,0:0:0:0:
154,225,20340,1,2,0:0:0:0:
52,160,20590,1,4,0:0:0:0:
154,225,20840,1,2,0:0:0:0:
122,340,21090,6,0,P|78:345|17:337,1,80,8|0,0:0|0:0,0:0:0:0:
154,225,21590,2,0,L|253:223,1,80,8|0,0:0|0:0,0:0:0:0:
333,155,22090,1,8,0:0:0:0:
445,197,22340,1,8,0:0:0:0:
233,223,22590,1,8,0:0:0:0:
261,338,22840,1,0,0:0:0:0:
427,295,23090,6,0,B|469:286|469:286|515:301,1,80,8|0,0:0|0:0,0:0:0:0:
338,340,23590,2,0,B|296:349|296:349|250:334,1,80,8|0,0:0|0:0,0:0:0:0:
164,166,24090,1,4,0:0:0:0:
283,160,24340,1,8,0:0:0:0:
125,280,24590,1,4,0:0:0:0:
164,166,24840,1,2,0:0:0:0:
237,298,25090,6,0,L|239:380,1,80,8|0,0:0|0:0,0:0:0:0:
125,280,25590,1,8,0:0:0:0:
125,280,25840,1,0,0:0:0:0:
48,370,26090,1,8,0:0:0:0:
237,298,26340,1,8,0:0:0:0:
72,179,26590,1,8,0:0:0:0:
72,179,27090,6,0,P|50:138|46:93,1,80,8|0,0:0|0:0,0:0:0:0:
179,40,27590,2,0,P|168:81|140:111,1,80,8|0,0:0|0:0,0:0:0:0:
45,105,28090,1,4,0:0:0:0:
220,167,28340,1,2,0:0:0:0:
84,259,28590,1,4,0:0:0:0:
143,108,28840,1,2,0:0:0:0:
147,332,29090,6,0,P|102:357|56:353,1,80,8|0,0:0|0:0,0:0:0:0:
82,179,29590,2,0,L|84:267,1,80,8|0,0:0|0:0,0:0:0:0:
243,340,30090,1,8,0:0:0:0:
176,168,30340,1,8,0:0:0:0:
343,195,30590,1,8,0:0:0:0:
343,195,31090,6,0,B|354:236|354:236|343:280,1,80,8|0,0:0|0:0,0:0:0:0:
233,228,31590,1,8,0:0:0:0:
418,108,31840,1,0,0:0:0:0:
344,272,32090,1,8,0:0:0:0:
300,99,32340,1,8,0:0:0:0:
335,234,32590,5,8,0:0:0:0:
322,187,32715,1,8,0:0:0:0:
311,145,32840,1,8,0:0:0:0:
199,53,33090,6,0,P|151:60|91:46,1,80,4|0,0:0|0:0,0:0:0:0:
2,35,33590,2,0,L|3:133,1,80,8|0,0:0|0:0,0:0:0:0:
52,236,34090,1,8,0:0:0:0:
88,147,34340,1,8,0:0:0:0:
138,276,34590,1,8,0:0:0:0:
88,147,34840,1,0,0:0:0:0:
194,61,35090,6,0,L|293:53,1,80,8|0,0:0|0:0,0:0:0:0:
375,168,35590,2,0,L|295:174,1,80,8|0,0:0|0:0,0:0:0:0:
214,293,36090,1,4,0:0:0:0:
332,308,36340,1,2,0:0:0:0:
146,358,36590,1,4,0:0:0:0:
264,373,36840,1,2,0:0:0:0:
396,238,37090,6,0,P|354:217|302:222,1,80,8|0,0:0|0:0,0:0:0:0:
472,367,37590,1,8,0:0:0:0:
511,247,37840,1,0,0:0:0:0:
332,308,38090,2,0,L|234:300,1,80,8|8,0:0|0:0,0:0:0:0:
136,220,38590,1,8,0:0:0:0:
155,338,38840,1,0,0:0:0:0:
136,220,39090,6,0,P|137:167|148:133,1,80,8|0,0:0|0:0,0:0:0:0:
268,40,39590,2,0,P|267:93|256:127,1,80,8|0,0:0|0:0,0:0:0:0:
144,141,40090,1,4,0:0:0:0:
277,225,40340,1,8,0:0:0:0:
144,141,40590,1,4,0:0:0:0:
351,156,40840,1,2,0:0:0:0:
287,301,41090,6,0,P|272:254|279:216,1,80,8|0,0:0|0:0,0:0:0:0:
450,131,41590,1,8,0:0:0:0:
381,248,41840,1,0,0:0:0:0:
342,66,42090,1,8,0:0:0:0:
479,148,42340,1,0,0:0:0:0:
276,224,42590,2,0,P|239:152|261:57,1,160,8|8,0:0|0:0,0:0:0:0:
160,220,43340,5,0,0:0:0:0:
345,113,43590,2,0,P|348:58|333:14,1,80,8|0,0:0|0:0,0:0:0:0:
143,12,44090,1,4,0:0:0:0:
249,76,44340,1,2,0:0:0:0:
118,25,44590,1,4,0:0:0:0:
270,65,44840,1,2,0:0:0:0:
162,168,45090,6,0,B|153:207|153:207|167:256,1,80,8|0,0:0|0:0,0:0:0:0:
57,348,45590,2,0,B|66:309|66:309|52:260,1,80,8|0,0:0|0:0,0:0:0:0:
20,155,46090,1,8,0:0:0:0:
55,270,46340,1,8,0:0:0:0:
247,202,46590,1,8,0:0:0:0:
247,202,47090,6,0,P|292:191|345:197,1,80,8|0,0:0|0:0,0:0:0:0:
444,212,47590,1,8,0:0:0:0:
417,379,47840,1,0,0:0:0:0:
368,269,48090,1,8,0:0:0:0:
505,337,48340,1,8,0:0:0:0:
318,357,48590,1,8,0:0:0:0:
270,357,48715,1,8,0:0:0:0:
222,360,48840,1,8,0:0:0:0:
88,232,49090,6,0,B|68:180|68:180|68:132|124:80,1,160,4|8,0:0|0:0,0:0:0:0:
232,60,49840,1,0,0:0:0:0:
252,180,50090,1,2,0:0:0:0:
372,60,50340,1,8,0:0:0:0:
404,176,50590,1,8,0:0:0:0:
168,120,50840,1,0,0:0:0:0:
320,240,51090,5,2,0:0:0:0:
176,232,51340,1,0,0:0:0:0:
296,128,51590,1,8,0:0:0:0:
244,296,51840,1,0,0:0:0:0:
95,279,52090,2,0,P|83:242|90:203,1,80,2|8,0:0|0:0,0:0:0:0:
180,88,52590,1,8,0:0:0:0:
204,80,52715,1,0,0:0:0:0:
228,80,52840,1,0,0:0:0:0:
252,84,52965,1,0,0:0:0:0:
276,92,53090,5,2,0:0:0:0:
336,196,53340,1,0,0:0:0:0:
256,284,53590,2,0,P|212:288|164:280,1,80,8|0,0:0|0:0,0:0:0:0:
36,192,54090,1,2,0:0:0:0:
148,88,54340,1,8,0:0:0:0:
196,220,54590,1,8,0:0:0:0:
52,108,54840,1,0,0:0:0:0:
232,140,55090,6,0,L|332:132,1,80,2|0,0:0|0:0,0:0:0:0:
484,184,55590,1,8,0:0:0:0:
384,320,55840,1,0,0:0:0:0:
250,217,56090,2,0,L|232:140,1,80,2|8,0:0|0:0,0:0:0:0:
388,240,56590,1,8,0:0:0:0:
404,241,56715,1,8,0:0:0:0:
420,242,56840,1,8,0:0:0:0:
224,344,57090,5,4,0:0:0:0:
260,228,57340,1,0,0:0:0:0:
216,116,57590,1,8,0:0:0:0:
80,172,57840,1,0,0:0:0:0:
64,160,57965,1,0,0:0:0:0:
48,148,58090,1,8,0:0:0:0:
220,32,58340,1,8,0:0:0:0:
344,68,58590,1,8,0:0:0:0:
432,160,58840,1,0,0:0:0:0:
428,180,58965,1,0,0:0:0:0:
424,200,59090,5,8,0:0:0:0:
276,236,59340,1,0,0:0:0:0:
388,336,59590,1,8,0:0:0:0:
200,344,59840,1,0,0:0:0:0:
180,344,59965,1,0,0:0:0:0:
160,344,60090,1,4,0:0:0:0:
244,148,60340,1,2,0:0:0:0:
332,272,60590,2,0,L|352:368,1,80,4|2,0:0|0:0,0:0:0:0:
124,216,61090,6,0,P|115:173|126:131,1,80,8|0,0:0|0:0,0:0:0:0:
328,104,61590,2,0,P|336:146|325:188,1,80,8|0,0:0|0:0,0:0:0:0:
252,304,62090,1,8,0:0:0:0:
272,308,62215,1,0,0:0:0:0:
292,312,62340,1,8,0:0:0:0:
436,312,62590,1,8,0:0:0:0:
428,152,62840,1,0,0:0:0:0:
212,208,63090,6,0,P|204:176|208:120,1,80,8|0,0:0|0:0,0:0:0:0:
296,52,63590,1,8,0:0:0:0:
332,168,63840,1,0,0:0:0:0:
432,100,64090,1,8,0:0:0:0:
296,52,64340,1,8,0:0:0:0:
296,52,64465,1,0,0:0:0:0:
296,52,64590,6,0,L|228:48,1,40,8|2,0:0|0:0,0:0:0:0:
180,88,64840,2,0,L|140:90,1,40,2|2,0:0|0:0,0:0:0:0:
60,140,65090,6,0,L|68:228,1,80,4|0,0:0|0:0,0:0:0:0:
100,336,65590,1,8,0:0:0:0:
208,284,65840,1,0,0:0:0:0:
180,168,66090,2,0,L|180:72,1,80,8|8,0:0|0:0,0:0:0:0:
344,148,66590,2,0,L|344:240,1,80,8|0,0:0|0:0,0:0:0:0:
208,284,67090,6,0,P|144:284|108:296,1,80,8|0,0:0|0:0,0:0:0:0:
280,352,67590,2,0,P|344:352|380:340,1,80,8|0,0:0|0:0,0:0:0:0:
464,252,68090,1,4,0:0:0:0:
360,168,68340,1,2,0:0:0:0:
496,104,68590,1,4,0:0:0:0:
352,52,68840,1,2,0:0:0:0:
236,80,69090,6,0,L|136:100,1,80,8|0,0:0|0:0,0:0:0:0:
56,160,69590,1,8,0:0:0:0:
128,256,69840,1,0,0:0:0:0:
244,224,70090,2,0,P|284:216|356:220,1,80,8|8,0:0|0:0,0:0:0:0:
448,336,70590,2,0,P|408:344|336:340,1,80,8|0,0:0|0:0,0:0:0:0:
188,320,71090,5,8,0:0:0:0:
128,196,71340,1,0,0:0:0:0:
288,292,71590,1,8,0:0:0:0:
72,340,71840,1,0,0:0:0:0:
208,232,72090,2,0,P|216:200|208:152,1,80,4|2,0:0|0:0,0:0:0:0:
48,152,72590,2,0,P|40:184|48:232,1,80,4|2,0:0|0:0,0:0:0:0:
200,348,73090,5,8,0:0:0:0:
320,292,73340,1,0,0:0:0:0:
120,228,73590,2,0,L|116:144,1,80,8|0,0:0|0:0,0:0:0:0:
252,56,74090,1,8,0:0:0:0:
256,224,74340,1,8,0:0:0:0:
60,84,74590,1,8,0:0:0:0:
60,84,75090,6,0,L|60:192,1,80,8|0,0:0|0:0,0:0:0:0:
88,284,75590,1,8,0:0:0:0:
184,216,75840,1,0,0:0:0:0:
135,109,76090,2,0,P|104:92|52:84,1,80,4|2,0:0|0:0,0:0:0:0:
184,216,76590,1,4,0:0:0:0:
304,200,76840,1,2,0:0:0:0:
120,296,77090,6,0,L|24:304,1,80,8|0,0:0|0:0,0:0:0:0:
232,352,77590,2,0,L|328:360,1,80,8|0,0:0|0:0,0:0:0:0:
432,224,78090,1,8,0:0:0:0:
344,88,78340,1,8,0:0:0:0:
248,260,78590,1,8,0:0:0:0:
248,260,79090,6,0,P|239:227|236:172,1,80,8|0,0:0|0:0,0:0:0:0:
256,52,79590,1,8,0:0:0:0:
336,168,79840,1,0,0:0:0:0:
152,208,80090,2,0,L|60:204,1,80,8|8,0:0|0:0,0:0:0:0:
160,344,80590,1,8,0:0:0:0:
160,344,80715,1,8,0:0:0:0:
160,344,80840,1,8,0:0:0:0:
343,247,81090,6,0,L|335:167,1,80,4|0,0:0|0:0,0:0:0:0:
228,116,81590,1,8,0:0:0:0:
328,52,81840,1,0,0:0:0:0:
144,80,82090,2,0,L|144:160,1,80,8|8,0:0|0:0,0:0:0:0:
312,224,82590,2,0,L|312:144,1,80,8|0,0:0|0:0,0:0:0:0:
160,252,83090,6,0,P|96:252|60:264,1,80,8|0,0:0|0:0,0:0:0:0:
252,348,83590,2,0,P|316:348|352:336,1,80,8|0,0:0|0:0,0:0:0:0:
472,200,84090,1,4,0:0:0:0:
416,296,84340,1,2,0:0:0:0:
320,124,84590,1,4,0:0:0:0:
324,232,84840,1,2,0:0:0:0:
168,176,85090,6,0,L|68:168,1,80,8|0,0:0|0:0,0:0:0:0:
4,260,85590,1,8,0:0:0:0:
116,308,85840,1,0,0:0:0:0:
244,224,86090,2,0,P|284:216|356:220,1,80,8|8,0:0|0:0,0:0:0:0:
444,336,86590,2,0,P|404:344|332:340,1,80,8|0,0:0|0:0,0:0:0:0:
188,320,87090,5,8,0:0:0:0:
128,196,87340,1,0,0:0:0:0:
292,136,87590,1,8,0:0:0:0:
128,84,87840,1,0,0:0:0:0:
292,136,88090,2,0,P|299:175|291:213,1,80,4|10,0:0|0:0,0:0:0:0:
127,273,88590,2,0,P|119:234|128:196,1,80,4|2,0:0|0:0,0:0:0:0:
272,52,89090,5,8,0:0:0:0:
384,116,89340,1,0,0:0:0:0:
192,144,89590,2,0,B|192:204|192:204|195:223,1,80,8|0,0:0|0:0,0:0:0:0:
320,224,90090,1,8,0:0:0:0:
200,320,90340,1,8,0:0:0:0:
436,292,90590,1,8,0:0:0:0:
436,292,91090,6,0,P|440:256|436:212,1,80,8|0,0:0|0:0,0:0:0:0:
356,124,91590,1,8,0:0:0:0:
280,220,91840,1,0,0:0:0:0:
357,34,92090,2,0,P|396:41|432:60,1,80,4|2,0:0|0:0,0:0:0:0:
476,180,92590,1,4,0:0:0:0:
400,288,92840,1,2,0:0:0:0:
264,136,93090,6,0,L|168:144,1,80,8|0,0:0|0:0,0:0:0:0:
48,280,93590,2,0,L|144:288,1,80,8|0,0:0|0:0,0:0:0:0:
256,328,94090,1,8,0:0:0:0:
344,216,94340,1,8,0:0:0:0:
400,344,94590,1,8,0:0:0:0:
400,344,95090,6,0,P|408:311|412:256,1,80,8|0,0:0|0:0,0:0:0:0:
352,136,95590,1,8,0:0:0:0:
264,216,95840,1,0,0:0:0:0:
148,132,96090,2,0,L|56:128,1,80,8|8,0:0|0:0,0:0:0:0:
56,272,96590,1,8,0:0:0:0:
56,272,96715,1,8,0:0:0:0:
56,272,96840,1,8,0:0:0:0:
264,216,97090,5,4,0:0:0:0:
264,216,97590,1,8,0:0:0:0:
324,164,97840,1,0,0:0:0:0:
348,240,98090,1,2,0:0:0:0:
204,284,98340,1,0,0:0:0:0:
324,164,98590,1,8,0:0:0:0:
372,320,98840,1,0,0:0:0:0:
204,284,99090,6,0,L|108:284,1,80,2|0,0:0|0:0,0:0:0:0:
32,200,99590,2,0,L|124:200,1,80,8|0,0:0|0:0,0:0:0:0:
252,208,100090,1,2,0:0:0:0:
312,96,100340,1,0,0:0:0:0:
172,104,100590,2,0,L|120:88,4,40,8|0|0|0|2,0:0|0:0|0:0|0:0|0:0,0:0:0:0:
172,104,101590,5,8,0:0:0:0:
252,88,101840,1,0,0:0:0:0:
320,132,102090,1,2,0:0:0:0:
180,24,102340,1,0,0:0:0:0:
264,8,102590,1,8,0:0:0:0:
336,56,102840,1,0,0:0:0:0:
240,176,103090,6,0,P|196:188|140:180,1,80,2|0,0:0|0:0,0:0:0:0:
128,272,103590,2,0,P|88:249|54:204,1,80,0|0,0:0|0:0,0:0:0:0:
268,276,104090,2,0,P|307:253|341:208,1,80,2|8,0:0|0:0,0:0:0:0:
415,264,104590,2,0,P|426:219|419:163,1,80,8|0,0:0|0:0,0:0:0:0:
280,44,105090,5,4,0:0:0:0:
392,92,105340,1,0,0:0:0:0:
224,152,105590,2,0,P|184:164|132:156,1,80,8|0,0:0|0:0,0:0:0:0:
120,156,105965,1,0,0:0:0:0:
96,144,106090,1,8,0:0:0:0:
176,60,106340,1,8,0:0:0:0:
208,248,106590,2,0,L|200:348,1,80,8|0,0:0|0:0,0:0:0:0:
28,220,107090,5,8,0:0:0:0:
152,104,107340,1,0,0:0:0:0:
128,268,107590,1,8,0:0:0:0:
40,120,107840,1,0,0:0:0:0:
204,200,108090,2,0,L|320:196,1,80,4|2,0:0|0:0,0:0:0:0:
444,300,108590,2,0,L|364:302,1,80,4|2,0:0|0:0,0:0:0:0:
204,200,109090,5,8,0:0:0:0:
176,336,109340,1,0,0:0:0:0:
304,240,109590,2,0,P|312:204|300:144,1,80,8|0,0:0|0:0,0:0:0:0:
144,104,110090,1,8,0:0:0:0:
268,56,110340,1,8,0:0:0:0:
204,200,110590,1,8,0:0:0:0:
56,140,110840,1,0,0:0:0:0:
204,200,111090,6,0,L|304:192,1,80,8|0,0:0|0:0,0:0:0:0:
428,304,111590,2,0,L|348:310,1,80,8|0,0:0|0:0,0:0:0:0:
136,320,112090,1,8,0:0:0:0:
264,272,112340,1,8,0:0:0:0:
72,256,112590,1,8,0:0:0:0:
56,248,112715,1,8,0:0:0:0:
40,240,112840,1,8,0:0:0:0:
124,96,113090,5,8,0:0:0:0:
144,88,113340,1,2,0:0:0:0:
144,88,113465,1,2,0:0:0:0:
144,88,113590,2,0,L|156:28,3,40,10|2|2|2,0:0|0:0|0:0|0:0,0:0:0:0:
232,72,114090,2,0,L|264:44,3,40,10|2|10|2,0:0|0:0|0:0|0:0,0:0:0:0:
300,120,114590,2,0,L|348:112,1,40,12|0,0:0|0:0,0:0:0:0:
328,208,114840,2,0,L|376:224,1,40,4|0,0:0|0:0,0:0:0:0:
276,284,115090,6,0,L|192:288,1,80,8|0,0:0|0:0,0:0:0:0:
292,324,115590,2,0,L|208:328,1,80,8|8,0:0|0:0,0:0:0:0:
68,196,116090,2,0,L|152:200,1,80,8|8,0:0|0:0,0:0:0:0:
52,236,116590,2,0,L|136:240,1,80,8|2,0:0|0:0,0:0:0:0:
336,184,117090,5,10,0:0:0:0:
408,40,117340,1,2,0:0:0:0:
228,84,117590,1,10,0:0:0:0:
208,84,117715,1,2,0:0:0:0:
188,84,117840,1,2,0:0:0:0:
108,212,118090,1,10,0:0:0:0:
128,212,118215,1,2,0:0:0:0:
148,212,118340,1,10,0:0:0:0:
288,320,118590,1,10,0:0:0:0:
288,320,118715,1,2,0:0:0:0:
288,320,118840,1,2,0:0:0:0:
448,244,119090,5,10,0:0:0:0:
472,72,119340,1,4,0:0:0:0:
340,228,119590,1,8,0:0:0:0:
336,64,119840,1,4,0:0:0:0:
448,244,120090,2,0,L|468:284,2,40,10|2|10,0:0|0:0|0:0,0:0:0:0:
312,76,120590,2,0,P|288:80|260:76,1,40,10|2,0:0|0:0,0:0:0:0:
184,48,120840,2,0,P|160:44|132:48,1,40,10|2,0:0|0:0,0:0:0:0:
57,51,121090,6,0,L|58:155,1,80,4|0,0:0|0:0,0:0:0:0:
101,242,121590,1,8,0:0:0:0:
193,114,121840,1,0,0:0:0:0:
241,257,122090,1,8,0:0:0:0:
101,242,122340,1,8,0:0:0:0:
214,130,122590,1,8,0:0:0:0:
162,313,122840,1,0,0:0:0:0:
113,143,123090,6,0,P|118:98|152:51,1,80,8|0,0:0|0:0,0:0:0:0:
274,17,123590,1,8,0:0:0:0:
214,130,123840,1,0,0:0:0:0:
134,68,124090,1,4,0:0:0:0:
274,17,124340,1,2,0:0:0:0:
290,191,124590,1,4,0:0:0:0:
134,68,124840,1,2,0:0:0:0:
358,112,125090,6,0,L|452:114,1,80,8|0,0:0|0:0,0:0:0:0:
443,233,125590,1,8,0:0:0:0:
290,191,125840,1,0,0:0:0:0:
364,310,126090,1,8,0:0:0:0:
358,112,126340,1,8,0:0:0:0:
260,292,126590,1,8,0:0:0:0:
443,233,126840,1,0,0:0:0:0:
290,191,127090,6,0,L|199:190,1,80,8|0,0:0|0:0,0:0:0:0:
110,122,127590,1,8,0:0:0:0:
195,37,127840,1,0,0:0:0:0:
117,147,128090,1,4,0:0:0:0:
91,29,128340,1,8,0:0:0:0:
122,173,128590,1,6,0:0:0:0:
19,107,128840,1,6,0:0:0:0:
212,133,129090,6,0,L|301:134,1,80,8|0,0:0|0:0,0:0:0:0:
415,244,129590,2,0,L|335:243,1,80,8|0,0:0|0:0,0:0:0:0:
249,327,130090,1,8,0:0:0:0:
291,133,130340,1,8,0:0:0:0:
415,244,130590,2,0,B|434:285|437:312|422:350|422:350|492:305,1,160,8|8,0:0|0:0,0:0:0:0:
506,210,131340,5,0,0:0:0:0:
329,305,131590,2,0,L|220:310,1,80,8|0,0:0|0:0,0:0:0:0:
132,186,132090,1,4,0:0:0:0:
130,306,132340,1,2,0:0:0:0:
249,308,132590,1,4,0:0:0:0:
252,188,132840,1,2,0:0:0:0:
114,97,133090,6,0,P|68:124|46:155,1,80,8|0,0:0|0:0,0:0:0:0:
206,109,133590,2,0,P|202:65|179:28,1,80,8|0,0:0|0:0,0:0:0:0:
47,25,134090,1,8,0:0:0:0:
137,186,134340,1,8,0:0:0:0:
305,91,134590,1,8,0:0:0:0:
305,91,135090,6,0,L|393:98,1,80,8|0,0:0|0:0,0:0:0:0:
445,200,135590,1,8,0:0:0:0:
445,200,135840,1,0,0:0:0:0:
475,27,136090,1,8,0:0:0:0:
384,97,136340,1,8,0:0:0:0:
445,200,136590,1,8,0:0:0:0:
442,247,136715,1,8,0:0:0:0:
440,294,136840,1,8,0:0:0:0:
347,360,137090,6,0,L|201:360,1,128,4|2,0:0|0:0,0:0:0:0:
138,321,137840,1,0,0:0:0:0:
141,231,138090,2,0,P|144:193|131:152,1,64,0|0,0:0|0:0,0:0:0:0:
48,164,138590,2,0,P|45:202|58:243,1,64,2|0,0:0|0:0,0:0:0:0:
141,231,139090,5,0,0:0:0:0:
222,193,139340,1,0,0:0:0:0:
268,116,139590,1,2,0:0:0:0:
267,26,139840,1,0,0:0:0:0:
267,26,140090,1,0,0:0:0:0:
268,116,140340,1,0,0:0:0:0:
314,193,140590,1,2,0:0:0:0:
395,230,140840,1,0,0:0:0:0:
268,116,141090,6,0,L|115:117,1,128,0|2,0:0|0:0,0:0:0:0:
65,66,141840,1,0,0:0:0:0:
85,198,142090,1,0,0:0:0:0:
13,144,142340,1,0,0:0:0:0:
85,198,142590,1,2,0:0:0:0:
140,116,142840,1,0,0:0:0:0:
256,192,143090,12,2,144590,0:0:0:0:
66,252,145090,6,0,B|54:173|54:173|84:196|148:195,1,176.000005371094,4|0,0:0|0:0,0:0:0:0:
146,196,145840,1,0,0:0:0:0:
254,144,146090,1,2,0:0:0:0:
132,77,146340,1,8,0:0:0:0:
159,222,146590,1,8,0:0:0:0:
238,38,146840,1,0,0:0:0:0:
44,127,147090,6,0,P|33:72|42:22,1,88.000002685547,2|0,0:0|0:0,0:0:0:0:
238,38,147590,2,0,P|249:93|243:143,1,88.000002685547,8|0,0:0|0:0,0:0:0:0:
150,214,148090,1,2,0:0:0:0:
357,144,148340,1,8,0:0:0:0:
256,300,148590,1,8,0:0:0:0:
246,124,148840,1,0,0:0:0:0:
406,256,149090,6,0,B|414:215|414:215|441:177|441:177|424:89,1,176.000005371094,2|8,0:0|0:0,0:0:0:0:
328,21,149840,1,0,0:0:0:0:
425,91,150090,1,2,0:0:0:0:
307,40,150340,1,8,0:0:0:0:
425,90,150590,1,8,0:0:0:0:
291,59,150840,1,0,0:0:0:0:
425,91,151090,6,0,P|461:58|477:10,1,88.000002685547,2|0,0:0|0:0,0:0:0:0:
291,59,151590,2,0,L|292:156,1,88.000002685547,8|0,0:0|0:0,0:0:0:0:
182,193,152090,1,2,0:0:0:0:
416,228,152340,1,8,0:0:0:0:
287,282,152590,1,8,0:0:0:0:
288,234,152715,1,8,0:0:0:0:
290,186,152840,1,8,0:0:0:0:
365,343,153090,6,0,P|288:377|201:336,1,176.000005371094,2|8,0:0|0:0,0:0:0:0:
116,248,153840,1,0,0:0:0:0:
281,141,154090,1,2,0:0:0:0:
287,282,154340,1,8,0:0:0:0:
171,137,154590,1,8,0:0:0:0:
367,215,154840,1,0,0:0:0:0:
202,234,155090,6,0,L|80:253,1,88.000002685547,2|0,0:0|0:0,0:0:0:0:
15,75,155590,2,0,L|101:95,1,88.000002685547,8|0,0:0|0:0,0:0:0:0:
194,45,156090,1,2,0:0:0:0:
165,173,156340,1,8,0:0:0:0:
350,119,156590,1,8,0:0:0:0:
342,250,156840,1,0,0:0:0:0:
266,78,157090,6,0,P|347:28|433:75,1,176.000005371094,2|8,0:0|0:0,0:0:0:0:
491,163,157840,1,0,0:0:0:0:
350,206,158090,2,0,L|349:104,1,88.000002685547,2|8,0:0|0:0,0:0:0:0:
264,279,158590,1,8,0:0:0:0:
438,246,158840,1,0,0:0:0:0:
258,187,159090,6,0,P|187:185|138:202,1,88.000002685547,2|0,0:0|0:0,0:0:0:0:
80,327,159590,2,0,P|151:329|200:312,1,88.000002685547,8|0,0:0|0:0,0:0:0:0:
258,187,160090,1,2,0:0:0:0:
136,143,160340,1,8,0:0:0:0:
286,279,160590,1,8,0:0:0:0:
368,135,160840,1,0,0:0:0:0:
356,346,161090,6,0,P|280:374|199:329,1,160,4|8,0:0|0:0,0:0:0:0:
125,259,161840,1,0,0:0:0:0:
182,153,162090,2,0,L|174:60,1,80,2|8,0:0|0:0,0:0:0:0:
62,31,162590,1,8,0:0:0:0:
37,148,162840,1,0,0:0:0:0:
175,73,163090,5,2,0:0:0:0:
286,29,163340,1,0,0:0:0:0:
267,147,163590,1,8,0:0:0:0:
175,73,163840,1,0,0:0:0:0:
227,246,164090,2,0,P|271:250|321:242,1,80,2|8,0:0|0:0,0:0:0:0:
473,161,164590,2,0,P|429:157|379:165,1,80,8|0,0:0|0:0,0:0:0:0:
306,245,165090,5,2,0:0:0:0:
393,161,165340,1,0,0:0:0:0:
208,204,165590,2,0,P|199:254|212:293,1,80,8|0,0:0|0:0,0:0:0:0:
395,324,166090,1,2,0:0:0:0:
482,240,166340,1,8,0:0:0:0:
297,283,166590,2,0,P|288:333|301:372,1,80,8|0,0:0|0:0,0:0:0:0:
483,319,167090,6,0,L|481:221,1,80,2|0,0:0|0:0,0:0:0:0:
433,128,167590,1,8,0:0:0:0:
433,128,167840,1,0,0:0:0:0:
328,186,168090,2,0,P|286:194|226:184,1,80,2|8,0:0|0:0,0:0:0:0:
212,159,168465,1,0,0:0:0:0:
193,114,168590,1,8,0:0:0:0:
57,51,168840,1,2,0:0:0:0:
57,51,168965,1,2,0:0:0:0:
151,245,170965,6,0,L|131:256,3,13.3333333333333,2|2|2|4,0:0|0:0|0:0|0:0,0:0:0:0:
