osu file format v14

[General]
AudioFilename: Ailala.mp3
AudioLeadIn: 2000
PreviewTime: 48965
Countdown: 0
SampleSet: Soft
StackLeniency: 0.7
Mode: 0
LetterboxInBreaks: 0
WidescreenStoryboard: 0

[Editor]
DistanceSpacing: 1.4
BeatDivisor: 4
GridSize: 4
TimelineZoom: 2.599999

[Metadata]
Title:Ai La La
TitleUnicode:爱啦啦
Artist:Sharlo
ArtistUnicode:Sharlo
Creator:Karen
Version:Insane
Source:
Tags:海楠 Hai Nan 夏萝 Zero__wind Xinely liangv587
BeatmapID:828065
BeatmapSetID:378314

[Difficulty]
HPDrainRate:6
CircleSize:4
OverallDifficulty:7
ApproachRate:8
SliderMultiplier:1.6
SliderTickRate:1

[Events]
//Background and Video events
0,0,"bg.jpg",0,0
//Break Periods
//Storyboard Layer 0 (Background)
//Storyboard Layer 1 (Fail)
//Storyboard Layer 2 (Pass)
//Storyboard Layer 3 (Foreground)
//Storyboard Sound Samples

[TimingPoints]
1090,500,4,2,0,65,1,0
2090,-100,4,2,1,40,0,0
2465,-100,4,2,0,65,0,0
3090,-100,4,2,1,40,0,0
3215,-100,4,2,0,65,0,0
4090,-100,4,2,1,40,0,0
4465,-100,4,2,0,65,0,0
5090,-100,4,2,1,40,0,0
5215,-100,4,2,0,65,0,0
6090,-100,4,2,1,40,0,0
6465,-100,4,2,0,65,0,0
7090,-100,4,2,1,40,0,0
7215,-100,4,2,0,65,0,0
8090,-100,4,2,1,40,0,0
8215,-100,4,2,0,65,0,0
10090,-100,4,2,1,40,0,0
10465,-100,4,2,0,65,0,0
11090,-100,4,2,1,40,0,0
11215,-100,4,2,0,65,0,0
12090,-100,4,2,1,40,0,0
12215,-100,4,2,1,65,0,0
12590,-100,4,2,1,40,0,0
12715,-100,4,2,0,65,0,0
13090,-100,4,2,1,40,0,0
13215,-100,4,2,0,65,0,0
14090,-100,4,2,1,40,0,0
14465,-100,4,2,0,65,0,0
15090,-100,4,2,1,40,0,0
15215,-100,4,2,0,65,0,0
16090,-100,4,2,1,40,0,0
16215,-100,4,2,0,65,0,0
17090,-100,4,2,0,60,0,0
18090,-100,4,2,1,40,0,0
18465,-100,4,2,0,60,0,0
19090,-100,4,2,1,40,0,0
19215,-100,4,2,0,60,0,0
20090,-100,4,2,1,40,0,0
20215,-100,4,2,1,60,0,0
20590,-100,4,2,1,40,0,0
20715,-100,4,2,0,60,0,0
21090,-100,4,2,1,40,0,0
21215,-100,4,2,0,60,0,0
22090,-100,4,2,1,40,0,0
22465,-100,4,2,0,60,0,0
23090,-100,4,2,1,40,0,0
23215,-100,4,2,0,60,0,0
24090,-100,4,2,1,40,0,0
24215,-100,4,2,0,65,0,0
24590,-100,4,2,1,40,0,0
24715,-100,4,2,0,60,0,0
25090,-100,4,2,1,40,0,0
25215,-100,4,2,0,60,0,0
26090,-100,4,2,1,40,0,0
26465,-100,4,2,0,60,0,0
27090,-100,4,2,1,40,0,0
27215,-100,4,2,0,60,0,0
28090,-100,4,2,1,40,0,0
28215,-100,4,2,1,65,0,0
28590,-100,4,2,1,40,0,0
28715,-100,4,2,0,60,0,0
29090,-100,4,2,1,40,0,0
29215,-100,4,2,0,60,0,0
30090,-100,4,2,1,40,0,0
30465,-100,4,2,0,60,0,0
31090,-100,4,2,1,40,0,0
31215,-100,4,2,0,60,0,0
32090,-100,4,2,1,40,0,0
32215,-100,4,2,0,60,0,0
34090,-100,4,2,1,40,0,0
34465,-100,4,2,0,60,0,0
35090,-100,4,2,1,40,0,0
35215,-100,4,2,0,60,0,0
36090,-100,4,2,1,40,0,0
36215,-100,4,2,1,60,0,0
36590,-100,4,2,1,40,0,0
36715,-100,4,2,0,60,0,0
37090,-100,4,2,1,40,0,0
37215,-100,4,2,0,60,0,0
38090,-100,4,2,1,40,0,0
38465,-100,4,2,0,60,0,0
39090,-100,4,2,1,40,0,0
39215,-100,4,2,0,60,0,0
40090,-100,4,2,1,40,0,0
40215,-100,4,2,0,60,0,0
40590,-100,4,2,1,40,0,0
40715,-100,4,2,0,60,0,0
41090,-100,4,2,1,40,0,0
41215,-100,4,2,0,60,0,0
42090,-100,4,2,1,40,0,0
42465,-100,4,2,0,60,0,0
43090,-100,4,2,1,40,0,0
43215,-100,4,2,0,60,0,0
44090,-100,4,2,1,40,0,0
44215,-100,4,2,1,60,0,0
44590,-100,4,2,1,40,0,0
44715,-100,4,2,0,60,0,0
45090,-100,4,2,1,40,0,0
45215,-100,4,2,0,60,0,0
46090,-100,4,2,1,40,0,0
46465,-100,4,2,0,60,0,0
47090,-100,4,2,1,40,0,0
47215,-100,4,2,0,60,0,0
48090,-100,4,2,1,40,0,0
48215,-100,4,2,0,60,0,0
49090,-100,4,2,0,70,0,1
50340,-100,4,2,1,40,0,1
50465,-100,4,2,0,70,0,1
52340,-100,4,2,1,40,0,1
52465,-100,4,2,0,70,0,1
54340,-100,4,2,1,40,0,1
54465,-100,4,2,0,70,0,1
57090,-100,4,2,0,65,0,0
58090,-100,4,2,1,40,0,0
58465,-100,4,2,0,65,0,0
59090,-100,4,2,1,40,0,0
59215,-100,4,2,0,65,0,0
60090,-100,4,2,1,40,0,0
60215,-100,4,2,1,65,0,0
60590,-100,4,2,1,40,0,0
60715,-100,4,2,0,65,0,0
61090,-100,4,2,1,40,0,0
61215,-100,4,2,0,65,0,0
62090,-100,4,2,1,40,0,0
62465,-100,4,2,0,65,0,0
63090,-100,4,2,1,40,0,0
63215,-100,4,2,0,65,0,0
64090,-100,4,2,1,40,0,0
64215,-100,4,2,0,65,0,0
65090,-100,4,2,0,60,0,0
66090,-100,4,2,1,40,0,0
66465,-100,4,2,0,60,0,0
67090,-100,4,2,1,40,0,0
67215,-100,4,2,0,60,0,0
68090,-100,4,2,1,40,0,0
68215,-100,4,2,1,60,0,0
68590,-100,4,2,1,40,0,0
68715,-100,4,2,0,60,0,0
69090,-100,4,2,1,40,0,0
69215,-100,4,2,0,60,0,0
70090,-100,4,2,1,40,0,0
70465,-100,4,2,0,60,0,0
71090,-100,4,2,1,40,0,0
71215,-100,4,2,0,60,0,0
72090,-100,4,2,1,40,0,0
72215,-100,4,2,1,60,0,0
72590,-100,4,2,1,40,0,0
72715,-100,4,2,0,60,0,0
73090,-100,4,2,1,40,0,0
73215,-100,4,2,0,60,0,0
74090,-100,4,2,1,40,0,0
74465,-100,4,2,0,60,0,0
75090,-100,4,2,1,40,0,0
75215,-100,4,2,0,60,0,0
76090,-100,4,2,1,40,0,0
76215,-100,4,2,1,60,0,0
76590,-100,4,2,1,40,0,0
76715,-100,4,2,0,60,0,0
77090,-100,4,2,1,40,0,0
77215,-100,4,2,0,60,0,0
78090,-100,4,2,1,40,0,0
78465,-100,4,2,0,60,0,0
79090,-100,4,2,1,40,0,0
79215,-100,4,2,0,60,0,0
80090,-100,4,2,1,40,0,0
80215,-100,4,2,0,60,0,0
82090,-100,4,2,1,40,0,0
82465,-100,4,2,0,60,0,0
83090,-100,4,2,1,40,0,0
83215,-100,4,2,0,60,0,0
84090,-100,4,2,1,40,0,0
84215,-100,4,2,1,60,0,0
84590,-100,4,2,1,40,0,0
84715,-100,4,2,0,60,0,0
85090,-100,4,2,1,40,0,0
85215,-100,4,2,0,60,0,0
86090,-100,4,2,1,40,0,0
86465,-100,4,2,0,60,0,0
87090,-100,4,2,1,40,0,0
87215,-100,4,2,0,60,0,0
88090,-100,4,2,1,40,0,0
88215,-100,4,2,0,60,0,0
88590,-100,4,2,1,40,0,0
88715,-100,4,2,0,60,0,0
89090,-100,4,2,1,40,0,0
89215,-100,4,2,0,60,0,0
90090,-100,4,2,1,40,0,0
90465,-100,4,2,0,60,0,0
91090,-100,4,2,1,40,0,0
91215,-100,4,2,0,60,0,0
92090,-100,4,2,1,40,0,0
92215,-100,4,2,1,60,0,0
92715,-100,4,2,0,60,0,0
93090,-100,4,2,1,40,0,0
93215,-100,4,2,0,60,0,0
94090,-100,4,2,1,40,0,0
94465,-100,4,2,0,60,0,0
95090,-100,4,2,1,40,0,0
95215,-100,4,2,0,60,0,0
96090,-100,4,2,1,40,0,0
96215,-100,4,2,0,60,0,0
97090,-125,4,2,0,40,0,0
105090,-100,4,2,0,65,0,0
106090,-100,4,2,1,40,0,0
106465,-100,4,2,0,65,0,0
107090,-100,4,2,1,40,0,0
107215,-100,4,2,0,65,0,0
108090,-100,4,2,1,40,0,0
108215,-100,4,2,1,65,0,0
108715,-100,4,2,0,65,0,0
109090,-100,4,2,1,40,0,0
109215,-100,4,2,0,65,0,0
110090,-100,4,2,1,40,0,0
110465,-100,4,2,0,65,0,0
111090,-100,4,2,1,40,0,0
111215,-100,4,2,0,65,0,0
112090,-100,4,2,1,40,0,0
112215,-100,4,2,0,65,0,0
113090,-100,4,2,1,40,0,0
113215,-100,4,2,0,65,0,0
114090,-100,4,2,1,40,0,0
115215,-100,4,2,0,65,0,0
116090,-100,4,2,1,40,0,0
116465,-100,4,2,0,65,0,0
117090,-100,4,2,1,40,0,0
117215,-100,4,2,0,65,0,0
118090,-100,4,2,1,40,0,0
118465,-100,4,2,0,65,0,0
119090,-100,4,2,1,40,0,0
119465,-100,4,2,0,65,0,0
119840,-100,4,2,1,40,0,0
120465,-100,4,2,0,65,0,0
121090,-100,4,2,0,60,0,0
122090,-100,4,2,1,40,0,0
122465,-100,4,2,0,60,0,0
123090,-100,4,2,1,40,0,0
123215,-100,4,2,0,60,0,0
124090,-100,4,2,1,40,0,0
124215,-100,4,2,1,60,0,0
124590,-100,4,2,1,40,0,0
124715,-100,4,2,0,60,0,0
125090,-100,4,2,1,40,0,0
125215,-100,4,2,0,60,0,0
126090,-100,4,2,1,40,0,0
126465,-100,4,2,0,60,0,0
127090,-100,4,2,1,40,0,0
127215,-100,4,2,0,60,0,0
128090,-100,4,2,1,40,0,0
128215,-100,4,2,0,60,0,0
128590,-100,4,2,1,40,0,0
128715,-100,4,2,0,5,0,0
128840,-100,4,2,1,40,0,0
128965,-100,4,2,0,5,0,0
129090,-100,4,2,1,40,0,0
129215,-100,4,2,0,60,0,0
130090,-100,4,2,1,40,0,0
130465,-100,4,2,0,60,0,0
131090,-100,4,2,1,40,0,0
131215,-100,4,2,0,60,0,0
132090,-100,4,2,1,40,0,0
132215,-100,4,2,1,60,0,0
132590,-100,4,2,1,40,0,0
132715,-100,4,2,0,60,0,0
133090,-100,4,2,1,40,0,0
133215,-100,4,2,0,60,0,0
134090,-100,4,2,1,40,0,0
134465,-100,4,2,0,60,0,0
135090,-100,4,2,1,40,0,0
135215,-100,4,2,0,60,0,0
136090,-100,4,2,1,40,0,0
136215,-100,4,2,0,60,0,0
137090,-125,4,2,0,50,0,0
145090,-90.9090909090909,4,2,0,70,0,1
146340,-90.9090909090909,4,2,1,40,0,1
146465,-90.9090909090909,4,2,0,70,0,1
148340,-90.9090909090909,4,2,1,40,0,1
148465,-90.9090909090909,4,2,0,70,0,1
150340,-90.9090909090909,4,2,1,40,0,1
150465,-90.9090909090909,4,2,0,70,0,1
152590,-100,4,2,0,70,0,0
153090,-90.9090909090909,4,2,0,70,0,1
154340,-90.9090909090909,4,2,1,40,0,1
154465,-90.9090909090909,4,2,0,70,0,1
156340,-90.9090909090909,4,2,1,40,0,1
156465,-90.9090909090909,4,2,0,70,0,1
158340,-90.9090909090909,4,2,1,40,0,1
158465,-90.9090909090909,4,2,0,70,0,1
160340,-90.9090909090909,4,2,1,40,0,1
160465,-90.9090909090909,4,2,0,70,0,1
161090,-100,4,2,0,65,0,0
162340,-100,4,2,1,40,0,0
162465,-100,4,2,0,65,0,0
164340,-100,4,2,1,40,0,0
164465,-100,4,2,0,65,0,0
166340,-100,4,2,1,40,0,0
166465,-100,4,2,0,65,0,0
170965,-100,4,2,0,80,0,0

[Colours]
Combo1 : 255,221,221
Combo2 : 255,255,147
Combo3 : 255,189,123
Combo4 : 255,121,121

[HitObjects]
159,251,1090,5,4,0:0:0:0:
74,166,1340,1,0,0:0:0:0:
159,81,1590,1,8,0:0:0:0:
243,166,1840,1,0,0:0:0:0:
99,227,2090,1,8,0:0:0:0:
99,106,2340,1,8,0:0:0:0:
219,106,2590,1,8,0:0:0:0:
218,226,2840,1,0,0:0:0:0:
303,310,3090,6,0,P|350:317|390:305,1,80,8|0,0:0|0:0,0:0:0:0:
450,184,3590,2,0,P|403:177|363:189,1,80,8|0,0:0|0:0,0:0:0:0:
491,281,4090,1,8,0:0:0:0:
491,281,4340,1,8,0:0:0:0:
512,96,4590,1,8,0:0:0:0:
372,184,4840,1,2,0:0:0:0:
372,184,4965,1,2,0:0:0:0:
372,184,5090,5,8,0:0:0:0:
471,251,5340,1,0,0:0:0:0:
258,239,5590,1,8,0:0:0:0:
372,184,5840,1,0,0:0:0:0:
292,93,6090,1,8,0:0:0:0:
372,184,6340,1,8,0:0:0:0:
374,8,6590,1,8,0:0:0:0:
292,93,6840,1,0,0:0:0:0:
431,94,7090,6,0,L|536:96,1,80,8|0,0:0|0:0,0:0:0:0:
374,8,7590,1,8,0:0:0:0:
374,8,7840,1,0,0:0:0:0:
223,165,8090,2,0,L|225:277,1,80,8|8,0:0|0:0,0:0:0:0:
138,86,8590,2,0,L|162:43,1,40,8|8,0:0|0:0,0:0:0:0:
136,13,8840,1,8,0:0:0:0:
43,145,9090,6,0,P|36:183|56:241,1,80,4|0,0:0|0:0,0:0:0:0:
173,324,9590,1,8,0:0:0:0:
142,178,9840,1,0,0:0:0:0:
209,15,10090,2,0,P|247:12|302:39,1,80,8|8,0:0|0:0,0:0:0:0:
370,165,10590,1,8,0:0:0:0:
230,118,10840,1,0,0:0:0:0:
323,297,11090,5,8,0:0:0:0:
370,165,11340,1,0,0:0:0:0:
212,279,11590,1,8,0:0:0:0:
406,368,11840,1,0,0:0:0:0:
370,165,12090,2,0,L|368:72,1,80,4|2,0:0|0:0,0:0:0:0:
371,244,12590,2,0,L|369:151,1,80,4|2,0:0|0:0,0:0:0:0:
278,50,13090,5,8,0:0:0:0:
463,143,13340,1,0,0:0:0:0:
278,197,13590,2,0,P|224:207|174:197,1,80,8|0,0:0|0:0,0:0:0:0:
123,165,13965,1,0,0:0:0:0:
123,165,14090,2,0,P|113:207|130:259,1,80,8|8,0:0|0:0,0:0:0:0:
227,338,14590,1,8,0:0:0:0:
12,248,14840,1,0,0:0:0:0:
199,204,15090,6,0,P|208:163|198:120,1,80,8|0,0:0|0:0,0:0:0:0:
57,336,15590,2,0,L|145:348,1,80,8|0,0:0|0:0,0:0:0:0:
292,255,16090,1,8,0:0:0:0:
433,258,16340,2,0,L|439:315,1,40,8|0,0:0|0:0,0:0:0:0:
386,358,16590,1,8,0:0:0:0:
346,359,16715,1,2,0:0:0:0:
312,337,16840,1,2,0:0:0:0:
293,301,16965,1,2,0:0:0:0:
291,254,17090,5,4,0:0:0:0:
222,373,17340,1,0,0:0:0:0:
384,276,17590,1,8,0:0:0:0:
207,190,17840,1,0,0:0:0:0:
312,337,18090,1,8,0:0:0:0:
295,128,18340,1,8,0:0:0:0:
189,285,18590,1,8,0:0:0:0:
384,276,18840,1,0,0:0:0:0:
207,190,19090,6,0,P|166:193|122:217,1,80,8|0,0:0|0:0,0:0:0:0:
55,329,19590,2,0,P|15:296|-2:254,1,80,8|0,0:0|0:0,0:0:0:0:
12,87,20090,1,4,0:0:0:0:
45,102,20340,1,2,0:0:0:0:
182,33,20590,1,4,0:0:0:0:
171,71,20840,1,2,0:0:0:0:
131,208,21090,6,0,P|174:215|229:203,1,80,8|0,0:0|0:0,0:0:0:0:
295,133,21590,1,8,0:0:0:0:
243,312,21840,1,0,0:0:0:0:
388,212,22090,1,8,0:0:0:0:
209,209,22340,1,8,0:0:0:0:
388,212,22590,1,8,0:0:0:0:
295,133,22840,1,0,0:0:0:0:
357,314,23090,5,8,0:0:0:0:
295,133,23340,1,0,0:0:0:0:
243,312,23590,1,8,0:0:0:0:
388,212,23840,1,0,0:0:0:0:
209,209,24090,2,0,P|167:195|129:168,1,80,4|8,0:0|0:0,0:0:0:0:
287,205,24590,2,0,P|238:212|190:203,1,80,4|2,0:0|0:0,0:0:0:0:
83,117,25090,5,8,0:0:0:0:
208,208,25340,1,0,0:0:0:0:
152,58,25590,1,8,0:0:0:0:
132,265,25840,1,0,0:0:0:0:
240,107,26090,2,0,P|284:101|340:114,1,80,8|8,0:0|0:0,0:0:0:0:
416,245,26590,1,8,0:0:0:0:
414,222,27090,5,8,0:0:0:0:
362,330,27340,1,0,0:0:0:0:
412,200,27590,1,8,0:0:0:0:
469,327,27840,1,0,0:0:0:0:
335,244,28090,2,0,P|289:240|244:260,1,80,4|2,0:0|0:0,0:0:0:0:
412,200,28590,2,0,P|379:168|328:155,1,80,4|2,0:0|0:0,0:0:0:0:
174,254,29090,6,0,P|182:292|220:324,1,80,8|0,0:0|0:0,0:0:0:0:
347,156,29590,2,0,L|344:58,1,80,8|0,0:0|0:0,0:0:0:0:
229,110,30090,1,8,0:0:0:0:
282,240,30340,1,8,0:0:0:0:
452,146,30590,1,8,0:0:0:0:
452,146,31090,6,0,P|458:101|445:58,1,80,8|0,0:0|0:0,0:0:0:0:
338,21,31590,1,8,0:0:0:0:
328,212,31840,1,0,0:0:0:0:
328,212,32090,1,8,0:0:0:0:
452,146,32340,1,8,0:0:0:0:
266,91,32590,1,8,0:0:0:0:
218,82,32715,1,8,0:0:0:0:
171,93,32840,1,8,0:0:0:0:
171,93,33090,6,0,P|214:83|279:97,1,80,4|0,0:0|0:0,0:0:0:0:
184,219,33590,2,0,P|145:227|106:222,1,80,8|0,0:0|0:0,0:0:0:0:
14,110,34090,1,8,0:0:0:0:
73,322,34340,1,8,0:0:0:0:
95,143,34590,1,8,0:0:0:0:
26,248,34840,1,0,0:0:0:0:
184,219,35090,6,0,L|301:218,1,80,8|0,0:0|0:0,0:0:0:0:
454,279,35590,2,0,L|374:279,1,80,8|0,0:0|0:0,0:0:0:0:
263,218,36090,1,4,0:0:0:0:
358,145,36340,1,2,0:0:0:0:
263,218,36590,1,4,0:0:0:0:
358,145,36840,1,2,0:0:0:0:
297,313,37090,6,0,P|257:320|205:301,1,80,8|0,0:0|0:0,0:0:0:0:
145,214,37590,1,8,0:0:0:0:
263,218,37840,1,0,0:0:0:0:
385,100,38090,1,8,0:0:0:0:
265,98,38340,1,8,0:0:0:0:
263,218,38590,1,8,0:0:0:0:
382,220,38840,1,0,0:0:0:0:
484,78,39090,6,0,P|469:41|429:11,1,80,8|0,0:0|0:0,0:0:0:0:
265,98,39590,2,0,P|276:50|314:17,1,80,8|0,0:0|0:0,0:0:0:0:
376,103,40090,1,4,0:0:0:0:
392,287,40340,1,8,0:0:0:0:
384,193,40590,1,4,0:0:0:0:
400,377,40840,1,2,0:0:0:0:
472,239,41090,6,0,B|502:232|502:232|489:296,1,80,8|0,0:0|0:0,0:0:0:0:
301,231,41590,2,0,B|271:238|271:238|284:174,1,80,8|0,0:0|0:0,0:0:0:0:
391,287,42090,2,0,P|333:333|239:315,1,160,8|8,0:0|0:0,0:0:0:0:
156,250,42840,1,0,0:0:0:0:
329,334,43090,5,8,0:0:0:0:
152,271,43340,1,0,0:0:0:0:
298,148,43590,1,8,0:0:0:0:
148,294,43840,1,0,0:0:0:0:
380,230,44090,1,4,0:0:0:0:
189,174,44340,1,2,0:0:0:0:
243,356,44590,1,4,0:0:0:0:
267,263,44840,1,2,0:0:0:0:
189,174,45090,6,0,L|86:173,1,80,8|0,0:0|0:0,0:0:0:0:
109,173,45590,1,8,0:0:0:0:
234,66,45840,1,0,0:0:0:0:
189,174,46090,1,8,0:0:0:0:
141,10,46340,1,8,0:0:0:0:
341,57,46590,1,8,0:0:0:0:
341,57,47090,6,0,B|381:45|425:53,1,80,8|0,0:0|0:0,0:0:0:0:
491,167,47590,2,0,B|451:179|407:171,1,80,8|0,0:0|0:0,0:0:0:0:
248,102,48090,1,8,0:0:0:0:
281,192,48340,1,8,0:0:0:0:
248,102,48590,5,8,0:0:0:0:
264,147,48715,1,8,0:0:0:0:
281,192,48840,1,8,0:0:0:0:
281,192,49090,6,0,P|201:165|121:211,1,160,4|8,0:0|0:0,0:0:0:0:
117,288,49840,1,0,0:0:0:0:
197,339,50090,2,0,P|210:286|205:252,1,80,2|8,0:0|0:0,0:0:0:0:
37,239,50590,2,0,P|24:290|33:329,1,80,8|0,0:0|0:0,0:0:0:0:
117,288,51090,5,2,0:0:0:0:
135,194,51340,1,0,0:0:0:0:
157,100,51590,1,8,0:0:0:0:
65,128,51840,1,0,0:0:0:0:
231,165,52090,1,2,0:0:0:0:
326,166,52340,1,8,0:0:0:0:
421,167,52590,1,8,0:0:0:0:
372,249,52840,1,0,0:0:0:0:
372,81,53090,6,0,P|453:75|517:145,1,160,2|8,0:0|0:0,0:0:0:0:
491,218,53840,1,0,0:0:0:0:
372,249,54090,1,2,0:0:0:0:
308,147,54340,1,8,0:0:0:0:
491,218,54590,1,8,0:0:0:0:
333,354,54840,1,0,0:0:0:0:
292,248,55090,6,0,L|391:249,1,80,2|0,0:0|0:0,0:0:0:0:
512,331,55590,2,0,L|432:330,1,80,8|0,0:0|0:0,0:0:0:0:
292,248,56090,1,2,0:0:0:0:
333,354,56340,1,8,0:0:0:0:
406,187,56590,1,8,0:0:0:0:
379,148,56715,1,8,0:0:0:0:
338,125,56840,1,8,0:0:0:0:
338,125,57090,6,0,L|505:121,1,160,4|8,0:0|0:0,0:0:0:0:
486,216,57840,1,0,0:0:0:0:
408,87,58090,2,0,P|434:51|477:25,1,80,8|8,0:0|0:0,0:0:0:0:
382,208,58590,1,8,0:0:0:0:
497,121,58840,1,0,0:0:0:0:
309,43,59090,6,0,L|210:40,1,80,8|0,0:0|0:0,0:0:0:0:
116,83,59590,1,8,0:0:0:0:
116,83,59840,1,0,0:0:0:0:
205,163,60090,2,0,P|213:205|169:205,1,80,4|2,0:0|0:0,0:0:0:0:
7,209,60590,2,0,P|-5:174|27:157,1,80,4|2,0:0|0:0,0:0:0:0:
97,351,61090,5,8,0:0:0:0:
97,219,61340,1,0,0:0:0:0:
8,369,61590,1,8,0:0:0:0:
6,208,61840,1,0,0:0:0:0:
97,351,62090,1,8,0:0:0:0:
97,219,62340,1,8,0:0:0:0:
186,369,62590,1,8,0:0:0:0:
184,214,62840,1,0,0:0:0:0:
278,288,63090,6,0,P|320:293|381:282,1,80,8|0,0:0|0:0,0:0:0:0:
509,329,63590,2,0,B|476:353|433:349,1,80,8|0,0:0|0:0,0:0:0:0:
317,171,64090,1,8,0:0:0:0:
343,53,64340,2,0,L|400:56,1,40,8|0,0:0|0:0,0:0:0:0:
462,97,64590,1,8,0:0:0:0:
441,131,64715,1,2,0:0:0:0:
441,171,64840,1,2,0:0:0:0:
453,209,64965,1,2,0:0:0:0:
479,238,65090,5,4,0:0:0:0:
317,171,65340,1,0,0:0:0:0:
462,97,65590,1,8,0:0:0:0:
393,263,65840,1,0,0:0:0:0:
347,83,66090,2,0,P|290:82|256:97,1,80,8|8,0:0|0:0,0:0:0:0:
161,197,66590,1,8,0:0:0:0:
172,38,66840,1,0,0:0:0:0:
259,194,67090,6,0,P|251:244|227:273,1,80,8|0,0:0|0:0,0:0:0:0:
63,187,67590,2,0,P|79:143|110:112,1,80,8|0,0:0|0:0,0:0:0:0:
133,284,68090,1,4,0:0:0:0:
15,258,68340,1,2,0:0:0:0:
130,305,68590,1,4,0:0:0:0:
20,354,68840,1,2,0:0:0:0:
126,325,69090,6,0,L|215:326,1,80,8|0,0:0|0:0,0:0:0:0:
321,239,69590,1,8,0:0:0:0:
293,380,69840,1,0,0:0:0:0:
224,196,70090,1,8,0:0:0:0:
321,239,70340,1,8,0:0:0:0:
414,219,70590,1,8,0:0:0:0:
293,380,70840,1,0,0:0:0:0:
321,239,71090,6,0,P|327:187|313:148,1,80,8|0,0:0|0:0,0:0:0:0:
249,63,71590,2,0,L|341:56,1,80,8|0,0:0|0:0,0:0:0:0:
475,102,72090,1,4,0:0:0:0:
414,219,72340,1,2,0:0:0:0:
486,125,72590,1,4,0:0:0:0:
487,311,72840,1,2,0:0:0:0:
317,274,73090,6,0,L|231:274,1,80,8|0,0:0|0:0,0:0:0:0:
91,165,73590,2,0,P|84:127|99:63,1,80,8|0,0:0|0:0,0:0:0:0:
207,105,74090,1,8,0:0:0:0:
133,230,74340,1,8,0:0:0:0:
89,86,74590,2,0,P|84:135|146:239,1,160,8|8,0:0|0:0,0:0:0:0:
245,184,75340,5,0,0:0:0:0:
355,231,75590,2,0,P|363:282|351:322,1,80,8|0,0:0|0:0,0:0:0:0:
245,354,76090,1,4,0:0:0:0:
356,309,76340,1,2,0:0:0:0:
241,273,76590,1,4,0:0:0:0:
355,231,76840,1,2,0:0:0:0:
190,193,77090,6,0,P|158:232|148:265,1,80,8|0,0:0|0:0,0:0:0:0:
356,309,77590,2,0,L|461:305,1,80,8|0,0:0|0:0,0:0:0:0:
496,202,78090,1,8,0:0:0:0:
435,305,78340,1,8,0:0:0:0:
386,140,78590,1,8,0:0:0:0:
386,140,79090,6,0,P|429:145|479:133,1,80,8|0,0:0|0:0,0:0:0:0:
458,18,79590,2,0,P|415:13|365:25,1,80,8|0,0:0|0:0,0:0:0:0:
282,91,80090,1,8,0:0:0:0:
181,25,80340,1,8,0:0:0:0:
113,123,80590,1,8,0:0:0:0:
119,170,80715,1,8,0:0:0:0:
139,213,80840,1,8,0:0:0:0:
139,213,81090,6,0,P|118:167|117:110,1,80,4|0,0:0|0:0,0:0:0:0:
181,25,81590,1,8,0:0:0:0:
181,25,81840,1,0,0:0:0:0:
202,150,82090,1,8,0:0:0:0:
80,11,82340,1,8,0:0:0:0:
265,82,82590,1,8,0:0:0:0:
139,213,82840,1,0,0:0:0:0:
75,90,83090,6,0,L|79:10,1,80,8|0,0:0|0:0,0:0:0:0:
37,189,83590,1,8,0:0:0:0:
170,117,83840,1,0,0:0:0:0:
252,259,84090,2,0,P|260:307|247:352,1,80,4|2,0:0|0:0,0:0:0:0:
303,177,84590,2,0,P|334:213|347:263,1,80,4|2,0:0|0:0,0:0:0:0:
202,150,85090,6,0,P|221:113|276:79,1,80,8|0,0:0|0:0,0:0:0:0:
345,78,85590,1,8,0:0:0:0:
183,14,85840,1,0,0:0:0:0:
303,177,86090,2,0,L|407:175,1,80,8|8,0:0|0:0,0:0:0:0:
471,213,86590,1,8,0:0:0:0:
451,306,86840,1,0,0:0:0:0:
382,175,87090,6,0,P|385:130|408:79,1,80,8|0,0:0|0:0,0:0:0:0:
471,213,87590,1,8,0:0:0:0:
451,306,87840,1,0,0:0:0:0:
314,253,88090,2,0,L|211:258,1,80,4|10,0:0|0:0,0:0:0:0:
164,190,88590,1,4,0:0:0:0:
314,253,88840,1,2,0:0:0:0:
73,243,89090,6,0,P|60:200|69:149,1,80,8|0,0:0|0:0,0:0:0:0:
164,190,89590,1,8,0:0:0:0:
117,351,89840,1,0,0:0:0:0:
73,243,90090,1,8,0:0:0:0:
202,356,90340,1,8,0:0:0:0:
265,175,90590,2,0,P|224:104|149:89,1,160,8|8,0:0|0:0,0:0:0:0:
304,71,91340,5,0,0:0:0:0:
164,190,91590,1,8,0:0:0:0:
219,8,91840,1,0,0:0:0:0:
265,175,92090,2,0,B|267:221|267:221|320:208,1,80,4|2,0:0|0:0,0:0:0:0:
482,325,92590,2,0,B|480:279|480:279|448:288,1,80,4|2,0:0|0:0,0:0:0:0:
344,343,93090,5,8,0:0:0:0:
427,168,93340,1,0,0:0:0:0:
448,288,93590,1,8,0:0:0:0:
317,120,93840,1,0,0:0:0:0:
427,168,94090,1,8,0:0:0:0:
235,213,94340,1,8,0:0:0:0:
235,213,94590,1,8,0:0:0:0:
235,213,95090,6,0,P|195:225|139:210,1,80,8|0,0:0|0:0,0:0:0:0:
60,77,95590,1,8,0:0:0:0:
186,122,95840,1,0,0:0:0:0:
74,294,96090,1,8,0:0:0:0:
38,206,96340,1,8,0:0:0:0:
74,294,96590,5,8,0:0:0:0:
56,250,96715,1,8,0:0:0:0:
38,206,96840,1,8,0:0:0:0:
181,311,97090,6,0,P|243:290|312:316,1,128,4|8,0:0|0:0,0:0:0:0:
374,357,97840,1,0,0:0:0:0:
453,316,98090,2,0,P|459:273|453:240,1,64,2|0,0:0|0:0,0:0:0:0:
374,178,98590,2,0,P|368:221|374:254,1,64,8|0,0:0|0:0,0:0:0:0:
458,141,99090,5,2,0:0:0:0:
374,178,99340,1,0,0:0:0:0:
286,160,99590,1,8,0:0:0:0:
231,88,99840,1,0,0:0:0:0:
286,160,100090,1,2,0:0:0:0:
374,178,100340,1,0,0:0:0:0:
458,141,100590,1,8,0:0:0:0:
491,58,100840,1,0,0:0:0:0:
356,21,101090,5,2,0:0:0:0:
356,21,101590,2,0,L|276:21,1,64,8|0,0:0|0:0,0:0:0:0:
219,73,102090,1,2,0:0:0:0:
192,158,102340,1,0,0:0:0:0:
131,91,102590,1,8,0:0:0:0:
219,73,102840,1,0,0:0:0:0:
256,192,103090,12,8,104590,0:0:0:0:
184,108,105090,6,0,P|164:141|161:190,1,80,4|0,0:0|0:0,0:0:0:0:
350,181,105590,2,0,P|345:141|325:107,1,80,8|0,0:0|0:0,0:0:0:0:
159,181,106090,2,0,L|192:284,1,80,8|8,0:0|0:0,0:0:0:0:
325,257,106590,2,0,L|349:180,1,80,8|0,0:0|0:0,0:0:0:0:
256,80,107090,5,8,0:0:0:0:
256,176,107340,1,0,0:0:0:0:
160,52,107590,1,8,0:0:0:0:
352,52,107840,1,0,0:0:0:0:
457,108,108090,2,0,P|471:69|462:13,1,80,4|2,0:0|0:0,0:0:0:0:
370,148,108590,2,0,L|374:244,1,80,4|2,0:0|0:0,0:0:0:0:
360,347,109090,5,8,0:0:0:0:
460,281,109340,1,0,0:0:0:0:
360,347,109590,1,8,0:0:0:0:
373,227,109840,1,0,0:0:0:0:
360,347,110090,1,8,0:0:0:0:
276,260,110340,1,8,0:0:0:0:
360,347,110590,1,8,0:0:0:0:
460,281,110840,1,0,0:0:0:0:
302,175,111090,6,0,L|206:179,1,80,8|0,0:0|0:0,0:0:0:0:
98,259,111590,2,0,P|90:302|112:358,1,80,8|0,0:0|0:0,0:0:0:0:
212,298,112090,1,8,0:0:0:0:
75,168,112340,1,8,0:0:0:0:
144,70,112590,1,8,0:0:0:0:
190,59,112715,1,8,0:0:0:0:
236,69,112840,1,8,0:0:0:0:
336,197,113090,5,8,0:0:0:0:
366,105,113340,1,2,0:0:0:0:
366,105,113465,1,2,0:0:0:0:
366,105,113590,2,0,L|359:44,1,40,10|2,0:0|0:0,0:0:0:0:
455,23,113840,2,0,L|459:62,1,40,2|2,0:0|0:0,0:0:0:0:
444,150,114090,5,10,0:0:0:0:
431,188,114215,1,2,0:0:0:0:
446,225,114340,1,10,0:0:0:0:
432,262,114465,1,2,0:0:0:0:
444,300,114590,1,12,0:0:0:0:
334,349,114840,1,4,0:0:0:0:
234,182,115090,5,8,0:0:0:0:
338,242,115340,1,0,0:0:0:0:
334,349,115590,1,8,0:0:0:0:
431,188,115840,1,8,0:0:0:0:
234,182,116090,2,0,P|180:188|135:209,1,80,8|8,0:0|0:0,0:0:0:0:
140,316,116590,1,8,0:0:0:0:
44,244,116840,1,2,0:0:0:0:
44,244,116965,1,2,0:0:0:0:
44,244,117090,6,0,L|47:157,1,80,10|2,0:0|0:0,0:0:0:0:
156,49,117590,2,0,L|208:64,1,40,10|2,0:0|0:0,0:0:0:0:
274,22,117840,1,2,0:0:0:0:
142,138,118090,2,0,L|194:153,1,40,10|2,0:0|0:0,0:0:0:0:
260,111,118340,1,10,0:0:0:0:
125,233,118590,2,0,L|177:248,1,40,10|2,0:0|0:0,0:0:0:0:
243,206,118840,1,2,0:0:0:0:
214,359,119090,5,10,0:0:0:0:
125,233,119340,1,4,0:0:0:0:
127,328,119590,1,8,0:0:0:0:
243,206,119840,1,4,0:0:0:0:
317,300,120090,2,8,L|385:299,1,40,10|2,0:0|0:0,0:0:0:0:
439,344,120340,1,4,0:0:0:0:
439,344,120590,5,10,0:0:0:0:
449,297,120715,1,2,0:0:0:0:
436,250,120840,1,2,0:0:0:0:
403,214,120965,1,2,0:0:0:0:
356,204,121090,6,0,L|269:204,1,80,4|0,0:0|0:0,0:0:0:0:
356,299,121590,1,8,0:0:0:0:
464,144,121840,1,0,0:0:0:0:
317,115,122090,1,8,0:0:0:0:
356,204,122340,1,8,0:0:0:0:
191,132,122590,1,8,0:0:0:0:
269,189,122840,1,0,0:0:0:0:
91,224,123090,5,8,0:0:0:0:
186,223,123340,1,0,0:0:0:0:
142,308,123590,1,8,0:0:0:0:
44,140,123840,1,0,0:0:0:0:
53,310,124090,2,0,P|65:354|105:387,1,80,4|2,0:0|0:0,0:0:0:0:
127,231,124590,2,0,P|129:278|144:312,1,80,4|2,0:0|0:0,0:0:0:0:
218,346,124965,1,2,0:0:0:0:
218,346,125090,6,0,L|320:348,1,80,8|0,0:0|0:0,0:0:0:0:
382,301,125590,1,8,0:0:0:0:
463,351,125840,1,0,0:0:0:0:
382,301,126090,1,8,0:0:0:0:
339,214,126340,1,8,0:0:0:0:
354,119,126590,1,8,0:0:0:0:
420,49,126840,1,0,0:0:0:0:
436,218,127090,5,8,0:0:0:0:
271,77,127340,1,0,0:0:0:0:
339,214,127590,1,8,0:0:0:0:
470,131,127840,1,0,0:0:0:0:
249,171,128090,2,0,L|154:169,1,80,4|8,0:0|0:0,0:0:0:0:
64,73,128590,2,0,L|118:56,1,40,6|0,0:0|0:0,0:0:0:0:
169,169,128840,2,0,L|158:230,1,40,6|0,0:0|0:0,0:0:0:0:
43,261,129090,6,0,L|42:149,1,80,8|0,0:0|0:0,0:0:0:0:
184,70,129590,1,8,0:0:0:0:
249,171,129840,1,0,0:0:0:0:
129,186,130090,1,8,0:0:0:0:
285,61,130340,1,8,0:0:0:0:
299,266,130590,2,0,B|329:288|329:288|380:244|464:292,1,160,8|8,0:0|0:0,0:0:0:0:
499,360,131340,5,0,0:0:0:0:
387,359,131590,1,8,0:0:0:0:
448,185,131840,1,0,0:0:0:0:
364,99,132090,2,0,P|310:91|265:104,1,80,4|2,0:0|0:0,0:0:0:0:
448,185,132590,2,0,P|475:142|481:106,1,80,4|2,0:0|0:0,0:0:0:0:
285,95,133090,5,8,0:0:0:0:
338,202,133340,1,0,0:0:0:0:
333,19,133590,2,0,P|283:9|239:17,1,80,8|0,0:0|0:0,0:0:0:0:
148,117,134090,1,8,0:0:0:0:
249,180,134340,1,8,0:0:0:0:
254,12,134590,1,8,0:0:0:0:
254,12,135090,6,0,L|254:112,1,80,8|0,0:0|0:0,0:0:0:0:
148,197,135590,2,0,L|148:117,1,80,8|0,0:0|0:0,0:0:0:0:
256,216,136090,1,8,0:0:0:0:
256,312,136340,1,8,0:0:0:0:
256,216,136590,5,8,0:0:0:0:
256,264,136715,1,8,0:0:0:0:
256,312,136840,1,8,0:0:0:0:
355,363,137090,6,0,B|376:320|360:271|360:271|402:309,1,128,4|2,0:0|0:0,0:0:0:0:
451,353,137840,1,0,0:0:0:0:
469,265,138090,2,0,P|477:230|468:192,1,64
413,109,138590,2,0,L|495:106,1,64,2|0,0:0|0:0,0:0:0:0:
386,17,139090,5,0,0:0:0:0:
328,85,139340,1,0,0:0:0:0:
267,18,139590,1,2,0:0:0:0:
208,86,139840,1,0,0:0:0:0:
142,24,140090,2,0,P|119:72|120:100,1,64
208,150,140590,2,0,L|208:71,1,64,2|0,0:0|0:0,0:0:0:0:
309,182,141090,5,0,0:0:0:0:
309,182,141590,2,0,P|308:241|297:271,1,64,2|0,0:0|0:0,0:0:0:0:
252,316,142090,1,0,0:0:0:0:
170,278,142340,1,0,0:0:0:0:
227,209,142590,1,2,0:0:0:0:
252,316,142840,1,0,0:0:0:0:
256,192,143090,12,2,144590,0:0:0:0:
176,232,145090,6,0,B|155:301|200:350|200:350|235:311|225:280,1,176.000005371094,4|8,0:0|0:0,0:0:0:0:
249,144,145840,1,0,0:0:0:0:
176,232,146090,1,2,0:0:0:0:
196,33,146340,1,8,0:0:0:0:
349,152,146590,1,8,0:0:0:0:
147,129,146840,1,0,0:0:0:0:
353,56,147090,6,0,P|409:79|434:109,1,88.000002685547,2|0,0:0|0:0,0:0:0:0:
379,231,147590,2,0,P|353:189|350:136,1,88.000002685547,8|0,0:0|0:0,0:0:0:0:
507,44,148090,1,2,0:0:0:0:
490,231,148340,1,8,0:0:0:0:
348,151,148590,1,8,0:0:0:0:
499,137,148840,1,0,0:0:0:0:
473,363,149090,5,2,0:0:0:0:
473,363,149590,2,0,L|360:355,1,88.000002685547,8|0,0:0|0:0,0:0:0:0:
244,241,150090,1,2,0:0:0:0:
285,337,150340,1,8,0:0:0:0:
244,241,150590,1,8,0:0:0:0:
343,204,150840,1,0,0:0:0:0:
285,338,151090,5,2,0:0:0:0:
148,289,151340,1,0,0:0:0:0:
207,152,151590,1,8,0:0:0:0:
343,204,151840,1,0,0:0:0:0:
148,289,152090,2,0,B|105:310|105:310|48:290,1,88.000002685547,2|8,0:0|0:0,0:0:0:0:
70,120,152590,1,8,0:0:0:0:
115,138,152715,1,8,0:0:0:0:
80,171,152840,1,8,0:0:0:0:
80,171,153090,6,0,B|118:136|118:136|243:136,1,176.000005371094,2|8,0:0|0:0,0:0:0:0:
322,66,153840,1,0,0:0:0:0:
311,214,154090,1,2,0:0:0:0:
242,136,154340,1,8,0:0:0:0:
322,66,154590,1,8,0:0:0:0:
399,0,154840,1,0,0:0:0:0:
174,54,155090,5,2,0:0:0:0:
242,136,155340,1,0,0:0:0:0:
322,66,155590,1,8,0:0:0:0:
399,0,155840,1,0,0:0:0:0:
380,152,156090,1,2,0:0:0:0:
174,54,156340,1,8,0:0:0:0:
394,134,156590,1,8,0:0:0:0:
174,54,156840,1,0,0:0:0:0:
410,114,157090,5,2,0:0:0:0:
410,114,157590,2,0,P|446:88|482:37,1,88.000002685547,8|0,0:0|0:0,0:0:0:0:
299,83,158090,1,2,0:0:0:0:
299,83,158340,1,8,0:0:0:0:
452,220,158590,1,8,0:0:0:0:
452,220,158840,1,0,0:0:0:0:
410,114,159090,5,2,0:0:0:0:
362,297,159340,1,0,0:0:0:0:
299,83,159590,1,8,0:0:0:0:
452,220,159840,1,0,0:0:0:0:
263,204,160090,2,0,L|169:209,1,88.000002685547,2|8,0:0|0:0,0:0:0:0:
83,148,160590,1,8,0:0:0:0:
135,323,160840,1,0,0:0:0:0:
176,98,161090,6,0,P|102:47|29:58,1,160,4|8,0:0|0:0,0:0:0:0:
83,148,161840,1,0,0:0:0:0:
282,118,162090,2,0,L|278:23,1,80,2|8,0:0|0:0,0:0:0:0:
176,98,162590,2,0,L|179:177,1,80,8|0,0:0|0:0,0:0:0:0:
319,302,163090,5,2,0:0:0:0:
319,302,163340,1,0,0:0:0:0:
112,275,163590,1,8,0:0:0:0:
112,275,163840,1,0,0:0:0:0:
312,200,164090,1,2,0:0:0:0:
184,354,164340,1,8,0:0:0:0:
179,177,164590,1,8,0:0:0:0:
179,177,165090,6,0,P|191:139|228:104,1,80,2|0,0:0|0:0,0:0:0:0:
395,30,165590,1,8,0:0:0:0:
440,140,165840,1,0,0:0:0:0:
224,287,166090,2,0,P|236:249|273:214,1,80,2|8,0:0|0:0,0:0:0:0:
440,140,166590,1,8,0:0:0:0:
485,250,166840,1,0,0:0:0:0:
345,382,167090,6,0,P|336:335|358:291,1,80,2|0,0:0|0:0,0:0:0:0:
509,343,167590,2,0,L|418:346,1,80,8|0,0:0|0:0,0:0:0:0:
260,260,168090,1,2,0:0:0:0:
409,183,168340,1,8,0:0:0:0:
429,345,168590,1,8,0:0:0:0:
346,305,168840,2,0,L|347:256,1,40,2|2,0:0|0:0,0:0:0:0:
292,187,170965,6,0,L|297:163,3,13.3333333333333,2|2|2|4,0:0|0:0|0:0|0:0,0:0:0:0:
