osu file format v14

[General]
AudioFilename: Quadraphinix_3.mp3
AudioLeadIn: 0
PreviewTime: -1
Countdown: 0
SampleSet: None
StackLeniency: 0.7
Mode: 3
LetterboxInBreaks: 0
SpecialStyle: 0
WidescreenStoryboard: 0

[Editor]
DistanceSpacing: 0.8
BeatDivisor: 4
GridSize: 32
TimelineZoom: 1

[Metadata]
Title:Quadraphinix
TitleUnicode:Quadraphinix
Artist:Sharkey & Arkitech
ArtistUnicode:Sharkey & Arkitech
Creator:Xay
Version:Challenge 1.3x
Source:
Tags:stepmania etterna xayphon nuclear blast js awesome bomb files 3 jumpstream handstream hs
BeatmapID:1753421
BeatmapSetID:828129

[Difficulty]
HPDrainRate:8
CircleSize:4
OverallDifficulty:8
ApproachRate:5
SliderMultiplier:1.4
SliderTickRate:1

[Events]
//Background and Video events
0,0,"quad-BG.jpg",0,0
//Break Periods
//Storyboard Layer 0 (Background)
//Storyboard Layer 1 (Fail)
//Storyboard Layer 2 (Pass)
//Storyboard Layer 3 (Foreground)
//Storyboard Sound Samples

[TimingPoints]
38,256.036159230769,4,2,0,5,1,0

[HitObjects]
64,192,38,5,0,0:0:0:0:
320,192,38,1,0,0:0:0:0:
448,192,38,1,0,0:0:0:0:
192,192,230,128,0,806:0:0:0:0:
320,192,806,128,0,1574:0:0:0:0:
192,192,1574,128,0,1766:0:0:0:0:
448,192,1766,128,0,1958:0:0:0:0:
320,192,1958,128,0,2150:0:0:0:0:
64,192,2150,128,0,2854:0:0:0:0:
192,192,3750,128,0,4135:0:0:0:0:
320,192,4135,128,0,4903:0:0:0:0:
448,192,4903,128,0,5159:0:0:0:0:
320,192,5159,128,0,6311:0:0:0:0:
64,192,6311,1,0,0:0:0:0:
192,192,6375,1,0,0:0:0:0:
320,192,6439,128,0,7207:0:0:0:0:
192,192,7207,1,0,0:0:0:0:
64,192,7271,1,0,0:0:0:0:
320,192,7335,128,0,7655:0:0:0:0:
64,192,7719,128,0,8231:0:0:0:0:
192,192,8231,1,0,0:0:0:0:
448,192,8231,128,0,12200:0:0:0:0:
64,192,8615,1,0,0:0:0:0:
64,192,8743,1,0,0:0:0:0:
64,192,9000,1,0,0:0:0:0:
64,192,9127,1,0,0:0:0:0:
64,192,9255,1,0,0:0:0:0:
64,192,9383,1,0,0:0:0:0:
64,192,9640,1,0,0:0:0:0:
64,192,9767,1,0,0:0:0:0:
64,192,10023,1,0,0:0:0:0:
64,192,10151,1,0,0:0:0:0:
64,192,10280,1,0,0:0:0:0:
64,192,10407,1,0,0:0:0:0:
64,192,10663,1,0,0:0:0:0:
64,192,10792,1,0,0:0:0:0:
64,192,11047,1,0,0:0:0:0:
64,192,11176,1,0,0:0:0:0:
64,192,11303,1,0,0:0:0:0:
64,192,11432,1,0,0:0:0:0:
64,192,11688,1,0,0:0:0:0:
64,192,11816,1,0,0:0:0:0:
64,192,12072,1,0,0:0:0:0:
192,192,12328,1,0,0:0:0:0:
448,192,12328,1,0,0:0:0:0:
320,192,12392,1,0,0:0:0:0:
64,192,12456,1,0,0:0:0:0:
448,192,12520,1,0,0:0:0:0:
192,192,12583,1,0,0:0:0:0:
320,192,12648,1,0,0:0:0:0:
448,192,12712,1,0,0:0:0:0:
192,192,12776,1,0,0:0:0:0:
320,192,12840,1,0,0:0:0:0:
64,192,12904,1,0,0:0:0:0:
192,192,12968,1,0,0:0:0:0:
320,192,13032,1,0,0:0:0:0:
448,192,13096,1,0,0:0:0:0:
192,192,13160,1,0,0:0:0:0:
320,192,13224,1,0,0:0:0:0:
64,192,13288,1,0,0:0:0:0:
192,192,13352,1,0,0:0:0:0:
64,192,13416,1,0,0:0:0:0:
448,192,13480,1,0,0:0:0:0:
192,192,13544,1,0,0:0:0:0:
320,192,13608,1,0,0:0:0:0:
192,192,13672,1,0,0:0:0:0:
448,192,13736,1,0,0:0:0:0:
320,192,13800,1,0,0:0:0:0:
448,192,13864,1,0,0:0:0:0:
192,192,13928,1,0,0:0:0:0:
320,192,13992,1,0,0:0:0:0:
64,192,14056,1,0,0:0:0:0:
448,192,14120,1,0,0:0:0:0:
192,192,14184,1,0,0:0:0:0:
448,192,14248,1,0,0:0:0:0:
320,192,14312,1,0,0:0:0:0:
192,192,14376,1,0,0:0:0:0:
320,192,14440,1,0,0:0:0:0:
64,192,14504,1,0,0:0:0:0:
192,192,14568,1,0,0:0:0:0:
320,192,14632,1,0,0:0:0:0:
64,192,14696,1,0,0:0:0:0:
448,192,14760,1,0,0:0:0:0:
192,192,14824,1,0,0:0:0:0:
320,192,14888,1,0,0:0:0:0:
448,192,14952,1,0,0:0:0:0:
64,192,15016,1,0,0:0:0:0:
320,192,15080,1,0,0:0:0:0:
448,192,15144,1,0,0:0:0:0:
192,192,15208,1,0,0:0:0:0:
320,192,15272,1,0,0:0:0:0:
64,192,15336,1,0,0:0:0:0:
192,192,15400,1,0,0:0:0:0:
448,192,15464,1,0,0:0:0:0:
192,192,15528,1,0,0:0:0:0:
320,192,15592,1,0,0:0:0:0:
64,192,15656,1,0,0:0:0:0:
192,192,15720,1,0,0:0:0:0:
320,192,15784,1,0,0:0:0:0:
448,192,15848,1,0,0:0:0:0:
192,192,15912,1,0,0:0:0:0:
320,192,15976,1,0,0:0:0:0:
192,192,16040,1,0,0:0:0:0:
64,192,16104,1,0,0:0:0:0:
448,192,16168,1,0,0:0:0:0:
320,192,16233,1,0,0:0:0:0:
192,192,16296,1,0,0:0:0:0:
320,192,16360,1,0,0:0:0:0:
64,192,16424,1,0,0:0:0:0:
192,192,16424,1,0,0:0:0:0:
448,192,16424,128,0,16456:0:0:0:0:
320,192,16680,1,0,0:0:0:0:
192,192,16808,1,0,0:0:0:0:
192,192,16936,1,0,0:0:0:0:
192,192,17064,1,0,0:0:0:0:
448,192,17193,1,0,0:0:0:0:
64,192,17320,1,0,0:0:0:0:
64,192,17449,1,0,0:0:0:0:
320,192,17704,1,0,0:0:0:0:
192,192,17769,1,0,0:0:0:0:
448,192,17833,1,0,0:0:0:0:
448,192,17960,1,0,0:0:0:0:
448,192,18089,1,0,0:0:0:0:
64,192,18153,1,0,0:0:0:0:
192,192,18216,1,0,0:0:0:0:
320,192,18345,1,0,0:0:0:0:
320,192,18473,128,0,18505:0:0:0:0:
64,192,18729,1,0,0:0:0:0:
320,192,18856,1,0,0:0:0:0:
192,192,18920,1,0,0:0:0:0:
320,192,18985,1,0,0:0:0:0:
320,192,19113,1,0,0:0:0:0:
448,192,19241,1,0,0:0:0:0:
192,192,19305,1,0,0:0:0:0:
64,192,19369,1,0,0:0:0:0:
64,192,19496,128,0,19529:0:0:0:0:
320,192,19753,1,0,0:0:0:0:
192,192,19881,1,0,0:0:0:0:
192,192,20009,1,0,0:0:0:0:
64,192,20073,1,0,0:0:0:0:
192,192,20136,1,0,0:0:0:0:
320,192,20265,1,0,0:0:0:0:
448,192,20393,1,0,0:0:0:0:
192,192,20457,1,0,0:0:0:0:
448,192,20521,128,0,20553:0:0:0:0:
192,192,20777,1,0,0:0:0:0:
320,192,20905,1,0,0:0:0:0:
320,192,21033,1,0,0:0:0:0:
320,192,21161,1,0,0:0:0:0:
448,192,21289,1,0,0:0:0:0:
64,192,21417,1,0,0:0:0:0:
64,192,21545,128,0,21577:0:0:0:0:
192,192,21801,1,0,0:0:0:0:
320,192,21865,1,0,0:0:0:0:
448,192,21929,1,0,0:0:0:0:
448,192,22057,1,0,0:0:0:0:
448,192,22185,1,0,0:0:0:0:
320,192,22249,1,0,0:0:0:0:
64,192,22313,1,0,0:0:0:0:
192,192,22441,1,0,0:0:0:0:
320,192,22505,1,0,0:0:0:0:
192,192,22570,128,0,22601:0:0:0:0:
448,192,22825,1,0,0:0:0:0:
64,192,22953,1,0,0:0:0:0:
64,192,23081,1,0,0:0:0:0:
320,192,23145,1,0,0:0:0:0:
64,192,23210,1,0,0:0:0:0:
320,192,23337,1,0,0:0:0:0:
448,192,23465,1,0,0:0:0:0:
192,192,23530,1,0,0:0:0:0:
448,192,23593,128,0,23626:0:0:0:0:
192,192,23850,1,0,0:0:0:0:
320,192,23977,1,0,0:0:0:0:
320,192,24106,1,0,0:0:0:0:
320,192,24233,1,0,0:0:0:0:
448,192,24297,1,0,0:0:0:0:
64,192,24361,1,0,0:0:0:0:
448,192,24490,1,0,0:0:0:0:
64,192,24617,128,0,24650:0:0:0:0:
448,192,24617,1,0,0:0:0:0:
192,192,24746,1,0,0:0:0:0:
64,192,24810,1,0,0:0:0:0:
320,192,24873,1,0,0:0:0:0:
448,192,24873,1,0,0:0:0:0:
64,192,25002,1,0,0:0:0:0:
448,192,25066,1,0,0:0:0:0:
192,192,25130,1,0,0:0:0:0:
320,192,25193,1,0,0:0:0:0:
64,192,25257,1,0,0:0:0:0:
320,192,25322,1,0,0:0:0:0:
192,192,25386,1,0,0:0:0:0:
448,192,25386,1,0,0:0:0:0:
64,192,25513,1,0,0:0:0:0:
192,192,25577,1,0,0:0:0:0:
64,192,25642,1,0,0:0:0:0:
320,192,25770,1,0,0:0:0:0:
448,192,25833,1,0,0:0:0:0:
64,192,25898,1,0,0:0:0:0:
192,192,25898,1,0,0:0:0:0:
448,192,26026,1,0,0:0:0:0:
192,192,26090,1,0,0:0:0:0:
64,192,26153,1,0,0:0:0:0:
320,192,26218,1,0,0:0:0:0:
192,192,26282,1,0,0:0:0:0:
320,192,26346,1,0,0:0:0:0:
64,192,26410,1,0,0:0:0:0:
448,192,26410,1,0,0:0:0:0:
320,192,26538,1,0,0:0:0:0:
192,192,26602,1,0,0:0:0:0:
320,192,26666,128,0,26698:0:0:0:0:
192,192,26793,1,0,0:0:0:0:
64,192,26858,1,0,0:0:0:0:
320,192,26922,1,0,0:0:0:0:
448,192,26922,1,0,0:0:0:0:
192,192,27050,1,0,0:0:0:0:
320,192,27114,1,0,0:0:0:0:
448,192,27178,1,0,0:0:0:0:
64,192,27242,1,0,0:0:0:0:
320,192,27306,1,0,0:0:0:0:
448,192,27370,1,0,0:0:0:0:
64,192,27434,1,0,0:0:0:0:
192,192,27434,1,0,0:0:0:0:
448,192,27562,1,0,0:0:0:0:
320,192,27626,1,0,0:0:0:0:
448,192,27690,128,0,27722:0:0:0:0:
192,192,27818,1,0,0:0:0:0:
448,192,27882,1,0,0:0:0:0:
64,192,27946,1,0,0:0:0:0:
320,192,27946,1,0,0:0:0:0:
192,192,28074,1,0,0:0:0:0:
448,192,28138,1,0,0:0:0:0:
64,192,28202,1,0,0:0:0:0:
192,192,28266,1,0,0:0:0:0:
320,192,28330,1,0,0:0:0:0:
64,192,28394,1,0,0:0:0:0:
192,192,28458,1,0,0:0:0:0:
448,192,28458,1,0,0:0:0:0:
64,192,28586,1,0,0:0:0:0:
448,192,28650,1,0,0:0:0:0:
64,192,28714,128,0,28746:0:0:0:0:
320,192,28778,1,0,0:0:0:0:
448,192,28842,1,0,0:0:0:0:
192,192,28906,1,0,0:0:0:0:
64,192,28970,1,0,0:0:0:0:
448,192,28970,1,0,0:0:0:0:
320,192,29034,1,0,0:0:0:0:
448,192,29098,1,0,0:0:0:0:
320,192,29162,1,0,0:0:0:0:
192,192,29226,1,0,0:0:0:0:
448,192,29290,1,0,0:0:0:0:
320,192,29354,1,0,0:0:0:0:
64,192,29418,1,0,0:0:0:0:
320,192,29482,1,0,0:0:0:0:
448,192,29482,1,0,0:0:0:0:
192,192,29546,1,0,0:0:0:0:
64,192,29610,1,0,0:0:0:0:
320,192,29674,1,0,0:0:0:0:
192,192,29738,128,0,29770:0:0:0:0:
64,192,29802,1,0,0:0:0:0:
320,192,29866,1,0,0:0:0:0:
448,192,29930,1,0,0:0:0:0:
64,192,29994,1,0,0:0:0:0:
192,192,29994,1,0,0:0:0:0:
448,192,30058,1,0,0:0:0:0:
320,192,30123,1,0,0:0:0:0:
64,192,30186,1,0,0:0:0:0:
192,192,30250,1,0,0:0:0:0:
320,192,30314,1,0,0:0:0:0:
448,192,30378,1,0,0:0:0:0:
192,192,30443,1,0,0:0:0:0:
64,192,30506,1,0,0:0:0:0:
320,192,30506,1,0,0:0:0:0:
192,192,30570,1,0,0:0:0:0:
448,192,30634,1,0,0:0:0:0:
64,192,30698,1,0,0:0:0:0:
320,192,30763,128,0,30794:0:0:0:0:
448,192,30826,1,0,0:0:0:0:
64,192,30890,1,0,0:0:0:0:
320,192,30954,1,0,0:0:0:0:
64,192,31018,1,0,0:0:0:0:
192,192,31018,1,0,0:0:0:0:
448,192,31083,1,0,0:0:0:0:
320,192,31146,1,0,0:0:0:0:
64,192,31210,1,0,0:0:0:0:
320,192,31274,1,0,0:0:0:0:
192,192,31339,1,0,0:0:0:0:
320,192,31403,1,0,0:0:0:0:
448,192,31403,1,0,0:0:0:0:
192,192,31466,1,0,0:0:0:0:
64,192,31530,1,0,0:0:0:0:
320,192,31594,1,0,0:0:0:0:
64,192,31659,1,0,0:0:0:0:
448,192,31659,1,0,0:0:0:0:
192,192,31723,1,0,0:0:0:0:
320,192,31786,1,0,0:0:0:0:
448,192,31786,128,0,31819:0:0:0:0:
192,192,31850,1,0,0:0:0:0:
64,192,31914,1,0,0:0:0:0:
320,192,31914,1,0,0:0:0:0:
448,192,31979,1,0,0:0:0:0:
192,192,32043,1,0,0:0:0:0:
448,192,32106,1,0,0:0:0:0:
192,192,32170,1,0,0:0:0:0:
320,192,32170,1,0,0:0:0:0:
448,192,32234,1,0,0:0:0:0:
64,192,32299,1,0,0:0:0:0:
320,192,32363,1,0,0:0:0:0:
64,192,32426,1,0,0:0:0:0:
192,192,32426,1,0,0:0:0:0:
448,192,32490,1,0,0:0:0:0:
192,192,32555,1,0,0:0:0:0:
320,192,32555,1,0,0:0:0:0:
64,192,32619,1,0,0:0:0:0:
320,192,32683,1,0,0:0:0:0:
448,192,32683,1,0,0:0:0:0:
192,192,32746,1,0,0:0:0:0:
64,192,32810,128,0,34859:0:0:0:0:
320,192,32810,1,0,0:0:0:0:
448,192,32810,1,0,0:0:0:0:
320,192,33066,1,0,0:0:0:0:
192,192,33195,1,0,0:0:0:0:
320,192,33451,1,0,0:0:0:0:
448,192,33706,1,0,0:0:0:0:
192,192,33963,1,0,0:0:0:0:
448,192,34219,1,0,0:0:0:0:
192,192,34475,1,0,0:0:0:0:
320,192,34603,1,0,0:0:0:0:
448,192,34731,1,0,0:0:0:0:
192,192,34859,128,0,36907:0:0:0:0:
320,192,34859,1,0,0:0:0:0:
64,192,34987,1,0,0:0:0:0:
448,192,35115,1,0,0:0:0:0:
320,192,35243,1,0,0:0:0:0:
448,192,35499,1,0,0:0:0:0:
64,192,35755,1,0,0:0:0:0:
320,192,36011,1,0,0:0:0:0:
448,192,36139,1,0,0:0:0:0:
64,192,36267,1,0,0:0:0:0:
448,192,36523,1,0,0:0:0:0:
320,192,36651,1,0,0:0:0:0:
64,192,36780,1,0,0:0:0:0:
320,192,36907,128,0,38956:0:0:0:0:
448,192,36907,1,0,0:0:0:0:
64,192,37035,1,0,0:0:0:0:
192,192,37163,1,0,0:0:0:0:
448,192,37291,1,0,0:0:0:0:
192,192,37547,1,0,0:0:0:0:
64,192,37803,1,0,0:0:0:0:
448,192,38060,1,0,0:0:0:0:
64,192,38187,1,0,0:0:0:0:
192,192,38316,1,0,0:0:0:0:
192,192,38571,1,0,0:0:0:0:
64,192,38700,1,0,0:0:0:0:
448,192,38827,1,0,0:0:0:0:
192,192,38956,128,0,39980:0:0:0:0:
320,192,39083,1,0,0:0:0:0:
320,192,39340,1,0,0:0:0:0:
448,192,39467,1,0,0:0:0:0:
320,192,39723,1,0,0:0:0:0:
448,192,39852,1,0,0:0:0:0:
64,192,39980,128,0,40876:0:0:0:0:
192,192,40108,1,0,0:0:0:0:
320,192,40363,1,0,0:0:0:0:
448,192,40620,1,0,0:0:0:0:
320,192,40748,1,0,0:0:0:0:
192,192,40876,1,0,0:0:0:0:
64,192,41004,1,0,0:0:0:0:
320,192,41004,1,0,0:0:0:0:
448,192,41004,1,0,0:0:0:0:
192,192,41068,1,0,0:0:0:0:
320,192,41132,1,0,0:0:0:0:
64,192,41196,1,0,0:0:0:0:
448,192,41260,1,0,0:0:0:0:
320,192,41324,1,0,0:0:0:0:
448,192,41388,1,0,0:0:0:0:
192,192,41452,1,0,0:0:0:0:
320,192,41516,1,0,0:0:0:0:
64,192,41580,1,0,0:0:0:0:
320,192,41644,1,0,0:0:0:0:
192,192,41708,1,0,0:0:0:0:
448,192,41772,1,0,0:0:0:0:
64,192,41836,1,0,0:0:0:0:
448,192,41900,1,0,0:0:0:0:
320,192,41964,1,0,0:0:0:0:
64,192,42028,1,0,0:0:0:0:
192,192,42028,1,0,0:0:0:0:
320,192,42092,1,0,0:0:0:0:
448,192,42156,1,0,0:0:0:0:
64,192,42220,1,0,0:0:0:0:
192,192,42284,1,0,0:0:0:0:
448,192,42348,1,0,0:0:0:0:
320,192,42412,1,0,0:0:0:0:
64,192,42476,1,0,0:0:0:0:
448,192,42540,1,0,0:0:0:0:
192,192,42604,1,0,0:0:0:0:
320,192,42668,1,0,0:0:0:0:
64,192,42732,1,0,0:0:0:0:
192,192,42796,1,0,0:0:0:0:
64,192,42860,1,0,0:0:0:0:
320,192,42924,1,0,0:0:0:0:
448,192,42988,1,0,0:0:0:0:
192,192,43052,1,0,0:0:0:0:
320,192,43052,1,0,0:0:0:0:
448,192,43116,1,0,0:0:0:0:
320,192,43180,1,0,0:0:0:0:
64,192,43244,1,0,0:0:0:0:
192,192,43308,1,0,0:0:0:0:
320,192,43372,1,0,0:0:0:0:
64,192,43436,1,0,0:0:0:0:
320,192,43500,1,0,0:0:0:0:
192,192,43564,1,0,0:0:0:0:
448,192,43564,1,0,0:0:0:0:
64,192,43628,1,0,0:0:0:0:
320,192,43692,1,0,0:0:0:0:
192,192,43756,1,0,0:0:0:0:
448,192,43820,1,0,0:0:0:0:
64,192,43884,1,0,0:0:0:0:
320,192,43948,1,0,0:0:0:0:
448,192,44012,1,0,0:0:0:0:
192,192,44076,1,0,0:0:0:0:
320,192,44076,1,0,0:0:0:0:
64,192,44140,1,0,0:0:0:0:
448,192,44204,1,0,0:0:0:0:
320,192,44268,1,0,0:0:0:0:
64,192,44333,1,0,0:0:0:0:
192,192,44333,1,0,0:0:0:0:
320,192,44396,1,0,0:0:0:0:
64,192,44460,1,0,0:0:0:0:
320,192,44524,1,0,0:0:0:0:
192,192,44588,1,0,0:0:0:0:
448,192,44588,1,0,0:0:0:0:
64,192,44653,1,0,0:0:0:0:
448,192,44716,1,0,0:0:0:0:
192,192,44780,1,0,0:0:0:0:
64,192,44844,1,0,0:0:0:0:
320,192,44844,1,0,0:0:0:0:
192,192,44908,1,0,0:0:0:0:
320,192,44973,1,0,0:0:0:0:
192,192,45036,1,0,0:0:0:0:
64,192,45100,1,0,0:0:0:0:
320,192,45100,1,0,0:0:0:0:
448,192,45100,1,0,0:0:0:0:
192,192,45164,1,0,0:0:0:0:
320,192,45228,1,0,0:0:0:0:
448,192,45228,1,0,0:0:0:0:
64,192,45293,1,0,0:0:0:0:
192,192,45356,1,0,0:0:0:0:
320,192,45356,1,0,0:0:0:0:
448,192,45356,1,0,0:0:0:0:
64,192,45420,1,0,0:0:0:0:
192,192,45484,1,0,0:0:0:0:
320,192,45484,1,0,0:0:0:0:
448,192,45549,1,0,0:0:0:0:
64,192,45613,1,0,0:0:0:0:
192,192,45613,1,0,0:0:0:0:
320,192,45613,1,0,0:0:0:0:
448,192,45676,1,0,0:0:0:0:
64,192,45740,1,0,0:0:0:0:
320,192,45740,1,0,0:0:0:0:
192,192,45804,1,0,0:0:0:0:
64,192,45869,1,0,0:0:0:0:
320,192,45869,1,0,0:0:0:0:
448,192,45869,1,0,0:0:0:0:
192,192,45933,1,0,0:0:0:0:
320,192,45996,1,0,0:0:0:0:
448,192,45996,1,0,0:0:0:0:
64,192,46060,1,0,0:0:0:0:
192,192,46124,1,0,0:0:0:0:
320,192,46124,1,0,0:0:0:0:
448,192,46124,1,0,0:0:0:0:
64,192,46189,1,0,0:0:0:0:
192,192,46253,1,0,0:0:0:0:
448,192,46253,1,0,0:0:0:0:
320,192,46316,1,0,0:0:0:0:
64,192,46380,1,0,0:0:0:0:
192,192,46380,1,0,0:0:0:0:
448,192,46380,1,0,0:0:0:0:
320,192,46445,1,0,0:0:0:0:
64,192,46509,1,0,0:0:0:0:
192,192,46509,1,0,0:0:0:0:
448,192,46573,1,0,0:0:0:0:
64,192,46636,1,0,0:0:0:0:
192,192,46636,1,0,0:0:0:0:
320,192,46636,1,0,0:0:0:0:
448,192,46700,1,0,0:0:0:0:
64,192,46765,1,0,0:0:0:0:
320,192,46765,1,0,0:0:0:0:
192,192,46829,1,0,0:0:0:0:
64,192,46893,1,0,0:0:0:0:
320,192,46893,1,0,0:0:0:0:
448,192,46893,1,0,0:0:0:0:
192,192,46956,1,0,0:0:0:0:
320,192,47020,1,0,0:0:0:0:
448,192,47020,1,0,0:0:0:0:
64,192,47085,1,0,0:0:0:0:
192,192,47149,1,0,0:0:0:0:
320,192,47149,1,0,0:0:0:0:
448,192,47149,1,0,0:0:0:0:
64,192,47213,1,0,0:0:0:0:
192,192,47276,1,0,0:0:0:0:
320,192,47276,1,0,0:0:0:0:
448,192,47340,1,0,0:0:0:0:
64,192,47405,1,0,0:0:0:0:
192,192,47405,1,0,0:0:0:0:
320,192,47405,1,0,0:0:0:0:
448,192,47469,1,0,0:0:0:0:
64,192,47533,1,0,0:0:0:0:
320,192,47533,1,0,0:0:0:0:
192,192,47596,1,0,0:0:0:0:
64,192,47661,1,0,0:0:0:0:
320,192,47661,1,0,0:0:0:0:
448,192,47661,1,0,0:0:0:0:
192,192,47725,1,0,0:0:0:0:
64,192,47789,1,0,0:0:0:0:
448,192,47789,1,0,0:0:0:0:
320,192,47853,1,0,0:0:0:0:
64,192,47916,1,0,0:0:0:0:
192,192,47916,1,0,0:0:0:0:
448,192,47916,1,0,0:0:0:0:
320,192,47981,1,0,0:0:0:0:
64,192,48045,1,0,0:0:0:0:
192,192,48045,1,0,0:0:0:0:
448,192,48109,1,0,0:0:0:0:
64,192,48173,1,0,0:0:0:0:
192,192,48173,1,0,0:0:0:0:
320,192,48173,1,0,0:0:0:0:
448,192,48236,1,0,0:0:0:0:
192,192,48301,1,0,0:0:0:0:
320,192,48301,1,0,0:0:0:0:
64,192,48365,1,0,0:0:0:0:
192,192,48429,1,0,0:0:0:0:
320,192,48429,1,0,0:0:0:0:
448,192,48429,1,0,0:0:0:0:
64,192,48493,1,0,0:0:0:0:
320,192,48556,1,0,0:0:0:0:
448,192,48556,1,0,0:0:0:0:
192,192,48621,1,0,0:0:0:0:
64,192,48685,1,0,0:0:0:0:
320,192,48685,1,0,0:0:0:0:
448,192,48685,1,0,0:0:0:0:
192,192,48749,1,0,0:0:0:0:
64,192,48813,1,0,0:0:0:0:
448,192,48813,1,0,0:0:0:0:
320,192,48877,1,0,0:0:0:0:
64,192,48941,1,0,0:0:0:0:
192,192,48941,1,0,0:0:0:0:
448,192,48941,1,0,0:0:0:0:
320,192,49005,1,0,0:0:0:0:
192,192,49069,1,0,0:0:0:0:
448,192,49069,1,0,0:0:0:0:
64,192,49133,1,0,0:0:0:0:
192,192,49197,1,0,0:0:0:0:
320,192,49197,1,0,0:0:0:0:
448,192,49197,1,0,0:0:0:0:
64,192,49261,1,0,0:0:0:0:
320,192,49325,1,0,0:0:0:0:
448,192,49325,1,0,0:0:0:0:
192,192,49389,1,0,0:0:0:0:
64,192,49453,1,0,0:0:0:0:
320,192,49453,1,0,0:0:0:0:
448,192,49453,1,0,0:0:0:0:
192,192,49517,1,0,0:0:0:0:
64,192,49581,1,0,0:0:0:0:
448,192,49581,1,0,0:0:0:0:
320,192,49645,1,0,0:0:0:0:
64,192,49709,1,0,0:0:0:0:
192,192,49709,1,0,0:0:0:0:
448,192,49709,1,0,0:0:0:0:
320,192,49773,1,0,0:0:0:0:
64,192,49837,1,0,0:0:0:0:
192,192,49837,1,0,0:0:0:0:
448,192,49901,1,0,0:0:0:0:
64,192,49965,1,0,0:0:0:0:
192,192,49965,1,0,0:0:0:0:
320,192,49965,1,0,0:0:0:0:
448,192,50029,1,0,0:0:0:0:
192,192,50093,1,0,0:0:0:0:
320,192,50093,1,0,0:0:0:0:
64,192,50157,1,0,0:0:0:0:
192,192,50221,1,0,0:0:0:0:
320,192,50221,1,0,0:0:0:0:
448,192,50221,1,0,0:0:0:0:
64,192,50285,1,0,0:0:0:0:
192,192,50349,1,0,0:0:0:0:
448,192,50349,1,0,0:0:0:0:
320,192,50413,1,0,0:0:0:0:
64,192,50477,1,0,0:0:0:0:
192,192,50477,1,0,0:0:0:0:
448,192,50477,1,0,0:0:0:0:
320,192,50541,1,0,0:0:0:0:
64,192,50605,1,0,0:0:0:0:
192,192,50605,1,0,0:0:0:0:
448,192,50669,1,0,0:0:0:0:
64,192,50733,1,0,0:0:0:0:
192,192,50733,1,0,0:0:0:0:
320,192,50733,1,0,0:0:0:0:
448,192,50797,1,0,0:0:0:0:
64,192,50861,1,0,0:0:0:0:
320,192,50861,1,0,0:0:0:0:
192,192,50925,1,0,0:0:0:0:
64,192,50990,1,0,0:0:0:0:
320,192,50990,1,0,0:0:0:0:
448,192,50990,1,0,0:0:0:0:
192,192,51053,1,0,0:0:0:0:
320,192,51117,1,0,0:0:0:0:
448,192,51117,1,0,0:0:0:0:
64,192,51181,1,0,0:0:0:0:
192,192,51245,1,0,0:0:0:0:
320,192,51245,1,0,0:0:0:0:
448,192,51245,1,0,0:0:0:0:
64,192,51310,1,0,0:0:0:0:
192,192,51373,1,0,0:0:0:0:
320,192,51373,1,0,0:0:0:0:
448,192,51437,1,0,0:0:0:0:
64,192,51501,1,0,0:0:0:0:
192,192,51501,1,0,0:0:0:0:
320,192,51501,1,0,0:0:0:0:
448,192,51565,1,0,0:0:0:0:
64,192,51630,1,0,0:0:0:0:
320,192,51630,1,0,0:0:0:0:
192,192,51693,1,0,0:0:0:0:
64,192,51757,1,0,0:0:0:0:
320,192,51757,1,0,0:0:0:0:
448,192,51757,1,0,0:0:0:0:
192,192,51821,1,0,0:0:0:0:
320,192,51886,1,0,0:0:0:0:
448,192,51886,1,0,0:0:0:0:
64,192,51950,1,0,0:0:0:0:
192,192,52013,1,0,0:0:0:0:
320,192,52013,1,0,0:0:0:0:
448,192,52013,1,0,0:0:0:0:
64,192,52077,1,0,0:0:0:0:
192,192,52141,1,0,0:0:0:0:
320,192,52141,1,0,0:0:0:0:
448,192,52206,1,0,0:0:0:0:
64,192,52270,1,0,0:0:0:0:
192,192,52270,1,0,0:0:0:0:
320,192,52270,1,0,0:0:0:0:
448,192,52333,1,0,0:0:0:0:
64,192,52397,1,0,0:0:0:0:
192,192,52397,1,0,0:0:0:0:
448,192,52461,1,0,0:0:0:0:
64,192,52526,1,0,0:0:0:0:
192,192,52526,1,0,0:0:0:0:
320,192,52526,1,0,0:0:0:0:
448,192,52590,1,0,0:0:0:0:
64,192,52653,1,0,0:0:0:0:
320,192,52653,1,0,0:0:0:0:
192,192,52717,1,0,0:0:0:0:
64,192,52781,1,0,0:0:0:0:
320,192,52781,1,0,0:0:0:0:
448,192,52781,1,0,0:0:0:0:
192,192,52846,1,0,0:0:0:0:
320,192,52910,1,0,0:0:0:0:
448,192,52910,1,0,0:0:0:0:
192,192,52973,1,0,0:0:0:0:
64,192,53037,1,0,0:0:0:0:
320,192,53037,1,0,0:0:0:0:
448,192,53037,1,0,0:0:0:0:
192,192,53102,1,0,0:0:0:0:
320,192,53166,1,0,0:0:0:0:
448,192,53166,1,0,0:0:0:0:
64,192,53230,1,0,0:0:0:0:
192,192,53293,1,0,0:0:0:0:
320,192,53293,1,0,0:0:0:0:
448,192,53293,1,0,0:0:0:0:
64,192,53357,1,0,0:0:0:0:
192,192,53422,1,0,0:0:0:0:
320,192,53422,1,0,0:0:0:0:
448,192,53486,1,0,0:0:0:0:
64,192,53550,1,0,0:0:0:0:
192,192,53550,1,0,0:0:0:0:
320,192,53550,1,0,0:0:0:0:
448,192,53613,1,0,0:0:0:0:
192,192,53677,1,0,0:0:0:0:
320,192,53677,1,0,0:0:0:0:
64,192,53742,1,0,0:0:0:0:
192,192,53806,1,0,0:0:0:0:
320,192,53806,1,0,0:0:0:0:
448,192,53806,1,0,0:0:0:0:
64,192,53870,1,0,0:0:0:0:
192,192,53933,1,0,0:0:0:0:
448,192,53933,1,0,0:0:0:0:
320,192,53997,1,0,0:0:0:0:
64,192,54062,1,0,0:0:0:0:
192,192,54062,1,0,0:0:0:0:
448,192,54062,1,0,0:0:0:0:
320,192,54126,1,0,0:0:0:0:
64,192,54190,1,0,0:0:0:0:
192,192,54190,1,0,0:0:0:0:
320,192,54253,1,0,0:0:0:0:
448,192,54253,1,0,0:0:0:0:
64,192,54318,1,0,0:0:0:0:
192,192,54318,1,0,0:0:0:0:
448,192,54382,1,0,0:0:0:0:
192,192,54446,1,0,0:0:0:0:
320,192,54446,1,0,0:0:0:0:
64,192,54510,1,0,0:0:0:0:
192,192,54573,1,0,0:0:0:0:
320,192,54573,1,0,0:0:0:0:
448,192,54573,1,0,0:0:0:0:
64,192,54638,1,0,0:0:0:0:
192,192,54702,1,0,0:0:0:0:
448,192,54702,1,0,0:0:0:0:
320,192,54766,1,0,0:0:0:0:
64,192,54830,1,0,0:0:0:0:
192,192,54830,1,0,0:0:0:0:
448,192,54830,1,0,0:0:0:0:
320,192,54893,1,0,0:0:0:0:
64,192,54958,1,0,0:0:0:0:
448,192,54958,1,0,0:0:0:0:
192,192,55022,1,0,0:0:0:0:
64,192,55086,1,0,0:0:0:0:
320,192,55086,1,0,0:0:0:0:
448,192,55086,1,0,0:0:0:0:
192,192,55150,1,0,0:0:0:0:
320,192,55214,1,0,0:0:0:0:
448,192,55214,1,0,0:0:0:0:
64,192,55278,1,0,0:0:0:0:
192,192,55342,1,0,0:0:0:0:
320,192,55342,1,0,0:0:0:0:
448,192,55342,1,0,0:0:0:0:
64,192,55406,1,0,0:0:0:0:
320,192,55470,1,0,0:0:0:0:
448,192,55470,1,0,0:0:0:0:
192,192,55534,1,0,0:0:0:0:
64,192,55598,1,0,0:0:0:0:
320,192,55598,1,0,0:0:0:0:
448,192,55598,1,0,0:0:0:0:
192,192,55662,1,0,0:0:0:0:
64,192,55726,1,0,0:0:0:0:
448,192,55726,1,0,0:0:0:0:
320,192,55790,1,0,0:0:0:0:
64,192,55854,1,0,0:0:0:0:
192,192,55854,1,0,0:0:0:0:
448,192,55854,1,0,0:0:0:0:
320,192,55918,1,0,0:0:0:0:
64,192,55982,1,0,0:0:0:0:
192,192,55982,1,0,0:0:0:0:
448,192,56046,1,0,0:0:0:0:
64,192,56110,1,0,0:0:0:0:
192,192,56110,1,0,0:0:0:0:
320,192,56110,1,0,0:0:0:0:
448,192,56174,1,0,0:0:0:0:
64,192,56238,1,0,0:0:0:0:
320,192,56238,1,0,0:0:0:0:
192,192,56302,1,0,0:0:0:0:
448,192,56302,1,0,0:0:0:0:
64,192,56366,1,0,0:0:0:0:
320,192,56366,1,0,0:0:0:0:
192,192,56430,1,0,0:0:0:0:
320,192,56494,1,0,0:0:0:0:
448,192,56494,1,0,0:0:0:0:
64,192,56558,1,0,0:0:0:0:
192,192,56622,1,0,0:0:0:0:
320,192,56622,1,0,0:0:0:0:
448,192,56622,1,0,0:0:0:0:
64,192,56686,1,0,0:0:0:0:
192,192,56750,1,0,0:0:0:0:
320,192,56750,1,0,0:0:0:0:
448,192,56814,1,0,0:0:0:0:
64,192,56878,1,0,0:0:0:0:
192,192,56878,1,0,0:0:0:0:
320,192,56878,1,0,0:0:0:0:
448,192,56942,1,0,0:0:0:0:
64,192,57006,1,0,0:0:0:0:
192,192,57006,1,0,0:0:0:0:
320,192,57070,1,0,0:0:0:0:
64,192,57134,1,0,0:0:0:0:
192,192,57134,1,0,0:0:0:0:
448,192,57134,1,0,0:0:0:0:
320,192,57198,1,0,0:0:0:0:
192,192,57262,1,0,0:0:0:0:
448,192,57262,1,0,0:0:0:0:
64,192,57326,1,0,0:0:0:0:
192,192,57390,1,0,0:0:0:0:
320,192,57390,1,0,0:0:0:0:
448,192,57390,1,0,0:0:0:0:
64,192,57454,1,0,0:0:0:0:
320,192,57518,1,0,0:0:0:0:
448,192,57518,1,0,0:0:0:0:
192,192,57582,1,0,0:0:0:0:
64,192,57646,1,0,0:0:0:0:
320,192,57646,1,0,0:0:0:0:
448,192,57646,1,0,0:0:0:0:
192,192,57710,1,0,0:0:0:0:
64,192,57774,1,0,0:0:0:0:
448,192,57774,1,0,0:0:0:0:
320,192,57838,1,0,0:0:0:0:
64,192,57902,1,0,0:0:0:0:
192,192,57902,1,0,0:0:0:0:
448,192,57902,1,0,0:0:0:0:
320,192,57966,1,0,0:0:0:0:
64,192,58030,1,0,0:0:0:0:
192,192,58030,1,0,0:0:0:0:
448,192,58094,1,0,0:0:0:0:
64,192,58158,1,0,0:0:0:0:
192,192,58158,1,0,0:0:0:0:
320,192,58158,1,0,0:0:0:0:
448,192,58222,1,0,0:0:0:0:
64,192,58286,1,0,0:0:0:0:
320,192,58286,1,0,0:0:0:0:
192,192,58350,1,0,0:0:0:0:
448,192,58350,1,0,0:0:0:0:
64,192,58414,1,0,0:0:0:0:
320,192,58414,1,0,0:0:0:0:
192,192,58478,1,0,0:0:0:0:
320,192,58543,1,0,0:0:0:0:
448,192,58543,1,0,0:0:0:0:
64,192,58606,1,0,0:0:0:0:
192,192,58670,1,0,0:0:0:0:
320,192,58670,1,0,0:0:0:0:
448,192,58670,1,0,0:0:0:0:
64,192,58734,1,0,0:0:0:0:
192,192,58798,1,0,0:0:0:0:
320,192,58798,1,0,0:0:0:0:
448,192,58863,1,0,0:0:0:0:
64,192,58926,1,0,0:0:0:0:
192,192,58926,1,0,0:0:0:0:
320,192,58926,1,0,0:0:0:0:
448,192,58990,1,0,0:0:0:0:
64,192,59054,1,0,0:0:0:0:
192,192,59054,1,0,0:0:0:0:
320,192,59118,1,0,0:0:0:0:
64,192,59183,1,0,0:0:0:0:
192,192,59183,1,0,0:0:0:0:
448,192,59183,1,0,0:0:0:0:
320,192,59246,1,0,0:0:0:0:
64,192,59310,1,0,0:0:0:0:
448,192,59310,1,0,0:0:0:0:
192,192,59374,1,0,0:0:0:0:
64,192,59438,1,0,0:0:0:0:
320,192,59438,1,0,0:0:0:0:
448,192,59438,1,0,0:0:0:0:
192,192,59503,1,0,0:0:0:0:
320,192,59566,1,0,0:0:0:0:
448,192,59566,1,0,0:0:0:0:
64,192,59630,1,0,0:0:0:0:
192,192,59694,1,0,0:0:0:0:
320,192,59694,1,0,0:0:0:0:
448,192,59694,1,0,0:0:0:0:
64,192,59759,1,0,0:0:0:0:
192,192,59823,1,0,0:0:0:0:
320,192,59823,1,0,0:0:0:0:
448,192,59886,1,0,0:0:0:0:
64,192,59950,1,0,0:0:0:0:
192,192,59950,1,0,0:0:0:0:
320,192,59950,1,0,0:0:0:0:
448,192,60014,1,0,0:0:0:0:
64,192,60079,1,0,0:0:0:0:
320,192,60079,1,0,0:0:0:0:
192,192,60143,1,0,0:0:0:0:
64,192,60206,1,0,0:0:0:0:
320,192,60206,1,0,0:0:0:0:
448,192,60206,1,0,0:0:0:0:
192,192,60270,1,0,0:0:0:0:
64,192,60334,1,0,0:0:0:0:
320,192,60334,1,0,0:0:0:0:
192,192,60399,1,0,0:0:0:0:
448,192,60399,1,0,0:0:0:0:
64,192,60463,1,0,0:0:0:0:
320,192,60463,1,0,0:0:0:0:
192,192,60526,1,0,0:0:0:0:
320,192,60590,1,0,0:0:0:0:
448,192,60590,1,0,0:0:0:0:
192,192,60655,1,0,0:0:0:0:
64,192,60719,1,0,0:0:0:0:
320,192,60719,1,0,0:0:0:0:
448,192,60719,1,0,0:0:0:0:
192,192,60783,1,0,0:0:0:0:
320,192,60846,1,0,0:0:0:0:
448,192,60846,1,0,0:0:0:0:
192,192,60910,1,0,0:0:0:0:
64,192,60975,1,0,0:0:0:0:
320,192,60975,1,0,0:0:0:0:
448,192,60975,1,0,0:0:0:0:
192,192,61039,1,0,0:0:0:0:
320,192,61103,1,0,0:0:0:0:
448,192,61103,1,0,0:0:0:0:
192,192,61166,1,0,0:0:0:0:
64,192,61230,1,0,0:0:0:0:
320,192,61230,1,0,0:0:0:0:
448,192,61230,1,0,0:0:0:0:
192,192,61295,1,0,0:0:0:0:
64,192,61359,1,0,0:0:0:0:
448,192,61359,1,0,0:0:0:0:
320,192,61423,1,0,0:0:0:0:
64,192,61486,1,0,0:0:0:0:
192,192,61486,1,0,0:0:0:0:
448,192,61486,1,0,0:0:0:0:
320,192,61550,1,0,0:0:0:0:
192,192,61615,1,0,0:0:0:0:
448,192,61615,1,0,0:0:0:0:
64,192,61679,1,0,0:0:0:0:
192,192,61743,1,0,0:0:0:0:
320,192,61743,1,0,0:0:0:0:
448,192,61743,1,0,0:0:0:0:
64,192,61806,1,0,0:0:0:0:
192,192,61871,1,0,0:0:0:0:
320,192,61871,1,0,0:0:0:0:
448,192,61935,1,0,0:0:0:0:
64,192,61999,1,0,0:0:0:0:
192,192,61999,1,0,0:0:0:0:
320,192,61999,1,0,0:0:0:0:
448,192,62063,1,0,0:0:0:0:
64,192,62126,1,0,0:0:0:0:
320,192,62126,1,0,0:0:0:0:
192,192,62191,1,0,0:0:0:0:
64,192,62255,1,0,0:0:0:0:
320,192,62255,1,0,0:0:0:0:
448,192,62255,1,0,0:0:0:0:
192,192,62319,1,0,0:0:0:0:
320,192,62383,1,0,0:0:0:0:
448,192,62383,1,0,0:0:0:0:
64,192,62446,1,0,0:0:0:0:
192,192,62446,1,0,0:0:0:0:
320,192,62511,1,0,0:0:0:0:
448,192,62511,1,0,0:0:0:0:
64,192,62575,1,0,0:0:0:0:
192,192,62639,1,0,0:0:0:0:
320,192,62639,1,0,0:0:0:0:
448,192,62703,1,0,0:0:0:0:
64,192,62766,1,0,0:0:0:0:
192,192,62766,1,0,0:0:0:0:
320,192,62766,1,0,0:0:0:0:
448,192,62831,1,0,0:0:0:0:
64,192,62895,1,0,0:0:0:0:
320,192,62895,1,0,0:0:0:0:
192,192,62959,1,0,0:0:0:0:
64,192,63023,1,0,0:0:0:0:
320,192,63023,1,0,0:0:0:0:
448,192,63023,1,0,0:0:0:0:
192,192,63087,1,0,0:0:0:0:
64,192,63151,1,0,0:0:0:0:
448,192,63151,1,0,0:0:0:0:
320,192,63215,1,0,0:0:0:0:
64,192,63279,1,0,0:0:0:0:
192,192,63279,1,0,0:0:0:0:
448,192,63279,1,0,0:0:0:0:
320,192,63343,1,0,0:0:0:0:
64,192,63407,1,0,0:0:0:0:
448,192,63407,1,0,0:0:0:0:
192,192,63471,1,0,0:0:0:0:
64,192,63535,1,0,0:0:0:0:
320,192,63535,1,0,0:0:0:0:
448,192,63535,1,0,0:0:0:0:
192,192,63599,1,0,0:0:0:0:
320,192,63663,1,0,0:0:0:0:
448,192,63663,1,0,0:0:0:0:
64,192,63727,1,0,0:0:0:0:
192,192,63791,1,0,0:0:0:0:
320,192,63791,1,0,0:0:0:0:
448,192,63791,1,0,0:0:0:0:
64,192,63855,1,0,0:0:0:0:
192,192,63919,1,0,0:0:0:0:
448,192,63919,1,0,0:0:0:0:
320,192,63983,1,0,0:0:0:0:
64,192,64047,1,0,0:0:0:0:
192,192,64047,1,0,0:0:0:0:
448,192,64047,1,0,0:0:0:0:
320,192,64111,1,0,0:0:0:0:
192,192,64175,1,0,0:0:0:0:
448,192,64175,1,0,0:0:0:0:
64,192,64239,1,0,0:0:0:0:
192,192,64303,1,0,0:0:0:0:
320,192,64303,1,0,0:0:0:0:
448,192,64303,1,0,0:0:0:0:
64,192,64367,1,0,0:0:0:0:
320,192,64431,1,0,0:0:0:0:
448,192,64431,1,0,0:0:0:0:
64,192,64495,1,0,0:0:0:0:
192,192,64495,1,0,0:0:0:0:
320,192,64559,1,0,0:0:0:0:
448,192,64559,1,0,0:0:0:0:
192,192,64623,1,0,0:0:0:0:
64,192,64687,1,0,0:0:0:0:
448,192,64687,1,0,0:0:0:0:
320,192,64751,1,0,0:0:0:0:
64,192,64815,1,0,0:0:0:0:
192,192,64815,1,0,0:0:0:0:
448,192,64815,1,0,0:0:0:0:
320,192,64879,1,0,0:0:0:0:
192,192,64943,1,0,0:0:0:0:
448,192,64943,1,0,0:0:0:0:
64,192,65007,1,0,0:0:0:0:
192,192,65071,1,0,0:0:0:0:
320,192,65071,1,0,0:0:0:0:
448,192,65071,1,0,0:0:0:0:
64,192,65135,1,0,0:0:0:0:
192,192,65200,1,0,0:0:0:0:
448,192,65200,1,0,0:0:0:0:
320,192,65263,1,0,0:0:0:0:
64,192,65327,1,0,0:0:0:0:
192,192,65327,1,0,0:0:0:0:
448,192,65327,1,0,0:0:0:0:
320,192,65391,1,0,0:0:0:0:
64,192,65455,1,0,0:0:0:0:
192,192,65455,1,0,0:0:0:0:
448,192,65520,1,0,0:0:0:0:
64,192,65583,1,0,0:0:0:0:
192,192,65583,1,0,0:0:0:0:
320,192,65583,1,0,0:0:0:0:
448,192,65647,1,0,0:0:0:0:
64,192,65711,1,0,0:0:0:0:
320,192,65711,1,0,0:0:0:0:
192,192,65775,1,0,0:0:0:0:
64,192,65840,1,0,0:0:0:0:
320,192,65840,1,0,0:0:0:0:
448,192,65840,1,0,0:0:0:0:
192,192,65903,1,0,0:0:0:0:
64,192,65967,1,0,0:0:0:0:
448,192,65967,1,0,0:0:0:0:
320,192,66031,1,0,0:0:0:0:
64,192,66096,1,0,0:0:0:0:
192,192,66096,1,0,0:0:0:0:
448,192,66096,1,0,0:0:0:0:
320,192,66160,1,0,0:0:0:0:
192,192,66223,1,0,0:0:0:0:
448,192,66223,1,0,0:0:0:0:
64,192,66287,1,0,0:0:0:0:
192,192,66351,1,0,0:0:0:0:
320,192,66351,1,0,0:0:0:0:
448,192,66351,1,0,0:0:0:0:
64,192,66416,1,0,0:0:0:0:
192,192,66480,1,0,0:0:0:0:
320,192,66480,1,0,0:0:0:0:
64,192,66543,1,0,0:0:0:0:
448,192,66543,1,0,0:0:0:0:
192,192,66607,1,0,0:0:0:0:
320,192,66607,1,0,0:0:0:0:
448,192,66671,1,0,0:0:0:0:
64,192,66736,1,0,0:0:0:0:
320,192,66736,1,0,0:0:0:0:
192,192,66800,1,0,0:0:0:0:
64,192,66863,1,0,0:0:0:0:
320,192,66863,1,0,0:0:0:0:
448,192,66863,1,0,0:0:0:0:
192,192,66927,1,0,0:0:0:0:
64,192,66991,1,0,0:0:0:0:
448,192,66991,1,0,0:0:0:0:
320,192,67056,1,0,0:0:0:0:
64,192,67120,1,0,0:0:0:0:
192,192,67120,1,0,0:0:0:0:
448,192,67120,1,0,0:0:0:0:
320,192,67183,1,0,0:0:0:0:
64,192,67247,1,0,0:0:0:0:
192,192,67247,1,0,0:0:0:0:
448,192,67312,1,0,0:0:0:0:
64,192,67376,1,0,0:0:0:0:
192,192,67376,1,0,0:0:0:0:
320,192,67376,1,0,0:0:0:0:
448,192,67440,1,0,0:0:0:0:
192,192,67503,1,0,0:0:0:0:
320,192,67503,1,0,0:0:0:0:
64,192,67567,1,0,0:0:0:0:
192,192,67632,1,0,0:0:0:0:
320,192,67632,1,0,0:0:0:0:
448,192,67632,1,0,0:0:0:0:
64,192,67696,1,0,0:0:0:0:
192,192,67760,1,0,0:0:0:0:
320,192,67760,1,0,0:0:0:0:
448,192,67823,1,0,0:0:0:0:
64,192,67887,1,0,0:0:0:0:
192,192,67887,1,0,0:0:0:0:
320,192,67887,1,0,0:0:0:0:
448,192,67952,1,0,0:0:0:0:
64,192,68016,1,0,0:0:0:0:
192,192,68016,1,0,0:0:0:0:
320,192,68080,1,0,0:0:0:0:
64,192,68143,1,0,0:0:0:0:
192,192,68143,1,0,0:0:0:0:
448,192,68143,1,0,0:0:0:0:
320,192,68207,1,0,0:0:0:0:
192,192,68272,1,0,0:0:0:0:
448,192,68272,1,0,0:0:0:0:
64,192,68336,1,0,0:0:0:0:
192,192,68400,1,0,0:0:0:0:
320,192,68400,1,0,0:0:0:0:
448,192,68400,1,0,0:0:0:0:
64,192,68463,1,0,0:0:0:0:
320,192,68528,1,0,0:0:0:0:
448,192,68528,1,0,0:0:0:0:
64,192,68592,1,0,0:0:0:0:
192,192,68592,1,0,0:0:0:0:
320,192,68656,1,0,0:0:0:0:
448,192,68656,1,0,0:0:0:0:
192,192,68720,1,0,0:0:0:0:
64,192,68783,1,0,0:0:0:0:
320,192,68783,1,0,0:0:0:0:
448,192,68848,1,0,0:0:0:0:
64,192,68912,1,0,0:0:0:0:
192,192,68912,1,0,0:0:0:0:
320,192,68912,1,0,0:0:0:0:
448,192,68976,1,0,0:0:0:0:
64,192,69040,1,0,0:0:0:0:
320,192,69040,1,0,0:0:0:0:
192,192,69103,1,0,0:0:0:0:
64,192,69168,1,0,0:0:0:0:
320,192,69168,1,0,0:0:0:0:
448,192,69168,1,0,0:0:0:0:
192,192,69232,1,0,0:0:0:0:
320,192,69296,1,0,0:0:0:0:
448,192,69296,1,0,0:0:0:0:
192,192,69360,1,0,0:0:0:0:
64,192,69424,1,0,0:0:0:0:
320,192,69424,1,0,0:0:0:0:
448,192,69424,1,0,0:0:0:0:
192,192,69488,1,0,0:0:0:0:
320,192,69552,1,0,0:0:0:0:
448,192,69552,1,0,0:0:0:0:
64,192,69616,1,0,0:0:0:0:
192,192,69680,1,0,0:0:0:0:
320,192,69680,1,0,0:0:0:0:
448,192,69680,1,0,0:0:0:0:
64,192,69744,1,0,0:0:0:0:
320,192,69808,1,0,0:0:0:0:
448,192,69808,1,0,0:0:0:0:
192,192,69872,1,0,0:0:0:0:
64,192,69936,1,0,0:0:0:0:
320,192,69936,1,0,0:0:0:0:
448,192,69936,1,0,0:0:0:0:
192,192,70000,1,0,0:0:0:0:
64,192,70064,1,0,0:0:0:0:
448,192,70064,1,0,0:0:0:0:
320,192,70128,1,0,0:0:0:0:
64,192,70192,1,0,0:0:0:0:
192,192,70192,1,0,0:0:0:0:
448,192,70192,1,0,0:0:0:0:
320,192,70256,1,0,0:0:0:0:
192,192,70320,1,0,0:0:0:0:
448,192,70320,1,0,0:0:0:0:
64,192,70384,1,0,0:0:0:0:
192,192,70448,1,0,0:0:0:0:
320,192,70448,1,0,0:0:0:0:
448,192,70448,1,0,0:0:0:0:
64,192,70512,1,0,0:0:0:0:
192,192,70576,1,0,0:0:0:0:
448,192,70576,1,0,0:0:0:0:
64,192,70640,1,0,0:0:0:0:
320,192,70640,1,0,0:0:0:0:
192,192,70704,1,0,0:0:0:0:
448,192,70704,1,0,0:0:0:0:
320,192,70768,1,0,0:0:0:0:
64,192,70832,1,0,0:0:0:0:
448,192,70832,1,0,0:0:0:0:
192,192,70896,1,0,0:0:0:0:
64,192,70960,1,0,0:0:0:0:
320,192,70960,1,0,0:0:0:0:
448,192,70960,1,0,0:0:0:0:
192,192,71024,1,0,0:0:0:0:
320,192,71088,1,0,0:0:0:0:
448,192,71088,1,0,0:0:0:0:
192,192,71152,1,0,0:0:0:0:
64,192,71216,1,0,0:0:0:0:
320,192,71216,1,0,0:0:0:0:
448,192,71216,1,0,0:0:0:0:
192,192,71280,1,0,0:0:0:0:
64,192,71344,1,0,0:0:0:0:
320,192,71344,1,0,0:0:0:0:
448,192,71408,1,0,0:0:0:0:
64,192,71472,1,0,0:0:0:0:
192,192,71472,1,0,0:0:0:0:
320,192,71472,1,0,0:0:0:0:
448,192,71536,1,0,0:0:0:0:
64,192,71600,1,0,0:0:0:0:
192,192,71600,1,0,0:0:0:0:
320,192,71664,1,0,0:0:0:0:
448,192,71664,1,0,0:0:0:0:
64,192,71728,1,0,0:0:0:0:
192,192,71728,1,0,0:0:0:0:
320,192,71792,1,0,0:0:0:0:
192,192,71856,1,0,0:0:0:0:
448,192,71856,1,0,0:0:0:0:
64,192,71920,1,0,0:0:0:0:
192,192,71984,1,0,0:0:0:0:
320,192,71984,1,0,0:0:0:0:
448,192,71984,1,0,0:0:0:0:
64,192,72048,1,0,0:0:0:0:
192,192,72112,1,0,0:0:0:0:
448,192,72112,1,0,0:0:0:0:
320,192,72176,1,0,0:0:0:0:
64,192,72240,1,0,0:0:0:0:
192,192,72240,1,0,0:0:0:0:
448,192,72240,1,0,0:0:0:0:
320,192,72304,1,0,0:0:0:0:
192,192,72368,1,0,0:0:0:0:
448,192,72368,1,0,0:0:0:0:
64,192,72432,1,0,0:0:0:0:
192,192,72496,1,0,0:0:0:0:
320,192,72496,1,0,0:0:0:0:
448,192,72496,1,0,0:0:0:0:
64,192,72560,1,0,0:0:0:0:
320,192,72624,1,0,0:0:0:0:
448,192,72624,1,0,0:0:0:0:
64,192,72688,1,0,0:0:0:0:
192,192,72688,1,0,0:0:0:0:
320,192,72753,1,0,0:0:0:0:
448,192,72753,1,0,0:0:0:0:
192,192,72816,1,0,0:0:0:0:
64,192,72880,1,0,0:0:0:0:
448,192,72880,1,0,0:0:0:0:
320,192,72944,1,0,0:0:0:0:
64,192,73008,1,0,0:0:0:0:
192,192,73008,1,0,0:0:0:0:
448,192,73008,1,0,0:0:0:0:
320,192,73073,1,0,0:0:0:0:
64,192,73136,1,0,0:0:0:0:
192,192,73136,1,0,0:0:0:0:
448,192,73200,1,0,0:0:0:0:
64,192,73264,1,0,0:0:0:0:
320,192,73264,1,0,0:0:0:0:
192,192,73328,1,0,0:0:0:0:
448,192,73328,1,0,0:0:0:0:
64,192,73393,1,0,0:0:0:0:
320,192,73393,1,0,0:0:0:0:
192,192,73456,1,0,0:0:0:0:
448,192,73456,1,0,0:0:0:0:
64,192,73520,1,0,0:0:0:0:
320,192,73520,1,0,0:0:0:0:
192,192,73584,1,0,0:0:0:0:
320,192,73648,1,0,0:0:0:0:
448,192,73648,1,0,0:0:0:0:
64,192,73713,1,0,0:0:0:0:
192,192,73713,1,0,0:0:0:0:
320,192,73776,1,0,0:0:0:0:
448,192,73776,1,0,0:0:0:0:
192,192,73840,1,0,0:0:0:0:
64,192,73904,1,0,0:0:0:0:
320,192,73904,1,0,0:0:0:0:
192,192,73969,1,0,0:0:0:0:
448,192,73969,1,0,0:0:0:0:
64,192,74033,1,0,0:0:0:0:
320,192,74033,1,0,0:0:0:0:
192,192,74096,1,0,0:0:0:0:
320,192,74160,1,0,0:0:0:0:
448,192,74160,1,0,0:0:0:0:
64,192,74224,1,0,0:0:0:0:
192,192,74224,1,0,0:0:0:0:
320,192,74289,1,0,0:0:0:0:
448,192,74289,1,0,0:0:0:0:
64,192,74353,1,0,0:0:0:0:
192,192,74416,1,0,0:0:0:0:
448,192,74416,1,0,0:0:0:0:
64,192,74480,1,0,0:0:0:0:
320,192,74480,1,0,0:0:0:0:
192,192,74544,1,0,0:0:0:0:
448,192,74544,1,0,0:0:0:0:
320,192,74609,1,0,0:0:0:0:
64,192,74673,1,0,0:0:0:0:
448,192,74673,1,0,0:0:0:0:
192,192,74736,1,0,0:0:0:0:
64,192,74800,1,0,0:0:0:0:
320,192,74800,1,0,0:0:0:0:
448,192,74800,1,0,0:0:0:0:
192,192,74865,1,0,0:0:0:0:
320,192,74929,1,0,0:0:0:0:
448,192,74929,1,0,0:0:0:0:
64,192,74993,1,0,0:0:0:0:
192,192,74993,1,0,0:0:0:0:
320,192,75056,1,0,0:0:0:0:
448,192,75056,1,0,0:0:0:0:
64,192,75120,1,0,0:0:0:0:
192,192,75120,1,0,0:0:0:0:
320,192,75185,1,0,0:0:0:0:
448,192,75185,1,0,0:0:0:0:
64,192,75249,1,0,0:0:0:0:
192,192,75249,1,0,0:0:0:0:
320,192,75313,1,0,0:0:0:0:
448,192,75313,1,0,0:0:0:0:
64,192,75376,1,0,0:0:0:0:
192,192,75376,1,0,0:0:0:0:
320,192,75440,1,0,0:0:0:0:
448,192,75440,1,0,0:0:0:0:
64,192,75505,1,0,0:0:0:0:
192,192,75505,1,0,0:0:0:0:
320,192,75569,1,0,0:0:0:0:
448,192,75569,1,0,0:0:0:0:
64,192,75633,1,0,0:0:0:0:
192,192,75633,1,0,0:0:0:0:
320,192,75696,1,0,0:0:0:0:
448,192,75696,1,0,0:0:0:0:
64,192,75760,1,0,0:0:0:0:
192,192,75825,1,0,0:0:0:0:
320,192,75825,1,0,0:0:0:0:
448,192,75825,1,0,0:0:0:0:
64,192,75889,1,0,0:0:0:0:
320,192,75953,1,0,0:0:0:0:
448,192,75953,1,0,0:0:0:0:
64,192,76016,1,0,0:0:0:0:
192,192,76016,1,0,0:0:0:0:
320,192,76081,1,0,0:0:0:0:
448,192,76081,1,0,0:0:0:0:
64,192,76145,1,0,0:0:0:0:
192,192,76145,1,0,0:0:0:0:
320,192,76209,1,0,0:0:0:0:
448,192,76209,1,0,0:0:0:0:
64,192,76273,1,0,0:0:0:0:
192,192,76336,1,0,0:0:0:0:
320,192,76336,1,0,0:0:0:0:
448,192,76336,1,0,0:0:0:0:
64,192,76401,1,0,0:0:0:0:
320,192,76465,1,0,0:0:0:0:
448,192,76465,1,0,0:0:0:0:
64,192,76529,1,0,0:0:0:0:
192,192,76529,1,0,0:0:0:0:
320,192,76593,1,0,0:0:0:0:
448,192,76593,1,0,0:0:0:0:
64,192,76656,1,0,0:0:0:0:
192,192,76656,1,0,0:0:0:0:
320,192,76721,1,0,0:0:0:0:
448,192,76721,1,0,0:0:0:0:
192,192,76785,1,0,0:0:0:0:
64,192,76849,1,0,0:0:0:0:
320,192,76849,1,0,0:0:0:0:
448,192,76849,1,0,0:0:0:0:
448,192,76977,1,0,0:0:0:0:
192,192,77105,1,0,0:0:0:0:
320,192,77105,1,0,0:0:0:0:
64,192,77233,1,0,0:0:0:0:
192,192,77297,1,0,0:0:0:0:
448,192,77297,1,0,0:0:0:0:
64,192,77425,1,0,0:0:0:0:
320,192,77425,1,0,0:0:0:0:
448,192,77489,1,0,0:0:0:0:
64,192,77617,1,0,0:0:0:0:
192,192,77649,1,0,0:0:0:0:
320,192,77681,1,0,0:0:0:0:
448,192,77713,1,0,0:0:0:0:
64,192,77745,1,0,0:0:0:0:
192,192,77777,1,0,0:0:0:0:
320,192,77809,1,0,0:0:0:0:
448,192,77841,1,0,0:0:0:0:
64,192,77873,128,0,77937:0:0:0:0:
192,192,77873,1,0,0:0:0:0:
320,192,78001,128,0,78065:0:0:0:0:
320,192,78257,128,0,78321:0:0:0:0:
192,192,78513,128,0,78577:0:0:0:0:
64,192,78769,128,0,78833:0:0:0:0:
192,192,78897,128,0,78961:0:0:0:0:
320,192,79025,128,0,79089:0:0:0:0:
320,192,79281,128,0,79345:0:0:0:0:
192,192,79537,128,0,79601:0:0:0:0:
64,192,79793,128,0,79857:0:0:0:0:
192,192,79921,128,0,79985:0:0:0:0:
320,192,80050,128,0,80113:0:0:0:0:
320,192,80306,128,0,80370:0:0:0:0:
64,192,80433,1,0,0:0:0:0:
192,192,80561,128,0,80626:0:0:0:0:
448,192,80690,1,0,0:0:0:0:
64,192,80817,128,0,80881:0:0:0:0:
192,192,80946,128,0,81010:0:0:0:0:
448,192,80946,1,0,0:0:0:0:
320,192,81073,128,0,81137:0:0:0:0:
64,192,81201,1,0,0:0:0:0:
320,192,81330,128,0,81393:0:0:0:0:
448,192,81457,1,0,0:0:0:0:
64,192,81586,128,0,81650:0:0:0:0:
192,192,81713,1,0,0:0:0:0:
64,192,81842,128,0,81906:0:0:0:0:
192,192,81970,128,0,82033:0:0:0:0:
448,192,81970,128,0,82033:0:0:0:0:
320,192,82097,128,0,82162:0:0:0:0:
448,192,82097,128,0,82162:0:0:0:0:
192,192,82226,1,0,0:0:0:0:
320,192,82353,128,0,82418:0:0:0:0:
448,192,82353,128,0,82418:0:0:0:0:
64,192,82482,1,0,0:0:0:0:
192,192,82610,128,0,82673:0:0:0:0:
320,192,82610,128,0,82673:0:0:0:0:
64,192,82738,1,0,0:0:0:0:
64,192,82866,128,0,82930:0:0:0:0:
448,192,82866,128,0,82930:0:0:0:0:
192,192,82993,128,0,83058:0:0:0:0:
448,192,82993,128,0,83058:0:0:0:0:
320,192,83122,128,0,83186:0:0:0:0:
448,192,83122,128,0,83186:0:0:0:0:
192,192,83250,1,0,0:0:0:0:
320,192,83378,128,0,83442:0:0:0:0:
448,192,83378,128,0,83442:0:0:0:0:
64,192,83506,1,0,0:0:0:0:
192,192,83634,128,0,83698:0:0:0:0:
320,192,83634,128,0,83698:0:0:0:0:
64,192,83762,1,0,0:0:0:0:
64,192,83890,128,0,83954:0:0:0:0:
448,192,83890,128,0,83954:0:0:0:0:
192,192,84018,128,0,84082:0:0:0:0:
448,192,84018,128,0,84082:0:0:0:0:
320,192,84146,128,0,84210:0:0:0:0:
448,192,84146,128,0,84210:0:0:0:0:
64,192,84274,1,0,0:0:0:0:
320,192,84402,128,0,84466:0:0:0:0:
448,192,84402,128,0,84466:0:0:0:0:
192,192,84530,1,0,0:0:0:0:
192,192,84658,128,0,84722:0:0:0:0:
320,192,84658,128,0,84722:0:0:0:0:
64,192,84786,1,0,0:0:0:0:
64,192,84914,128,0,84978:0:0:0:0:
448,192,84914,128,0,84978:0:0:0:0:
192,192,85042,128,0,85106:0:0:0:0:
448,192,85042,128,0,85106:0:0:0:0:
320,192,85170,128,0,85234:0:0:0:0:
448,192,85170,128,0,85234:0:0:0:0:
64,192,85298,1,0,0:0:0:0:
320,192,85426,128,0,85490:0:0:0:0:
448,192,85426,128,0,85490:0:0:0:0:
192,192,85554,1,0,0:0:0:0:
192,192,85682,128,0,85746:0:0:0:0:
320,192,85682,128,0,85746:0:0:0:0:
64,192,85810,1,0,0:0:0:0:
64,192,85938,128,0,86002:0:0:0:0:
320,192,85938,128,0,86002:0:0:0:0:
64,192,86066,1,0,0:0:0:0:
320,192,86066,1,0,0:0:0:0:
448,192,86066,1,0,0:0:0:0:
320,192,86194,1,0,0:0:0:0:
448,192,86194,1,0,0:0:0:0:
64,192,86322,1,0,0:0:0:0:
192,192,86322,1,0,0:0:0:0:
320,192,86322,1,0,0:0:0:0:
320,192,86450,1,0,0:0:0:0:
448,192,86450,1,0,0:0:0:0:
64,192,86578,1,0,0:0:0:0:
192,192,86578,1,0,0:0:0:0:
320,192,86578,1,0,0:0:0:0:
192,192,86706,1,0,0:0:0:0:
320,192,86706,1,0,0:0:0:0:
64,192,86834,1,0,0:0:0:0:
192,192,86834,1,0,0:0:0:0:
320,192,86834,1,0,0:0:0:0:
64,192,86963,1,0,0:0:0:0:
448,192,86963,1,0,0:0:0:0:
64,192,87090,1,0,0:0:0:0:
192,192,87090,1,0,0:0:0:0:
448,192,87090,1,0,0:0:0:0:
320,192,87218,1,0,0:0:0:0:
448,192,87218,1,0,0:0:0:0:
192,192,87346,1,0,0:0:0:0:
320,192,87346,1,0,0:0:0:0:
448,192,87346,1,0,0:0:0:0:
320,192,87474,1,0,0:0:0:0:
448,192,87474,1,0,0:0:0:0:
192,192,87603,1,0,0:0:0:0:
320,192,87603,1,0,0:0:0:0:
448,192,87603,1,0,0:0:0:0:
64,192,87730,1,0,0:0:0:0:
320,192,87730,1,0,0:0:0:0:
192,192,87859,1,0,0:0:0:0:
320,192,87859,1,0,0:0:0:0:
448,192,87859,1,0,0:0:0:0:
64,192,87986,1,0,0:0:0:0:
320,192,87986,1,0,0:0:0:0:
64,192,88114,1,0,0:0:0:0:
320,192,88114,1,0,0:0:0:0:
448,192,88114,1,0,0:0:0:0:
320,192,88243,1,0,0:0:0:0:
448,192,88243,1,0,0:0:0:0:
64,192,88370,1,0,0:0:0:0:
192,192,88370,1,0,0:0:0:0:
448,192,88370,1,0,0:0:0:0:
192,192,88499,1,0,0:0:0:0:
448,192,88499,1,0,0:0:0:0:
64,192,88626,1,0,0:0:0:0:
192,192,88626,1,0,0:0:0:0:
448,192,88626,1,0,0:0:0:0:
192,192,88754,1,0,0:0:0:0:
320,192,88754,1,0,0:0:0:0:
64,192,88883,1,0,0:0:0:0:
192,192,88883,1,0,0:0:0:0:
448,192,88883,1,0,0:0:0:0:
192,192,89010,1,0,0:0:0:0:
320,192,89010,1,0,0:0:0:0:
192,192,89139,1,0,0:0:0:0:
320,192,89139,1,0,0:0:0:0:
448,192,89139,1,0,0:0:0:0:
64,192,89266,1,0,0:0:0:0:
320,192,89266,1,0,0:0:0:0:
64,192,89395,1,0,0:0:0:0:
320,192,89395,1,0,0:0:0:0:
448,192,89395,1,0,0:0:0:0:
64,192,89523,1,0,0:0:0:0:
320,192,89523,1,0,0:0:0:0:
64,192,89650,1,0,0:0:0:0:
320,192,89650,1,0,0:0:0:0:
448,192,89650,1,0,0:0:0:0:
64,192,89779,1,0,0:0:0:0:
192,192,89779,1,0,0:0:0:0:
64,192,89906,1,0,0:0:0:0:
320,192,89906,1,0,0:0:0:0:
448,192,89906,1,0,0:0:0:0:
320,192,90035,1,0,0:0:0:0:
448,192,90035,1,0,0:0:0:0:
64,192,90163,1,0,0:0:0:0:
192,192,90163,1,0,0:0:0:0:
448,192,90163,1,0,0:0:0:0:
192,192,90291,1,0,0:0:0:0:
192,192,90419,1,0,0:0:0:0:
448,192,90419,1,0,0:0:0:0:
192,192,90546,1,0,0:0:0:0:
192,192,90675,1,0,0:0:0:0:
448,192,90675,1,0,0:0:0:0:
192,192,90803,1,0,0:0:0:0:
192,192,90931,1,0,0:0:0:0:
448,192,90931,1,0,0:0:0:0:
320,192,90995,1,0,0:0:0:0:
192,192,91059,1,0,0:0:0:0:
448,192,91059,1,0,0:0:0:0:
64,192,91123,1,0,0:0:0:0:
320,192,91123,1,0,0:0:0:0:
192,192,91187,1,0,0:0:0:0:
448,192,91187,1,0,0:0:0:0:
192,192,91315,1,0,0:0:0:0:
192,192,91443,1,0,0:0:0:0:
448,192,91443,1,0,0:0:0:0:
192,192,91571,1,0,0:0:0:0:
192,192,91699,1,0,0:0:0:0:
448,192,91699,1,0,0:0:0:0:
192,192,91827,1,0,0:0:0:0:
448,192,91955,1,0,0:0:0:0:
320,192,91976,1,0,0:0:0:0:
192,192,91998,1,0,0:0:0:0:
64,192,92019,1,0,0:0:0:0:
448,192,92040,1,0,0:0:0:0:
320,192,92062,1,0,0:0:0:0:
192,192,92083,1,0,0:0:0:0:
64,192,92104,1,0,0:0:0:0:
448,192,92126,1,0,0:0:0:0:
320,192,92147,1,0,0:0:0:0:
192,192,92168,1,0,0:0:0:0:
64,192,92190,1,0,0:0:0:0:
320,192,92211,1,0,0:0:0:0:
448,192,92211,1,0,0:0:0:0:
64,192,92339,1,0,0:0:0:0:
448,192,92339,1,0,0:0:0:0:
448,192,92467,1,0,0:0:0:0:
320,192,92488,1,0,0:0:0:0:
192,192,92510,1,0,0:0:0:0:
320,192,92595,1,0,0:0:0:0:
192,192,92616,1,0,0:0:0:0:
64,192,92638,1,0,0:0:0:0:
192,192,92723,1,0,0:0:0:0:
448,192,92723,1,0,0:0:0:0:
192,192,92851,1,0,0:0:0:0:
448,192,92851,1,0,0:0:0:0:
64,192,92979,1,0,0:0:0:0:
192,192,93000,1,0,0:0:0:0:
320,192,93022,1,0,0:0:0:0:
192,192,93107,1,0,0:0:0:0:
320,192,93129,1,0,0:0:0:0:
448,192,93150,1,0,0:0:0:0:
64,192,93235,1,0,0:0:0:0:
448,192,93235,1,0,0:0:0:0:
448,192,93427,1,0,0:0:0:0:
448,192,93620,1,0,0:0:0:0:
64,192,93747,1,0,0:0:0:0:
320,192,93811,1,0,0:0:0:0:
192,192,93875,1,0,0:0:0:0:
448,192,93940,1,0,0:0:0:0:
64,192,94003,1,0,0:0:0:0:
320,192,94067,1,0,0:0:0:0:
192,192,94131,1,0,0:0:0:0:
448,192,94195,1,0,0:0:0:0:
64,192,94260,1,0,0:0:0:0:
192,192,94260,1,0,0:0:0:0:
320,192,94260,1,0,0:0:0:0:
448,192,94323,1,0,0:0:0:0:
64,192,94387,1,0,0:0:0:0:
192,192,94387,1,0,0:0:0:0:
320,192,94451,1,0,0:0:0:0:
64,192,94516,1,0,0:0:0:0:
192,192,94516,1,0,0:0:0:0:
448,192,94516,1,0,0:0:0:0:
320,192,94580,1,0,0:0:0:0:
192,192,94643,1,0,0:0:0:0:
448,192,94643,1,0,0:0:0:0:
64,192,94707,1,0,0:0:0:0:
192,192,94771,1,0,0:0:0:0:
320,192,94771,1,0,0:0:0:0:
448,192,94771,1,0,0:0:0:0:
64,192,94836,1,0,0:0:0:0:
320,192,94900,1,0,0:0:0:0:
448,192,94900,1,0,0:0:0:0:
192,192,94963,1,0,0:0:0:0:
64,192,95027,1,0,0:0:0:0:
320,192,95027,1,0,0:0:0:0:
448,192,95027,1,0,0:0:0:0:
192,192,95091,1,0,0:0:0:0:
320,192,95156,1,0,0:0:0:0:
448,192,95156,1,0,0:0:0:0:
64,192,95220,1,0,0:0:0:0:
192,192,95220,1,0,0:0:0:0:
320,192,95283,1,0,0:0:0:0:
448,192,95283,1,0,0:0:0:0:
64,192,95347,1,0,0:0:0:0:
192,192,95411,1,0,0:0:0:0:
320,192,95411,1,0,0:0:0:0:
448,192,95476,1,0,0:0:0:0:
64,192,95540,1,0,0:0:0:0:
192,192,95540,1,0,0:0:0:0:
320,192,95540,1,0,0:0:0:0:
448,192,95603,1,0,0:0:0:0:
192,192,95667,1,0,0:0:0:0:
320,192,95667,1,0,0:0:0:0:
64,192,95732,1,0,0:0:0:0:
192,192,95796,1,0,0:0:0:0:
320,192,95796,1,0,0:0:0:0:
448,192,95796,1,0,0:0:0:0:
64,192,95860,1,0,0:0:0:0:
320,192,95923,1,0,0:0:0:0:
448,192,95923,1,0,0:0:0:0:
192,192,95987,1,0,0:0:0:0:
64,192,96052,1,0,0:0:0:0:
320,192,96052,1,0,0:0:0:0:
448,192,96052,1,0,0:0:0:0:
192,192,96116,1,0,0:0:0:0:
320,192,96180,1,0,0:0:0:0:
448,192,96180,1,0,0:0:0:0:
64,192,96243,1,0,0:0:0:0:
192,192,96307,1,0,0:0:0:0:
320,192,96307,1,0,0:0:0:0:
448,192,96307,1,0,0:0:0:0:
64,192,96372,1,0,0:0:0:0:
320,192,96436,1,0,0:0:0:0:
448,192,96436,1,0,0:0:0:0:
192,192,96500,1,0,0:0:0:0:
64,192,96563,1,0,0:0:0:0:
320,192,96563,1,0,0:0:0:0:
448,192,96563,1,0,0:0:0:0:
192,192,96628,1,0,0:0:0:0:
64,192,96692,1,0,0:0:0:0:
320,192,96692,1,0,0:0:0:0:
448,192,96756,1,0,0:0:0:0:
64,192,96820,1,0,0:0:0:0:
192,192,96820,1,0,0:0:0:0:
320,192,96820,1,0,0:0:0:0:
448,192,96883,1,0,0:0:0:0:
192,192,96948,1,0,0:0:0:0:
320,192,96948,1,0,0:0:0:0:
64,192,97012,1,0,0:0:0:0:
192,192,97076,1,0,0:0:0:0:
320,192,97076,1,0,0:0:0:0:
448,192,97076,1,0,0:0:0:0:
64,192,97140,1,0,0:0:0:0:
192,192,97203,1,0,0:0:0:0:
448,192,97203,1,0,0:0:0:0:
64,192,97268,1,0,0:0:0:0:
320,192,97268,1,0,0:0:0:0:
192,192,97332,1,0,0:0:0:0:
448,192,97332,1,0,0:0:0:0:
320,192,97396,1,0,0:0:0:0:
192,192,97460,1,0,0:0:0:0:
448,192,97460,1,0,0:0:0:0:
64,192,97588,1,0,0:0:0:0:
192,192,97588,1,0,0:0:0:0:
192,192,97716,1,0,0:0:0:0:
448,192,97716,1,0,0:0:0:0:
64,192,97844,1,0,0:0:0:0:
192,192,97844,1,0,0:0:0:0:
320,192,97844,1,0,0:0:0:0:
192,192,97972,1,0,0:0:0:0:
320,192,97972,1,0,0:0:0:0:
64,192,98100,1,0,0:0:0:0:
448,192,98100,1,0,0:0:0:0:
192,192,98228,1,0,0:0:0:0:
320,192,98228,1,0,0:0:0:0:
64,192,98356,1,0,0:0:0:0:
320,192,98356,1,0,0:0:0:0:
448,192,98356,1,0,0:0:0:0:
192,192,98420,1,0,0:0:0:0:
64,192,98484,1,0,0:0:0:0:
320,192,98484,1,0,0:0:0:0:
448,192,98548,1,0,0:0:0:0:
64,192,98612,1,0,0:0:0:0:
192,192,98612,1,0,0:0:0:0:
320,192,98612,1,0,0:0:0:0:
448,192,98676,1,0,0:0:0:0:
192,192,98740,1,0,0:0:0:0:
320,192,98740,1,0,0:0:0:0:
64,192,98804,1,0,0:0:0:0:
192,192,98868,1,0,0:0:0:0:
320,192,98868,1,0,0:0:0:0:
448,192,98868,1,0,0:0:0:0:
64,192,98932,1,0,0:0:0:0:
192,192,98996,1,0,0:0:0:0:
448,192,98996,1,0,0:0:0:0:
320,192,99060,1,0,0:0:0:0:
64,192,99124,1,0,0:0:0:0:
192,192,99124,1,0,0:0:0:0:
448,192,99124,1,0,0:0:0:0:
320,192,99188,1,0,0:0:0:0:
64,192,99252,1,0,0:0:0:0:
192,192,99252,1,0,0:0:0:0:
320,192,99316,1,0,0:0:0:0:
448,192,99316,1,0,0:0:0:0:
64,192,99380,1,0,0:0:0:0:
192,192,99380,1,0,0:0:0:0:
448,192,99444,1,0,0:0:0:0:
192,192,99508,1,0,0:0:0:0:
320,192,99508,1,0,0:0:0:0:
64,192,99572,1,0,0:0:0:0:
192,192,99636,1,0,0:0:0:0:
320,192,99636,1,0,0:0:0:0:
448,192,99636,1,0,0:0:0:0:
64,192,99700,1,0,0:0:0:0:
192,192,99764,1,0,0:0:0:0:
448,192,99764,1,0,0:0:0:0:
320,192,99828,1,0,0:0:0:0:
64,192,99892,1,0,0:0:0:0:
192,192,99892,1,0,0:0:0:0:
448,192,99892,1,0,0:0:0:0:
320,192,99956,1,0,0:0:0:0:
192,192,100020,1,0,0:0:0:0:
448,192,100020,1,0,0:0:0:0:
64,192,100084,1,0,0:0:0:0:
192,192,100148,1,0,0:0:0:0:
320,192,100148,1,0,0:0:0:0:
448,192,100148,1,0,0:0:0:0:
64,192,100212,1,0,0:0:0:0:
320,192,100276,1,0,0:0:0:0:
448,192,100276,1,0,0:0:0:0:
192,192,100340,1,0,0:0:0:0:
64,192,100404,1,0,0:0:0:0:
320,192,100404,1,0,0:0:0:0:
448,192,100404,1,0,0:0:0:0:
192,192,100468,1,0,0:0:0:0:
64,192,100532,1,0,0:0:0:0:
448,192,100532,1,0,0:0:0:0:
320,192,100596,1,0,0:0:0:0:
64,192,100660,1,0,0:0:0:0:
192,192,100660,1,0,0:0:0:0:
448,192,100660,1,0,0:0:0:0:
320,192,100724,1,0,0:0:0:0:
64,192,100788,1,0,0:0:0:0:
448,192,100788,1,0,0:0:0:0:
192,192,100852,1,0,0:0:0:0:
64,192,100916,1,0,0:0:0:0:
320,192,100916,1,0,0:0:0:0:
448,192,100916,1,0,0:0:0:0:
192,192,100980,1,0,0:0:0:0:
320,192,101044,1,0,0:0:0:0:
448,192,101044,1,0,0:0:0:0:
64,192,101108,1,0,0:0:0:0:
192,192,101173,1,0,0:0:0:0:
320,192,101173,1,0,0:0:0:0:
448,192,101173,1,0,0:0:0:0:
64,192,101236,1,0,0:0:0:0:
192,192,101300,1,0,0:0:0:0:
320,192,101300,1,0,0:0:0:0:
448,192,101364,1,0,0:0:0:0:
64,192,101428,1,0,0:0:0:0:
192,192,101428,1,0,0:0:0:0:
320,192,101428,1,0,0:0:0:0:
64,192,101556,1,0,0:0:0:0:
192,192,101620,1,0,0:0:0:0:
320,192,101620,1,0,0:0:0:0:
448,192,101620,1,0,0:0:0:0:
448,192,101748,1,0,0:0:0:0:
64,192,101813,1,0,0:0:0:0:
192,192,101813,1,0,0:0:0:0:
320,192,101813,1,0,0:0:0:0:
64,192,101940,1,0,0:0:0:0:
320,192,101940,1,0,0:0:0:0:
448,192,101940,1,0,0:0:0:0:
192,192,102004,1,0,0:0:0:0:
320,192,102133,1,0,0:0:0:0:
64,192,102196,1,0,0:0:0:0:
192,192,102196,1,0,0:0:0:0:
448,192,102196,1,0,0:0:0:0:
320,192,102324,1,0,0:0:0:0:
64,192,102453,1,0,0:0:0:0:
192,192,102453,1,0,0:0:0:0:
320,192,102453,1,0,0:0:0:0:
448,192,102516,1,0,0:0:0:0:
64,192,102580,1,0,0:0:0:0:
320,192,102580,1,0,0:0:0:0:
192,192,102644,1,0,0:0:0:0:
64,192,102709,1,0,0:0:0:0:
320,192,102709,1,0,0:0:0:0:
448,192,102709,1,0,0:0:0:0:
192,192,102773,1,0,0:0:0:0:
320,192,102836,1,0,0:0:0:0:
448,192,102836,1,0,0:0:0:0:
64,192,102900,1,0,0:0:0:0:
192,192,102964,1,0,0:0:0:0:
320,192,102964,1,0,0:0:0:0:
448,192,102964,1,0,0:0:0:0:
64,192,103029,1,0,0:0:0:0:
192,192,103093,1,0,0:0:0:0:
448,192,103093,1,0,0:0:0:0:
320,192,103156,1,0,0:0:0:0:
64,192,103220,1,0,0:0:0:0:
192,192,103220,1,0,0:0:0:0:
448,192,103220,1,0,0:0:0:0:
320,192,103285,1,0,0:0:0:0:
64,192,103349,1,0,0:0:0:0:
192,192,103349,1,0,0:0:0:0:
448,192,103413,1,0,0:0:0:0:
64,192,103476,1,0,0:0:0:0:
192,192,103476,1,0,0:0:0:0:
320,192,103476,1,0,0:0:0:0:
448,192,103540,1,0,0:0:0:0:
64,192,103605,1,0,0:0:0:0:
320,192,103605,1,0,0:0:0:0:
192,192,103669,1,0,0:0:0:0:
64,192,103733,1,0,0:0:0:0:
320,192,103733,1,0,0:0:0:0:
448,192,103733,1,0,0:0:0:0:
192,192,103796,1,0,0:0:0:0:
64,192,103860,1,0,0:0:0:0:
448,192,103860,1,0,0:0:0:0:
320,192,103925,1,0,0:0:0:0:
64,192,103989,1,0,0:0:0:0:
192,192,103989,1,0,0:0:0:0:
448,192,103989,1,0,0:0:0:0:
320,192,104053,1,0,0:0:0:0:
64,192,104116,1,0,0:0:0:0:
192,192,104116,1,0,0:0:0:0:
448,192,104181,1,0,0:0:0:0:
64,192,104245,1,0,0:0:0:0:
192,192,104245,1,0,0:0:0:0:
320,192,104245,1,0,0:0:0:0:
448,192,104309,1,0,0:0:0:0:
192,192,104373,1,0,0:0:0:0:
320,192,104373,1,0,0:0:0:0:
64,192,104436,1,0,0:0:0:0:
192,192,104501,1,0,0:0:0:0:
320,192,104501,1,0,0:0:0:0:
448,192,104501,1,0,0:0:0:0:
64,192,104565,1,0,0:0:0:0:
192,192,104629,1,0,0:0:0:0:
448,192,104629,1,0,0:0:0:0:
320,192,104693,1,0,0:0:0:0:
64,192,104756,1,0,0:0:0:0:
192,192,104756,1,0,0:0:0:0:
448,192,104756,1,0,0:0:0:0:
320,192,104821,1,0,0:0:0:0:
64,192,104885,1,0,0:0:0:0:
192,192,104885,1,0,0:0:0:0:
448,192,104949,1,0,0:0:0:0:
64,192,105013,1,0,0:0:0:0:
192,192,105013,1,0,0:0:0:0:
320,192,105013,1,0,0:0:0:0:
448,192,105076,1,0,0:0:0:0:
64,192,105141,1,0,0:0:0:0:
320,192,105141,1,0,0:0:0:0:
192,192,105205,1,0,0:0:0:0:
64,192,105269,1,0,0:0:0:0:
320,192,105269,1,0,0:0:0:0:
448,192,105269,1,0,0:0:0:0:
192,192,105333,1,0,0:0:0:0:
64,192,105397,1,0,0:0:0:0:
448,192,105397,1,0,0:0:0:0:
320,192,105461,1,0,0:0:0:0:
64,192,105525,1,0,0:0:0:0:
192,192,105525,1,0,0:0:0:0:
448,192,105525,1,0,0:0:0:0:
320,192,105589,1,0,0:0:0:0:
192,192,105653,1,0,0:0:0:0:
448,192,105653,1,0,0:0:0:0:
64,192,105717,1,0,0:0:0:0:
192,192,105781,1,0,0:0:0:0:
320,192,105781,1,0,0:0:0:0:
448,192,105781,1,0,0:0:0:0:
64,192,105845,1,0,0:0:0:0:
320,192,105909,1,0,0:0:0:0:
448,192,105909,1,0,0:0:0:0:
192,192,105973,1,0,0:0:0:0:
64,192,106037,1,0,0:0:0:0:
320,192,106037,1,0,0:0:0:0:
448,192,106037,1,0,0:0:0:0:
192,192,106101,1,0,0:0:0:0:
64,192,106165,1,0,0:0:0:0:
320,192,106165,1,0,0:0:0:0:
448,192,106229,1,0,0:0:0:0:
64,192,106293,1,0,0:0:0:0:
192,192,106293,1,0,0:0:0:0:
320,192,106293,1,0,0:0:0:0:
448,192,106357,1,0,0:0:0:0:
64,192,106421,1,0,0:0:0:0:
192,192,106421,1,0,0:0:0:0:
320,192,106485,1,0,0:0:0:0:
64,192,106549,1,0,0:0:0:0:
192,192,106549,1,0,0:0:0:0:
448,192,106549,1,0,0:0:0:0:
320,192,106613,1,0,0:0:0:0:
192,192,106677,1,0,0:0:0:0:
448,192,106677,1,0,0:0:0:0:
64,192,106741,1,0,0:0:0:0:
320,192,106741,1,0,0:0:0:0:
192,192,106805,1,0,0:0:0:0:
448,192,106805,1,0,0:0:0:0:
64,192,106869,1,0,0:0:0:0:
320,192,106933,1,0,0:0:0:0:
448,192,106933,1,0,0:0:0:0:
64,192,106997,1,0,0:0:0:0:
192,192,106997,1,0,0:0:0:0:
320,192,107061,1,0,0:0:0:0:
448,192,107061,1,0,0:0:0:0:
192,192,107125,1,0,0:0:0:0:
64,192,107189,1,0,0:0:0:0:
320,192,107189,1,0,0:0:0:0:
192,192,107253,1,0,0:0:0:0:
448,192,107253,1,0,0:0:0:0:
64,192,107317,1,0,0:0:0:0:
320,192,107317,1,0,0:0:0:0:
448,192,107381,1,0,0:0:0:0:
192,192,107445,1,0,0:0:0:0:
320,192,107445,1,0,0:0:0:0:
64,192,107510,1,0,0:0:0:0:
448,192,107510,1,0,0:0:0:0:
192,192,107573,1,0,0:0:0:0:
320,192,107573,1,0,0:0:0:0:
64,192,107637,1,0,0:0:0:0:
320,192,107701,1,0,0:0:0:0:
448,192,107701,1,0,0:0:0:0:
64,192,107765,1,0,0:0:0:0:
192,192,107765,1,0,0:0:0:0:
320,192,107830,1,0,0:0:0:0:
448,192,107830,1,0,0:0:0:0:
192,192,107893,1,0,0:0:0:0:
64,192,107957,1,0,0:0:0:0:
448,192,107957,1,0,0:0:0:0:
192,192,108021,1,0,0:0:0:0:
320,192,108021,1,0,0:0:0:0:
64,192,108085,1,0,0:0:0:0:
448,192,108085,1,0,0:0:0:0:
320,192,108150,1,0,0:0:0:0:
64,192,108213,1,0,0:0:0:0:
192,192,108213,1,0,0:0:0:0:
320,192,108277,1,0,0:0:0:0:
448,192,108277,1,0,0:0:0:0:
64,192,108341,1,0,0:0:0:0:
192,192,108341,1,0,0:0:0:0:
448,192,108405,1,0,0:0:0:0:
64,192,108470,1,0,0:0:0:0:
192,192,108470,1,0,0:0:0:0:
320,192,108533,1,0,0:0:0:0:
64,192,108597,1,0,0:0:0:0:
192,192,108597,1,0,0:0:0:0:
448,192,108597,1,0,0:0:0:0:
320,192,108661,1,0,0:0:0:0:
64,192,108726,1,0,0:0:0:0:
448,192,108726,1,0,0:0:0:0:
192,192,108790,1,0,0:0:0:0:
320,192,108790,1,0,0:0:0:0:
64,192,108853,1,0,0:0:0:0:
448,192,108853,1,0,0:0:0:0:
192,192,108917,1,0,0:0:0:0:
320,192,108981,1,0,0:0:0:0:
448,192,108981,1,0,0:0:0:0:
64,192,109046,1,0,0:0:0:0:
192,192,109046,1,0,0:0:0:0:
320,192,109110,1,0,0:0:0:0:
448,192,109110,1,0,0:0:0:0:
192,192,109173,1,0,0:0:0:0:
64,192,109237,1,0,0:0:0:0:
320,192,109237,1,0,0:0:0:0:
192,192,109301,1,0,0:0:0:0:
448,192,109301,1,0,0:0:0:0:
64,192,109366,1,0,0:0:0:0:
320,192,109366,1,0,0:0:0:0:
192,192,109430,1,0,0:0:0:0:
320,192,109493,1,0,0:0:0:0:
448,192,109493,1,0,0:0:0:0:
192,192,109557,1,0,0:0:0:0:
64,192,109622,1,0,0:0:0:0:
320,192,109622,1,0,0:0:0:0:
448,192,109622,1,0,0:0:0:0:
320,192,109750,1,0,0:0:0:0:
64,192,109813,1,0,0:0:0:0:
192,192,109813,1,0,0:0:0:0:
448,192,109813,1,0,0:0:0:0:
192,192,109942,1,0,0:0:0:0:
64,192,110006,1,0,0:0:0:0:
320,192,110006,1,0,0:0:0:0:
448,192,110006,1,0,0:0:0:0:
192,192,110133,1,0,0:0:0:0:
320,192,110133,1,0,0:0:0:0:
448,192,110133,1,0,0:0:0:0:
448,192,110390,1,0,0:0:0:0:
320,192,110411,1,0,0:0:0:0:
192,192,110433,1,0,0:0:0:0:
64,192,110453,1,0,0:0:0:0:
448,192,110475,1,0,0:0:0:0:
320,192,110496,1,0,0:0:0:0:
192,192,110517,1,0,0:0:0:0:
64,192,110539,1,0,0:0:0:0:
448,192,110560,1,0,0:0:0:0:
320,192,110582,1,0,0:0:0:0:
192,192,110603,1,0,0:0:0:0:
64,192,110624,1,0,0:0:0:0:
320,192,110646,1,0,0:0:0:0:
448,192,110646,1,0,0:0:0:0:
64,192,110773,1,0,0:0:0:0:
320,192,110773,1,0,0:0:0:0:
192,192,110838,1,0,0:0:0:0:
448,192,110838,1,0,0:0:0:0:
64,192,110902,1,0,0:0:0:0:
320,192,110902,1,0,0:0:0:0:
64,192,111030,1,0,0:0:0:0:
448,192,111030,1,0,0:0:0:0:
192,192,111093,1,0,0:0:0:0:
320,192,111093,1,0,0:0:0:0:
64,192,111158,1,0,0:0:0:0:
448,192,111158,1,0,0:0:0:0:
192,192,111286,1,0,0:0:0:0:
448,192,111286,1,0,0:0:0:0:
64,192,111350,1,0,0:0:0:0:
320,192,111350,1,0,0:0:0:0:
192,192,111413,1,0,0:0:0:0:
448,192,111413,1,0,0:0:0:0:
192,192,111542,1,0,0:0:0:0:
320,192,111542,1,0,0:0:0:0:
64,192,111606,1,0,0:0:0:0:
448,192,111606,1,0,0:0:0:0:
192,192,111670,1,0,0:0:0:0:
320,192,111670,1,0,0:0:0:0:
64,192,111798,1,0,0:0:0:0:
192,192,111798,1,0,0:0:0:0:
320,192,111862,1,0,0:0:0:0:
448,192,111862,1,0,0:0:0:0:
64,192,111926,1,0,0:0:0:0:
192,192,111926,1,0,0:0:0:0:
192,192,112054,1,0,0:0:0:0:
448,192,112054,1,0,0:0:0:0:
320,192,112118,1,0,0:0:0:0:
64,192,112182,1,0,0:0:0:0:
192,192,112182,1,0,0:0:0:0:
448,192,112182,1,0,0:0:0:0:
192,192,112310,1,0,0:0:0:0:
320,192,112310,1,0,0:0:0:0:
64,192,112374,1,0,0:0:0:0:
192,192,112438,1,0,0:0:0:0:
320,192,112438,1,0,0:0:0:0:
448,192,112438,1,0,0:0:0:0:
320,192,112566,1,0,0:0:0:0:
448,192,112566,1,0,0:0:0:0:
192,192,112630,1,0,0:0:0:0:
64,192,112694,1,0,0:0:0:0:
320,192,112694,1,0,0:0:0:0:
448,192,112694,1,0,0:0:0:0:
64,192,112822,1,0,0:0:0:0:
320,192,112822,1,0,0:0:0:0:
192,192,112886,1,0,0:0:0:0:
448,192,112886,1,0,0:0:0:0:
64,192,112950,1,0,0:0:0:0:
320,192,112950,1,0,0:0:0:0:
192,192,113078,1,0,0:0:0:0:
320,192,113078,1,0,0:0:0:0:
64,192,113142,1,0,0:0:0:0:
448,192,113142,1,0,0:0:0:0:
192,192,113206,1,0,0:0:0:0:
320,192,113206,1,0,0:0:0:0:
320,192,113334,1,0,0:0:0:0:
448,192,113334,1,0,0:0:0:0:
64,192,113398,1,0,0:0:0:0:
192,192,113398,1,0,0:0:0:0:
320,192,113462,1,0,0:0:0:0:
448,192,113462,1,0,0:0:0:0:
64,192,113590,1,0,0:0:0:0:
192,192,113590,1,0,0:0:0:0:
320,192,113654,1,0,0:0:0:0:
448,192,113654,1,0,0:0:0:0:
64,192,113718,1,0,0:0:0:0:
192,192,113718,1,0,0:0:0:0:
64,192,113846,1,0,0:0:0:0:
192,192,113846,1,0,0:0:0:0:
64,192,113974,1,0,0:0:0:0:
192,192,113974,1,0,0:0:0:0:
192,192,114102,1,0,0:0:0:0:
448,192,114102,1,0,0:0:0:0:
64,192,114166,1,0,0:0:0:0:
320,192,114166,1,0,0:0:0:0:
192,192,114230,1,0,0:0:0:0:
448,192,114230,1,0,0:0:0:0:
192,192,114358,1,0,0:0:0:0:
320,192,114358,1,0,0:0:0:0:
64,192,114422,1,0,0:0:0:0:
448,192,114422,1,0,0:0:0:0:
192,192,114486,1,0,0:0:0:0:
320,192,114486,1,0,0:0:0:0:
64,192,114550,1,0,0:0:0:0:
448,192,114550,1,0,0:0:0:0:
192,192,114614,1,0,0:0:0:0:
320,192,114614,1,0,0:0:0:0:
64,192,114742,1,0,0:0:0:0:
320,192,114742,1,0,0:0:0:0:
448,192,114742,1,0,0:0:0:0:
192,192,114870,1,0,0:0:0:0:
448,192,114870,1,0,0:0:0:0:
64,192,114934,1,0,0:0:0:0:
192,192,114998,1,0,0:0:0:0:
320,192,114998,1,0,0:0:0:0:
448,192,114998,1,0,0:0:0:0:
64,192,115126,1,0,0:0:0:0:
320,192,115126,1,0,0:0:0:0:
192,192,115190,1,0,0:0:0:0:
448,192,115190,1,0,0:0:0:0:
64,192,115254,1,0,0:0:0:0:
320,192,115254,1,0,0:0:0:0:
64,192,115383,1,0,0:0:0:0:
448,192,115383,1,0,0:0:0:0:
320,192,115446,1,0,0:0:0:0:
64,192,115510,1,0,0:0:0:0:
192,192,115510,1,0,0:0:0:0:
448,192,115510,1,0,0:0:0:0:
192,192,115638,1,0,0:0:0:0:
320,192,115638,1,0,0:0:0:0:
64,192,115703,1,0,0:0:0:0:
192,192,115766,1,0,0:0:0:0:
320,192,115766,1,0,0:0:0:0:
448,192,115766,1,0,0:0:0:0:
64,192,115894,1,0,0:0:0:0:
192,192,115894,1,0,0:0:0:0:
448,192,115958,1,0,0:0:0:0:
64,192,116023,1,0,0:0:0:0:
192,192,116023,1,0,0:0:0:0:
320,192,116023,1,0,0:0:0:0:
320,192,116150,1,0,0:0:0:0:
448,192,116150,1,0,0:0:0:0:
64,192,116214,1,0,0:0:0:0:
192,192,116214,1,0,0:0:0:0:
320,192,116279,1,0,0:0:0:0:
448,192,116279,1,0,0:0:0:0:
192,192,116406,1,0,0:0:0:0:
320,192,116406,1,0,0:0:0:0:
448,192,116470,1,0,0:0:0:0:
64,192,116534,1,0,0:0:0:0:
192,192,116534,1,0,0:0:0:0:
320,192,116534,1,0,0:0:0:0:
64,192,116663,1,0,0:0:0:0:
320,192,116663,1,0,0:0:0:0:
192,192,116726,1,0,0:0:0:0:
64,192,116790,1,0,0:0:0:0:
320,192,116790,1,0,0:0:0:0:
448,192,116790,1,0,0:0:0:0:
192,192,116919,1,0,0:0:0:0:
448,192,116919,1,0,0:0:0:0:
64,192,116983,1,0,0:0:0:0:
320,192,116983,1,0,0:0:0:0:
192,192,117046,1,0,0:0:0:0:
448,192,117046,1,0,0:0:0:0:
64,192,117174,1,0,0:0:0:0:
448,192,117174,1,0,0:0:0:0:
192,192,117239,1,0,0:0:0:0:
64,192,117303,1,0,0:0:0:0:
320,192,117303,1,0,0:0:0:0:
448,192,117303,1,0,0:0:0:0:
192,192,117430,1,0,0:0:0:0:
320,192,117430,1,0,0:0:0:0:
64,192,117495,1,0,0:0:0:0:
448,192,117495,1,0,0:0:0:0:
192,192,117559,1,0,0:0:0:0:
320,192,117559,1,0,0:0:0:0:
64,192,117686,1,0,0:0:0:0:
192,192,117686,1,0,0:0:0:0:
448,192,117750,1,0,0:0:0:0:
64,192,117815,1,0,0:0:0:0:
192,192,117815,1,0,0:0:0:0:
320,192,117815,1,0,0:0:0:0:
192,192,117943,1,0,0:0:0:0:
320,192,117943,1,0,0:0:0:0:
320,192,118070,1,0,0:0:0:0:
448,192,118070,1,0,0:0:0:0:
64,192,118199,1,0,0:0:0:0:
320,192,118199,1,0,0:0:0:0:
448,192,118326,1,0,0:0:0:0:
64,192,118359,1,0,0:0:0:0:
320,192,118391,1,0,0:0:0:0:
192,192,118423,1,0,0:0:0:0:
448,192,118455,1,0,0:0:0:0:
64,192,118486,1,0,0:0:0:0:
320,192,118519,1,0,0:0:0:0:
192,192,118551,1,0,0:0:0:0:
448,192,118583,1,0,0:0:0:0:
64,192,118615,1,0,0:0:0:0:
320,192,118646,1,0,0:0:0:0:
192,192,118679,1,0,0:0:0:0:
448,192,118711,1,0,0:0:0:0:
64,192,118743,1,0,0:0:0:0:
320,192,118775,1,0,0:0:0:0:
192,192,118806,1,0,0:0:0:0:
448,192,118839,1,0,0:0:0:0:
192,192,118966,1,0,0:0:0:0:
320,192,118966,1,0,0:0:0:0:
64,192,119031,1,0,0:0:0:0:
192,192,119095,1,0,0:0:0:0:
320,192,119095,1,0,0:0:0:0:
448,192,119095,1,0,0:0:0:0:
64,192,119223,1,0,0:0:0:0:
192,192,119223,1,0,0:0:0:0:
448,192,119286,1,0,0:0:0:0:
64,192,119351,1,0,0:0:0:0:
192,192,119351,1,0,0:0:0:0:
320,192,119351,1,0,0:0:0:0:
192,192,119479,1,0,0:0:0:0:
448,192,119479,1,0,0:0:0:0:
320,192,119543,1,0,0:0:0:0:
64,192,119607,1,0,0:0:0:0:
192,192,119607,1,0,0:0:0:0:
448,192,119607,1,0,0:0:0:0:
192,192,119735,1,0,0:0:0:0:
320,192,119735,1,0,0:0:0:0:
64,192,119799,1,0,0:0:0:0:
448,192,119799,1,0,0:0:0:0:
192,192,119863,1,0,0:0:0:0:
320,192,119863,1,0,0:0:0:0:
64,192,119991,1,0,0:0:0:0:
192,192,119991,1,0,0:0:0:0:
320,192,120055,1,0,0:0:0:0:
64,192,120119,1,0,0:0:0:0:
192,192,120119,1,0,0:0:0:0:
448,192,120119,1,0,0:0:0:0:
192,192,120247,1,0,0:0:0:0:
448,192,120247,1,0,0:0:0:0:
320,192,120311,1,0,0:0:0:0:
64,192,120375,1,0,0:0:0:0:
192,192,120375,1,0,0:0:0:0:
448,192,120375,1,0,0:0:0:0:
64,192,120503,1,0,0:0:0:0:
192,192,120503,1,0,0:0:0:0:
448,192,120503,1,0,0:0:0:0:
320,192,120567,1,0,0:0:0:0:
64,192,120631,1,0,0:0:0:0:
192,192,120631,1,0,0:0:0:0:
448,192,120631,1,0,0:0:0:0:
192,192,120759,1,0,0:0:0:0:
320,192,120759,1,0,0:0:0:0:
448,192,120759,1,0,0:0:0:0:
64,192,120823,1,0,0:0:0:0:
192,192,120887,1,0,0:0:0:0:
320,192,120887,1,0,0:0:0:0:
448,192,120887,1,0,0:0:0:0:
64,192,121015,1,0,0:0:0:0:
320,192,121015,1,0,0:0:0:0:
192,192,121079,1,0,0:0:0:0:
64,192,121143,1,0,0:0:0:0:
320,192,121143,1,0,0:0:0:0:
448,192,121143,1,0,0:0:0:0:
192,192,121271,1,0,0:0:0:0:
320,192,121271,1,0,0:0:0:0:
448,192,121335,1,0,0:0:0:0:
64,192,121399,1,0,0:0:0:0:
192,192,121399,1,0,0:0:0:0:
320,192,121399,1,0,0:0:0:0:
64,192,121527,1,0,0:0:0:0:
192,192,121527,1,0,0:0:0:0:
448,192,121591,1,0,0:0:0:0:
64,192,121655,1,0,0:0:0:0:
192,192,121655,1,0,0:0:0:0:
320,192,121655,1,0,0:0:0:0:
192,192,121783,1,0,0:0:0:0:
448,192,121783,1,0,0:0:0:0:
320,192,121847,1,0,0:0:0:0:
64,192,121911,1,0,0:0:0:0:
192,192,121911,1,0,0:0:0:0:
448,192,121911,1,0,0:0:0:0:
64,192,122040,1,0,0:0:0:0:
192,192,122040,1,0,0:0:0:0:
448,192,122040,1,0,0:0:0:0:
64,192,122167,1,0,0:0:0:0:
192,192,122167,1,0,0:0:0:0:
448,192,122167,1,0,0:0:0:0:
64,192,122295,1,0,0:0:0:0:
192,192,122295,1,0,0:0:0:0:
320,192,122295,1,0,0:0:0:0:
448,192,122360,1,0,0:0:0:0:
64,192,122423,1,0,0:0:0:0:
192,192,122423,1,0,0:0:0:0:
320,192,122423,1,0,0:0:0:0:
448,192,122487,1,0,0:0:0:0:
64,192,122551,1,0,0:0:0:0:
192,192,122551,1,0,0:0:0:0:
320,192,122615,1,0,0:0:0:0:
448,192,122615,1,0,0:0:0:0:
64,192,122680,1,0,0:0:0:0:
192,192,122680,1,0,0:0:0:0:
320,192,122743,1,0,0:0:0:0:
448,192,122743,1,0,0:0:0:0:
64,192,122807,1,0,0:0:0:0:
192,192,122807,1,0,0:0:0:0:
320,192,122871,1,0,0:0:0:0:
64,192,122936,1,0,0:0:0:0:
192,192,122936,1,0,0:0:0:0:
320,192,123000,1,0,0:0:0:0:
192,192,123063,1,0,0:0:0:0:
448,192,123063,1,0,0:0:0:0:
64,192,123127,1,0,0:0:0:0:
320,192,123127,1,0,0:0:0:0:
192,192,123191,1,0,0:0:0:0:
448,192,123191,1,0,0:0:0:0:
320,192,123256,1,0,0:0:0:0:
64,192,123320,1,0,0:0:0:0:
448,192,123320,1,0,0:0:0:0:
192,192,123383,1,0,0:0:0:0:
320,192,123383,1,0,0:0:0:0:
64,192,123447,1,0,0:0:0:0:
448,192,123447,1,0,0:0:0:0:
192,192,123511,1,0,0:0:0:0:
64,192,123576,1,0,0:0:0:0:
448,192,123576,1,0,0:0:0:0:
192,192,123640,1,0,0:0:0:0:
320,192,123640,1,0,0:0:0:0:
64,192,123703,1,0,0:0:0:0:
448,192,123703,1,0,0:0:0:0:
320,192,123767,1,0,0:0:0:0:
192,192,123832,1,0,0:0:0:0:
448,192,123832,1,0,0:0:0:0:
64,192,123896,1,0,0:0:0:0:
320,192,123896,1,0,0:0:0:0:
192,192,123960,1,0,0:0:0:0:
448,192,123960,1,0,0:0:0:0:
320,192,124023,1,0,0:0:0:0:
64,192,124087,1,0,0:0:0:0:
192,192,124087,1,0,0:0:0:0:
320,192,124152,1,0,0:0:0:0:
448,192,124152,1,0,0:0:0:0:
64,192,124216,1,0,0:0:0:0:
192,192,124216,1,0,0:0:0:0:
320,192,124280,1,0,0:0:0:0:
192,192,124343,1,0,0:0:0:0:
448,192,124343,1,0,0:0:0:0:
64,192,124407,1,0,0:0:0:0:
320,192,124407,1,0,0:0:0:0:
192,192,124472,1,0,0:0:0:0:
448,192,124472,1,0,0:0:0:0:
64,192,124536,1,0,0:0:0:0:
192,192,124600,1,0,0:0:0:0:
320,192,124600,1,0,0:0:0:0:
64,192,124663,1,0,0:0:0:0:
448,192,124663,1,0,0:0:0:0:
192,192,124727,1,0,0:0:0:0:
320,192,124727,1,0,0:0:0:0:
448,192,124792,1,0,0:0:0:0:
64,192,124856,1,0,0:0:0:0:
192,192,124856,1,0,0:0:0:0:
320,192,124920,1,0,0:0:0:0:
448,192,124920,1,0,0:0:0:0:
64,192,124983,1,0,0:0:0:0:
192,192,124983,1,0,0:0:0:0:
320,192,125048,1,0,0:0:0:0:
192,192,125112,1,0,0:0:0:0:
448,192,125112,1,0,0:0:0:0:
64,192,125176,1,0,0:0:0:0:
320,192,125176,1,0,0:0:0:0:
192,192,125240,1,0,0:0:0:0:
448,192,125240,1,0,0:0:0:0:
64,192,125303,1,0,0:0:0:0:
192,192,125368,1,0,0:0:0:0:
448,192,125368,1,0,0:0:0:0:
64,192,125432,1,0,0:0:0:0:
320,192,125432,1,0,0:0:0:0:
192,192,125496,1,0,0:0:0:0:
448,192,125496,1,0,0:0:0:0:
320,192,125560,1,0,0:0:0:0:
64,192,125623,1,0,0:0:0:0:
448,192,125623,1,0,0:0:0:0:
192,192,125688,1,0,0:0:0:0:
320,192,125688,1,0,0:0:0:0:
64,192,125752,1,0,0:0:0:0:
448,192,125752,1,0,0:0:0:0:
320,192,125816,1,0,0:0:0:0:
192,192,125880,1,0,0:0:0:0:
448,192,125880,1,0,0:0:0:0:
64,192,125943,1,0,0:0:0:0:
192,192,126008,1,0,0:0:0:0:
320,192,126008,1,0,0:0:0:0:
64,192,126072,1,0,0:0:0:0:
448,192,126072,1,0,0:0:0:0:
192,192,126136,1,0,0:0:0:0:
320,192,126136,1,0,0:0:0:0:
64,192,126200,1,0,0:0:0:0:
448,192,126200,1,0,0:0:0:0:
192,192,126264,1,0,0:0:0:0:
320,192,126264,1,0,0:0:0:0:
64,192,126328,1,0,0:0:0:0:
448,192,126328,1,0,0:0:0:0:
192,192,126392,1,0,0:0:0:0:
320,192,126392,1,0,0:0:0:0:
64,192,126456,1,0,0:0:0:0:
448,192,126456,1,0,0:0:0:0:
192,192,126520,1,0,0:0:0:0:
320,192,126520,1,0,0:0:0:0:
64,192,126584,1,0,0:0:0:0:
448,192,126584,1,0,0:0:0:0:
192,192,126648,1,0,0:0:0:0:
320,192,126648,1,0,0:0:0:0:
64,192,126712,1,0,0:0:0:0:
448,192,126712,1,0,0:0:0:0:
192,192,126776,1,0,0:0:0:0:
320,192,126776,1,0,0:0:0:0:
64,192,126840,1,0,0:0:0:0:
448,192,126840,1,0,0:0:0:0:
192,192,126904,1,0,0:0:0:0:
320,192,126904,1,0,0:0:0:0:
64,192,126968,1,0,0:0:0:0:
448,192,126968,1,0,0:0:0:0:
192,192,127032,128,0,127544:0:0:0:0:
320,192,127032,128,0,127544:0:0:0:0:
