osu file format v14

[General]
AudioFilename: audio.mp3
AudioLeadIn: 0
PreviewTime: -1
Countdown: 1
SampleSet: None
StackLeniency: 0.7
Mode: 0
LetterboxInBreaks: 0
WidescreenStoryboard: 0

[Editor]
DistanceSpacing: 1
BeatDivisor: 4
GridSize: 32
TimelineZoom: 2.1

[Metadata]
Title:Sonhe Sonhe
TitleUnicode:Sonhe Sonhe
Artist:Sharkboy
ArtistUnicode:Sharkboy
Creator:DJKratos
Version:Cuidado com o perigo!
Source:Sharkboy and Lavagirl
Tags:shitpost senvio fofa gasosa a diferenca entre seu e inverno
BeatmapID:1945677
BeatmapSetID:931858

[Difficulty]
HPDrainRate:6
CircleSize:4
OverallDifficulty:9
ApproachRate:9.3
SliderMultiplier:1.4
SliderTickRate:1

[Events]
//Background and Video events
0,0,"maxresdefault.jpg",0,0
//Break Periods
//Storyboard Layer 0 (Background)
//Storyboard Layer 1 (Fail)
//Storyboard Layer 2 (Pass)
//Storyboard Layer 3 (Foreground)
//Storyboard Sound Samples

[TimingPoints]
378,461.89376443418,4,2,0,60,1,0
1186,-100,4,2,0,5,0,0
1417,461.89376443418,4,2,0,60,1,0
1622,461.89376443418,4,2,0,60,1,0
2352,461.89376443418,4,2,0,60,1,0
2698,-100,4,2,0,5,0,0
2813,-100,4,2,0,60,0,0
4712,461.538461538462,4,2,0,60,1,0
16942,-100,4,2,0,5,0,0
17173,461.89376443418,4,2,0,60,1,0
19482,-66.6666666666667,4,2,0,60,0,0

[HitObjects]
35,30,378,5,0,0:0:0:0:
117,44,609,1,0,0:0:0:0:
199,58,840,2,0,L|348:87,1,140
374,101,1417,5,0,0:0:0:0:
313,177,1622,2,0,L|223:186,1,70
40,341,2352,2,0,L|21:230,1,105
111,358,2813,2,0,L|135:212,1,140
212,364,3506,1,0,0:0:0:0:
243,289,3737,2,0,B|311:317|311:317|381:304,1,140
459,54,4712,6,0,L|472:130,1,70
361,0,5173,2,0,L|348:76,1,70
239,54,5635,2,0,L|226:130,1,70
117,0,6096,2,0,L|104:76,1,70
35,235,6558,2,0,L|120:205,1,70
294,142,7019,2,0,L|196:113,1,70
151,286,7942,5,0,0:0:0:0:
223,221,8173,1,0,0:0:0:0:
261,314,8404,2,0,L|333:287,1,70
491,189,8865,5,0,0:0:0:0:
419,254,9096,1,0,0:0:0:0:
381,161,9327,2,0,L|309:188,1,70
53,355,9788,6,0,L|34:279,1,70
159,384,10250,2,0,L|178:308,1,70
76,116,10712,1,0,0:0:0:0:
110,278,10942,1,0,0:0:0:0:
173,113,11173,2,0,P|156:53|143:37,1,70
488,26,12096,6,0,L|472:120,1,70
381,182,12558,2,0,L|369:112,1,70
274,26,13019,2,0,L|262:95,1,70
167,182,13481,2,0,L|155:112,1,70
96,263,13942,2,0,L|173:292,1,70
365,266,14404,2,0,L|288:237,1,70
256,192,15327,12,0,16942,0:0:0:0:
71,340,17173,5,0,0:0:0:0:
136,136,17403,1,0,0:0:0:0:
146,102,17518,1,0,0:0:0:0:
157,69,17633,1,0,0:0:0:0:
216,283,17865,1,0,0:0:0:0:
71,201,18096,5,0,0:0:0:0:
287,118,18327,1,0,0:0:0:0:
319,103,18442,1,0,0:0:0:0:
351,89,18557,1,0,0:0:0:0:
220,227,18789,1,0,0:0:0:0:
190,209,18904,1,0,0:0:0:0:
168,181,19019,1,0,0:0:0:0:
157,148,19135,1,0,0:0:0:0:
159,113,19250,1,0,0:0:0:0:
378,20,19482,6,0,L|443:122,1,105.000004005432
371,327,19944,2,0,L|308:232,1,105.000004005432
178,62,20406,2,0,P|90:95|51:207,1,210.000008010865
226,326,21099,1,0,0:0:0:0:
155,168,21330,5,0,0:0:0:0:
80,336,21560,1,0,0:0:0:0:
237,133,21791,1,0,0:0:0:0:
77,238,22022,1,0,0:0:0:0:
298,243,22253,2,0,B|410:263|410:263|487:332,1,210.000008010865
293,342,22946,1,0,0:0:0:0:
456,52,23177,5,0,0:0:0:0:
378,326,23408,1,0,0:0:0:0:
299,46,23639,5,0,0:0:0:0:
377,320,23870,1,0,0:0:0:0:
456,40,24101,5,0,0:0:0:0:
378,314,24332,1,0,0:0:0:0:
299,34,24563,5,0,0:0:0:0:
377,308,24794,1,0,0:0:0:0:
456,28,25025,5,0,0:0:0:0:
378,302,25256,1,0,0:0:0:0:
219,53,25487,1,0,0:0:0:0:
106,292,25718,2,0,L|221:246,1,105.000004005432
203,253,26064,1,0,0:0:0:0:
203,253,26179,1,0,0:0:0:0:
93,61,26410,6,0,L|48:164,1,105.000004005432
258,326,26872,2,0,P|287:279|282:223,1,105.000004005432
51,296,27334,1,0,0:0:0:0:
182,91,27565,1,0,0:0:0:0:
209,259,27796,1,0,0:0:0:0:
93,100,28027,1,0,0:0:0:0:
303,23,28258,2,0,P|356:25|411:57,1,105.000004005432
457,312,28720,5,0,0:0:0:0:
334,102,28951,1,0,0:0:0:0:
283,323,29182,1,0,0:0:0:0:
460,138,29413,1,0,0:0:0:0:
236,178,29644,2,0,L|123:240,1,105.000004005432
