osu file format v14

[General]
AudioFilename: audio.mp3
AudioLeadIn: 0
PreviewTime: -1
Countdown: 1
SampleSet: Soft
StackLeniency: 0.7
Mode: 0
LetterboxInBreaks: 0
EpilepsyWarning: 1
WidescreenStoryboard: 1

[Editor]
DistanceSpacing: 0.8
BeatDivisor: 4
GridSize: 4
TimelineZoom: 1.2

[Metadata]
Title:Megalotrousle
TitleUnicode:Megalotrousle
Artist:SharaX
ArtistUnicode:SharaX
Creator:Kotoburd76
Version:Marathon
Source:UNDERTALE
Tags:SharaX UNDERTALE Remix Megalovania Bonetrousle Sans Papyrus
BeatmapID:1000714
BeatmapSetID:467784

[Difficulty]
HPDrainRate:6
CircleSize:4.5
OverallDifficulty:9
ApproachRate:8
SliderMultiplier:1.25
SliderTickRate:1

[Events]
//Background and Video events
0,0,"BG-1.jpg",0,0
//Break Periods
2,50409,54828
2,91146,92723
2,93673,95250
2,96200,97776
//Storyboard Layer 0 (Background)
//Storyboard Layer 1 (Fail)
//Storyboard Layer 2 (Pass)
//Storyboard Layer 3 (Foreground)
//Storyboard Sound Samples

[TimingPoints]
0,315.789473684211,4,2,0,75,1,0
10105,-76.9230769230769,4,2,0,75,0,0
20210,-62.5,4,2,0,100,0,0
102789,-133.333333333333,4,2,0,75,0,0
103578,-62.5,4,2,0,75,0,0
105789,-133.333333333333,4,2,0,75,0,0
105947,-62.5,4,2,0,75,0,0
108157,-133.333333333333,4,2,0,75,0,0
108631,-62.5,4,2,0,75,0,0
181894,-200,4,2,0,50,0,0
232421,-62.5,4,2,0,75,0,0
241263,-133.333333333333,4,2,0,100,0,0
242052,-76.9230769230769,4,2,0,100,0,0
247578,-62.5,4,2,0,75,0,0
247894,-55.5555555555556,4,2,0,100,0,0
248210,-50,4,2,0,100,0,0

[Colours]
Combo1 : 232,0,215
Combo2 : 0,64,128
Combo3 : 94,255,255
Combo4 : 255,0,0
Combo5 : 216,216,216

[HitObjects]
112,108,0,5,2,0:0:0:0:
76,188,157,2,0,P|64:204|64:260,1,62.5,2|2,0:0|0:0,0:0:0:0:
72,320,631,1,2,0:0:0:0:
272,288,1105,2,0,P|308:280|336:256,1,62.5,2|0,0:0|0:0,0:0:0:0:
336,136,1421,2,0,P|308:140|272:176,1,62.5,2|0,0:0|0:0,0:0:0:0:
228,204,1736,1,2,0:0:0:0:
240,308,2052,1,2,0:0:0:0:
304,324,2210,2,0,B|332:332|340:296|356:296,1,62.5,2|2,0:0|0:0,0:0:0:0:
384,176,2526,5,2,0:0:0:0:
384,176,2684,1,2,0:0:0:0:
296,112,2842,2,0,B|252:112|256:72|224:60|184:92,1,125,2|2,0:0|0:0,0:0:0:0:
186,90,3631,1,2,0:0:0:0:
160,168,3947,2,0,P|116:160|112:140,1,62.5,2|0,0:0|0:0,0:0:0:0:
116,48,4263,1,2,0:0:0:0:
224,76,4421,2,0,L|240:140,1,62.5,0|2,0:0|0:0,0:0:0:0:
276,156,4736,2,0,L|292:220,1,62.5,2|2,0:0|0:0,0:0:0:0:
236,132,5052,5,2,0:0:0:0:
236,132,5210,1,2,0:0:0:0:
120,56,5368,2,0,P|92:72|72:104,1,62.5,2|0,0:0|0:0,0:0:0:0:
64,136,5684,1,2,0:0:0:0:
84,280,6000,2,0,P|104:312|136:328,2,62.5,0|2|0,0:0|0:0|0:0,0:0:0:0:
76,232,6473,1,2,0:0:0:0:
144,124,6631,2,0,P|176:156|180:184,1,62.5,0|2,0:0|0:0,0:0:0:0:
112,304,6947,2,0,P|84:280|72:248,1,62.5,0|2,0:0|0:0,0:0:0:0:
184,136,7263,2,0,L|184:204,1,62.5,2|2,0:0|0:0,0:0:0:0:
256,256,7578,5,2,0:0:0:0:
256,256,7736,1,2,0:0:0:0:
360,132,7894,1,2,0:0:0:0:
316,312,8210,1,2,0:0:0:0:
400,248,8684,2,0,P|432:224|444:192,1,62.5,2|0,0:0|0:0,0:0:0:0:
376,72,9000,2,0,P|344:96|332:136,1,62.5,2|0,0:0|0:0,0:0:0:0:
324,240,9315,2,0,B|324:276|324:276|340:300,1,62.5,2|0,0:0|0:0,0:0:0:0:
380,320,9631,1,2,0:0:0:0:
424,308,9710,1,0,0:0:0:0:
460,276,9789,1,2,0:0:0:0:
460,152,9947,1,2,0:0:0:0:
372,92,10105,6,0,P|324:96|296:120,1,81.2499962806703,2|2,0:0|0:0,0:0:0:0:
280,144,10342,1,0,0:0:0:0:
272,176,10421,1,2,0:0:0:0:
392,248,10578,2,0,L|392:160,1,81.2499962806703,2|2,0:0|0:0,0:0:0:0:
368,48,11052,2,0,P|320:48|288:68,1,81.2499962806703,2|0,0:0|0:0,0:0:0:0:
252,104,11368,1,2,0:0:0:0:
224,152,11526,1,2,0:0:0:0:
312,184,11684,2,0,P|352:160|352:104,1,81.2499962806703,2|0,0:0|0:0,0:0:0:0:
224,152,12000,2,0,L|224:248,1,81.2499962806703,2|2,0:0|0:0,0:0:0:0:
368,188,12315,5,2,0:0:0:0:
336,320,12473,1,2,0:0:0:0:
224,233,12631,1,2,0:0:0:0:
368,188,12789,2,0,P|404:216|412:264,1,81.2499962806703,2|2,0:0|0:0,0:0:0:0:
324,176,13105,1,0,0:0:0:0:
324,296,13263,2,0,P|296:344|264:352,2,81.2499962806703,2|2|2,0:0|0:0|0:0,0:0:0:0:
324,256,13736,6,0,P|300:208|264:200,1,81.2499962806703,2|2,0:0|0:0,0:0:0:0:
220,200,14052,1,2,0:0:0:0:
184,216,14131,1,0,0:0:0:0:
164,252,14210,1,2,0:0:0:0:
264,348,14368,1,2,0:0:0:0:
276,212,14526,1,2,0:0:0:0:
148,284,14684,1,2,0:0:0:0:
304,284,14842,2,0,B|304:228|304:228|268:196,1,81.2499962806703,2|2,0:0|0:0,0:0:0:0:
192,308,15157,5,0,0:0:0:0:
92,280,15315,2,0,B|60:244|112:236|84:204,1,81.2499962806703,2|2,0:0|0:0,0:0:0:0:
84,164,15631,2,0,P|128:152|148:120,1,81.2499962806703,2|2,0:0|0:0,0:0:0:0:
156,80,15947,1,0,0:0:0:0:
56,28,16105,2,0,P|8:60|0:104,1,81.2499962806703,2|0,0:0|0:0,0:0:0:0:
0,236,16421,2,0,P|32:188|24:144,2,81.2499962806703,2|2|2,0:0|0:0|0:0,0:0:0:0:
28,124,16894,1,0,0:0:0:0:
44,88,17052,2,0,P|84:68|124:88,1,81.2499962806703,2|2,0:0|0:0,0:0:0:0:
100,224,17368,6,0,P|132:264|176:272,1,81.2499962806703,2|2,0:0|0:0,0:0:0:0:
288,260,17684,1,2,0:0:0:0:
216,124,17842,1,2,0:0:0:0:
100,224,18000,1,2,0:0:0:0:
160,316,18157,1,2,0:0:0:0:
200,336,18236,1,0,0:0:0:0:
244,348,18315,1,2,0:0:0:0:
328,316,18473,1,2,0:0:0:0:
392,272,18631,6,0,B|436:276|400:224|464:220,2,81.2499962806703,2|2|2,0:0|0:0|0:0,0:0:0:0:
348,280,19105,1,2,0:0:0:0:
292,208,19263,1,2,0:0:0:0:
356,140,19421,1,2,0:0:0:0:
448,264,19578,2,0,P|428:312|392:328,1,81.2499962806703,2|2,0:0|0:0,0:0:0:0:
344,216,19894,2,0,L|344:128,1,81.2499962806703,2|2,0:0|0:0,0:0:0:0:
344,264,20210,5,4,1:0:0:0:
316,368,20368,2,0,P|256:344|252:268,1,100,0|8,0:0|0:0,0:0:0:0:
236,268,20684,2,0,P|208:208|176:204,1,100,0|4,2:0|2:0,2:0:0:0:
92,204,21000,1,0,0:0:0:0:
92,312,21157,6,0,P|140:300|168:244,1,100,8|0,0:0|0:0,0:0:0:0:
212,244,21473,2,0,P|264:236|296:196,1,100
212,88,21789,1,8,0:0:0:0:
144,96,21947,1,0,0:0:0:0:
96,148,22105,1,0,0:0:0:0:
183,285,22263,2,0,P|123:269|99:217,1,100,0|8,0:0|0:0,0:0:0:0:
183,285,22578,1,0,0:0:0:0:
224,284,22736,6,0,L|328:284,1,100
336,192,23052,2,0,P|384:152|424:156,1,100,8|0,0:0|0:0,0:0:0:0:
448,180,23289,1,0,2:0:0:0:
472,228,23368,1,4,0:0:0:0:
348,152,23526,6,0,B|200:212|408:12|216:96,1,200
172,184,24000,2,0,P|108:168|104:124,1,100
100,48,24315,1,8,0:0:0:0:
100,48,24473,1,0,0:0:0:0:
232,152,24631,1,0,0:0:0:0:
56,100,24789,1,0,0:0:0:0:
232,148,24947,1,8,0:0:0:0:
72,212,25105,1,0,0:0:0:0:
56,100,25263,6,0,P|120:104|160:136,1,100
192,160,25578,1,8,0:0:0:0:
224,212,25736,1,0,0:0:0:0:
224,272,25894,2,0,P|188:316|136:316,1,100,4|0,2:0|0:0,0:0:0:0:
228,208,26210,1,8,0:0:0:0:
228,208,26368,6,0,L|228:108,1,100
223,297,26684,2,0,P|139:298|95:190,1,200
91,203,27078,1,0,0:0:0:0:
91,203,27157,1,0,0:0:0:0:
196,140,27315,1,0,0:0:0:0:
300,136,27473,2,0,P|376:148|428:176,1,100,8|0,0:0|0:0,0:0:0:0:
452,256,27789,5,0,0:0:0:0:
452,256,27947,1,0,0:0:0:0:
368,324,28105,2,0,B|352:296|352:296|316:324|260:288,1,100,8|0,0:0|0:0,0:0:0:0:
184,232,28421,2,0,B|152:176|176:112|224:88|296:108,1,200,4|8,2:0|0:0,0:0:0:0:
296,224,28894,2,0,B|300:252|300:252|332:228|396:268,1,100,0|4,0:0|2:0,0:0:0:0:
436,112,29210,1,0,0:0:0:0:
324,48,29368,2,0,P|276:84|228:80,1,100,8|4,0:0|2:0,0:0:0:0:
108,104,29684,1,0,0:0:0:0:
76,136,29763,1,0,0:0:0:0:
60,180,29842,1,0,0:0:0:0:
76,224,29921,1,0,0:0:0:0:
104,260,30000,1,8,0:0:0:0:
256,192,30157,6,0,B|284:168|268:144|268:144|268:100,1,100,0|4,0:0|2:0,0:0:0:0:
200,28,30473,1,0,0:0:0:0:
116,48,30631,1,8,0:0:0:0:
44,120,30789,2,0,B|36:168|116:116|108:192,1,100
200,264,31105,2,0,P|244:232|244:172,1,100,0|8,0:0|0:0,0:0:0:0:
176,80,31421,6,0,L|176:180,1,100
284,80,31736,1,0,0:0:0:0:
172,80,31894,2,0,L|92:160,1,100,8|0,0:0|0:0,0:0:0:0:
284,76,32210,1,0,0:0:0:0:
168,80,32368,2,0,L|60:80,1,100,0|8,0:0|0:0,0:0:0:0:
284,76,32684,1,0,0:0:0:0:
444,52,32842,6,0,P|452:108|436:152,1,100
316,100,33157,1,8,0:0:0:0:
436,152,33315,2,0,P|396:208|332:232,1,100
316,100,33631,1,0,0:0:0:0:
368,224,33789,2,0,P|296:236|240:224,1,100,8|0,0:0|0:0,0:0:0:0:
312,100,34105,5,0,0:0:0:0:
452,204,34263,2,0,P|452:140|412:112,1,100,0|8,0:0|0:0,0:0:0:0:
292,64,34578,2,0,L|268:116,1,50
156,120,34736,2,0,L|184:168,1,50
288,204,34894,2,0,L|264:256,1,50
176,256,35052,2,0,L|204:304,1,50,8|0,0:0|0:0,0:0:0:0:
160,224,35210,1,2,0:0:0:0:
344,268,35368,6,0,P|388:216|384:176,2,100,0|0|8,0:0|0:0|0:0,0:0:0:0:
232,196,35842,2,0,P|248:140|296:124,1,100
372,128,36157,1,0,0:0:0:0:
440,200,36315,1,8,0:0:0:0:
404,276,36473,1,0,0:0:0:0:
280,320,36631,6,0,L|208:240,1,100
212,228,36947,6,0,L|264:124,1,100,8|0,0:0|0:0,0:0:0:0:
256,120,37263,6,0,L|184:44,1,100
156,192,37578,1,8,0:0:0:0:
72,92,37736,1,0,0:0:0:0:
187,47,37894,5,0,0:0:0:0:
72,92,38052,2,0,P|68:160|80:208,1,100,0|8,0:0|0:0,0:0:0:0:
92,232,38289,1,0,0:0:0:0:
116,268,38368,1,0,0:0:0:0:
156,284,38447,1,0,0:0:0:0:
200,288,38526,6,0,P|256:296|304:288,1,100
328,280,38763,1,0,0:0:0:0:
352,264,38842,1,8,0:0:0:0:
372,244,38921,1,0,0:0:0:0:
388,220,39000,1,0,0:0:0:0:
336,44,39157,6,0,L|176:172,1,200
196,340,39631,6,0,L|388:188,1,200
256,48,40105,5,0,0:0:0:0:
256,192,40263,5,4,0:0:0:0:
256,320,40578,2,0,L|276:272,1,50,2|0,0:0|0:0,0:0:0:0:
320,320,40736,2,0,L|340:272,1,50,2|0,0:0|0:0,0:0:0:0:
384,320,40894,2,0,L|404:272,1,50,2|0,0:0|0:0,0:0:0:0:
448,320,41052,2,0,L|468:272,1,50,2|0,0:0|0:0,0:0:0:0:
380,116,41368,6,0,P|344:76|292:68,1,100,2|0,0:0|0:0,0:0:0:0:
212,200,41684,2,0,P|252:244|296:248,1,100,2|2,0:0|0:0,0:0:0:0:
288,92,42000,2,0,B|256:48|256:48|192:48,1,100,2|0,0:0|0:0,0:0:0:0:
124,156,42315,1,2,0:0:0:0:
64,28,42473,1,2,0:0:0:0:
200,44,42631,2,0,P|236:88|244:140,1,100,2|2,0:0|0:0,0:0:0:0:
112,148,42947,6,0,L|60:176,1,50,2|0,0:0|0:0,0:0:0:0:
112,196,43105,2,0,L|60:224,1,50,2|0,0:0|0:0,0:0:0:0:
112,244,43263,2,0,L|60:272,1,50,2|0,0:0|0:0,0:0:0:0:
116,292,43421,2,0,L|64:320,1,50
24,320,43578,2,0,L|24:216,1,100,2|0,0:0|0:0,0:0:0:0:
24,180,43894,2,0,L|24:80,1,100,2|0,0:0|0:0,0:0:0:0:
168,88,44210,6,0,P|208:84|260:52,1,100,2|0,1:0|0:0,0:0:0:0:
132,152,44526,2,0,P|168:192|248:200,1,100,2|0,1:0|0:0,0:0:0:0:
72,200,44842,2,0,P|76:252|112:308,1,100,2|0,1:0|0:0,0:0:0:0:
256,192,45157,1,4,0:0:0:0:
88,52,45473,6,0,P|88:112|100:160,2,100,2|2|2,0:0|0:0|0:0,0:0:0:0:
96,150,45947,1,2,0:0:0:0:
88,52,46105,2,0,P|144:16|180:4,1,100,2|0,0:0|0:0,0:0:0:0:
224,4,46421,2,0,P|280:28|332:68,1,100,2|0,0:0|0:0,0:0:0:0:
380,172,46736,5,2,0:0:0:0:
308,48,46894,1,2,0:0:0:0:
308,48,47052,2,0,B|268:48|268:48|260:72|260:72|216:72,1,100,2|0,0:0|0:0,0:0:0:0:
172,72,47368,1,2,0:0:0:0:
120,80,47526,1,2,0:0:0:0:
80,116,47684,1,2,0:0:0:0:
56,164,47842,5,2,0:0:0:0:
76,216,48000,1,2,0:0:0:0:
112,256,48157,1,2,0:0:0:0:
164,268,48315,2,0,P|224:272|264:264,1,100,2|0,0:0|0:0,0:0:0:0:
304,240,48631,2,0,P|360:208|384:168,1,100,2|2,0:0|0:0,0:0:0:0:
288,80,48947,2,0,P|240:68|232:128,1,100,2|2,0:0|0:0,0:0:0:0:
256,192,49263,6,0,P|292:268|408:304,1,200,4|4,0:0|0:0,0:0:0:0:
396,124,49736,1,0,0:0:0:0:
396,124,49815,1,0,0:0:0:0:
396,124,49894,2,0,P|312:128|288:152,2,100,4|0|4,0:0|0:0|0:0,0:0:0:0:
68,52,55578,5,2,0:0:0:0:
68,200,55736,2,0,P|104:236|156:240,1,100,2|10,0:0|0:0,0:0:0:0:
232,80,56052,2,0,P|164:124|160:168,1,100,2|2,0:0|0:0,0:0:0:0:
160,272,56368,1,0,0:0:0:0:
256,296,56526,5,10,0:0:0:0:
300,280,56605,1,2,0:0:0:0:
336,248,56684,1,2,0:0:0:0:
348,200,56763,1,2,0:0:0:0:
336,152,56842,1,0,0:0:0:0:
300,120,56921,1,0,0:0:0:0:
256,104,57000,1,2,0:0:0:0:
256,296,57157,6,0,P|312:272|352:224,1,100,10|0,0:0|0:0,0:0:0:0:
308,112,57473,1,2,0:0:0:0:
176,224,57631,1,2,0:0:0:0:
336,292,57789,1,10,0:0:0:0:
304,120,57947,1,2,0:0:0:0:
152,236,58105,1,2,0:0:0:0:
80,152,58263,6,0,P|76:96|80:88,1,50,2|0,0:0|0:0,0:0:0:0:
84,72,58421,1,10,0:0:0:0:
196,44,58578,1,0,0:0:0:0:
236,64,58657,1,0,0:0:0:0:
264,100,58736,1,2,0:0:0:0:
92,132,58894,2,0,P|116:176|160:208,1,100,2|10,0:0|0:0,0:0:0:0:
216,116,59210,2,0,P|220:72|184:112,1,100,2|2,0:0|0:0,0:0:0:0:
80,200,59526,6,0,P|72:256|104:292,1,100,2|10,0:0|0:0,0:0:0:0:
160,216,59842,6,0,P|184:256|244:248,1,100,2|2,0:0|0:0,0:0:0:0:
228,160,60157,6,0,P|288:152|312:116,1,100,2|10,0:0|0:0,0:0:0:0:
180,76,60473,6,0,P|116:64|48:184,1,200,2|2,0:0|0:0,0:0:0:0:
96,288,60947,1,10,0:0:0:0:
184,176,61105,1,2,0:0:0:0:
32,164,61263,1,2,0:0:0:0:
32,164,61421,2,0,L|132:192,1,100,0|10,0:0|0:0,0:0:0:0:
116,268,61736,2,0,B|156:276|156:276|176:256|176:256|216:264,1,100,2|0,0:0|0:0,0:0:0:0:
248,276,62052,1,2,0:0:0:0:
288,288,62210,1,10,0:0:0:0:
288,288,62526,5,2,0:0:0:0:
248,272,62684,1,2,0:0:0:0:
208,264,62842,2,0,B|172:256|172:256|152:276|152:276|116:268,1,100,10|2,0:0|0:0,0:0:0:0:
128,190,63157,2,0,L|24:160,1,100,2|2,0:0|0:0,0:0:0:0:
32,164,63473,1,8,0:0:0:0:
184,176,63631,1,0,0:0:0:0:
96,288,63789,1,2,0:0:0:0:
40,208,63947,6,0,P|32:144|52:112,1,100,2|10,0:0|0:0,0:0:0:0:
128,20,64263,2,0,P|152:76|136:136,3,100,2|2|2|10,0:0|0:0|0:0|0:0,0:0:0:0:
256,192,65052,1,4,0:0:0:0:
172,288,65368,5,8,0:0:0:0:
188,148,65684,1,0,0:0:0:0:
300,84,65842,1,2,0:0:0:0:
300,84,66000,1,10,0:0:0:0:
384,164,66157,2,0,P|428:204|432:248,1,100,2|2,0:0|0:0,0:0:0:0:
324,244,66473,6,0,P|276:284|220:280,1,100,0|10,0:0|0:0,0:0:0:0:
196,280,66789,1,2,0:0:0:0:
152,272,66868,1,2,0:0:0:0:
112,264,66947,2,0,L|-24:236,1,100,2|2,0:0|0:0,0:0:0:0:
0,128,67263,2,0,P|48:88|96:88,1,100,10|0,0:0|0:0,0:0:0:0:
60,216,67578,6,0,B|24:256|88:272|48:328,1,100,2|2,0:0|0:0,0:0:0:0:
128,324,67894,2,0,P|192:328|204:320,1,50,10|0,0:0|0:0,0:0:0:0:
220,328,68052,1,2,0:0:0:0:
320,308,68210,6,0,P|352:272|308:252,1,100,2|2,0:0|0:0,0:0:0:0:
224,220,68526,2,0,B|184:184|168:248|128:212,1,100,10|0,0:0|0:0,0:0:0:0:
84,200,68763,1,0,0:0:0:0:
40,180,68842,2,0,P|36:88|48:84,1,100,2|2,0:0|0:0,0:0:0:0:
140,56,69157,6,0,P|152:116|148:164,1,100,10|2,0:0|0:0,0:0:0:0:
84,20,69473,2,0,P|152:-8|188:12,1,100,2|2,0:0|0:0,0:0:0:0:
252,56,69789,2,0,P|296:120|288:156,1,100,10|2,0:0|0:0,0:0:0:0:
88,88,70105,2,0,L|108:140,1,50,2|0,0:0|0:0,0:0:0:0:
84,224,70263,2,0,L|140:196,1,50,2|0,0:0|0:0,0:0:0:0:
216,224,70421,2,0,L|184:164,1,50,10|0,0:0|0:0,0:0:0:0:
216,96,70578,2,0,L|152:128,1,50,2|0,0:0|0:0,0:0:0:0:
60,40,70736,5,0,1:0:0:0:
60,40,70894,1,0,1:0:0:0:
84,200,71052,1,8,0:0:0:0:
180,80,71368,5,0,1:0:0:0:
180,80,71526,1,0,1:0:0:0:
148,240,71684,1,8,0:0:0:0:
300,176,72000,5,0,1:0:0:0:
300,176,72157,1,0,1:0:0:0:
144,208,72315,1,8,0:0:0:0:
172,340,72631,5,0,1:0:0:0:
172,340,72789,1,0,1:0:0:0:
184,176,72947,1,8,0:0:0:0:
36,288,73263,5,0,1:0:0:0:
36,288,73421,1,0,1:0:0:0:
148,180,73578,1,8,0:0:0:0:
68,72,73894,5,0,1:0:0:0:
68,72,74052,1,0,1:0:0:0:
224,172,74210,1,8,0:0:0:0:
224,172,74526,5,0,1:0:0:0:
224,172,74684,1,0,1:0:0:0:
320,64,74842,1,8,0:0:0:0:
316,184,75157,5,0,1:0:0:0:
316,184,75315,1,0,1:0:0:0:
188,244,75473,1,8,0:0:0:0:
52,124,75789,5,0,1:0:0:0:
184,64,75947,1,0,1:0:0:0:
144,212,76105,1,8,0:0:0:0:
144,212,76421,5,0,1:0:0:0:
280,128,76579,1,0,1:0:0:0:
284,280,76737,1,8,0:0:0:0:
284,280,77053,5,0,1:0:0:0:
356,132,77210,1,0,1:0:0:0:
436,272,77368,1,8,0:0:0:0:
436,272,77684,5,0,1:0:0:0:
292,324,77842,1,0,1:0:0:0:
304,168,78000,1,8,0:0:0:0:
304,168,78316,5,0,1:0:0:0:
192,112,78474,1,0,1:0:0:0:
212,252,78631,1,8,0:0:0:0:
212,252,78947,5,0,1:0:0:0:
192,96,79105,1,0,1:0:0:0:
324,180,79263,1,8,0:0:0:0:
192,96,79579,5,0,1:0:0:0:
324,180,79737,1,0,1:0:0:0:
192,96,79895,1,8,0:0:0:0:
324,180,80210,5,0,1:0:0:0:
244,284,80368,1,0,1:0:0:0:
388,296,80526,1,8,0:0:0:0:
444,232,80684,2,0,P|436:160|388:136,1,100,0|0,0:0|1:0,0:0:0:0:
328,172,81000,2,0,P|272:176|240:136,1,100,0|8,1:0|0:0,0:0:0:0:
252,32,81315,2,0,P|312:8|324:56,1,100,0|0,0:0|1:0,0:0:0:0:
324,140,81631,2,0,P|312:212|296:240,1,100,0|8,1:0|0:0,0:0:0:0:
200,156,81947,6,0,P|168:112|208:84,1,100,0|0,0:0|1:0,0:0:0:0:
332,72,82263,2,0,P|372:132|376:184,1,100,0|8,1:0|0:0,0:0:0:0:
228,215,82578,2,0,P|188:203|216:151,1,100,0|0,0:0|1:0,0:0:0:0:
376,204,82894,2,0,P|356:264|312:296,1,100,0|8,1:0|0:0,0:0:0:0:
248,188,83210,6,0,P|244:136|264:184,1,100,0|0,0:0|1:0,0:0:0:0:
176,252,83526,2,0,P|148:200|144:140,1,100,0|8,1:0|0:0,0:0:0:0:
267,142,83842,2,0,P|307:174|299:226,1,100,0|0,0:0|1:0,0:0:0:0:
168,176,84157,2,0,P|120:196|112:252,1,100,0|8,1:0|0:0,0:0:0:0:
216,336,84473,6,0,P|272:320|272:264,1,100,0|0,0:0|1:0,0:0:0:0:
216,192,84789,2,0,B|208:136|176:172|164:112,1,100,0|8,1:0|0:0,0:0:0:0:
76,32,85105,2,0,P|32:60|24:84,1,50
20,96,85263,1,0,1:0:0:0:
116,220,85421,1,0,1:0:0:0:
168,100,85578,1,8,0:0:0:0:
32,68,85736,1,0,0:0:0:0:
56,212,85894,6,0,P|96:248|144:240,2,100,0|0|8,1:0|1:0|0:0,0:0:0:0:
60,60,86368,2,0,P|128:80|108:136,1,100,0|0,0:0|1:0,0:0:0:0:
138,242,86684,2,0,B|138:306|138:306|186:354,1,100,0|8,1:0|0:0,0:0:0:0:
260,268,87000,6,0,B|276:264|276:264|260:260|260:260|276:256|276:256|260:252|260:252|276:248|276:248|260:244|260:244|276:240|276:240|260:236|260:236|276:232|276:232,1,100,0|0,0:0|1:0,0:0:0:0:
164,172,87315,1,0,1:0:0:0:
216,96,87473,1,8,0:0:0:0:
316,60,87631,1,0,0:0:0:0:
408,76,87789,1,0,1:0:0:0:
340,168,87947,2,0,P|304:160|336:124,1,100,0|8,1:0|0:0,0:0:0:0:
432,180,88263,6,0,P|468:248|456:308,1,100,0|0,0:0|1:0,0:0:0:0:
332,300,88578,2,0,P|328:256|312:280,1,100,0|8,1:0|0:0,0:0:0:0:
364,368,88894,2,0,P|416:348|440:300,1,100,0|0,0:0|1:0,0:0:0:0:
400,208,89210,2,0,B|352:168|432:160|388:120,1,100,0|8,1:0|0:0,0:0:0:0:
296,264,89526,6,0,P|308:296|376:304,1,100,0|0,0:0|1:0,0:0:0:0:
296,264,89842,2,0,P|284:200|252:156,1,100,0|8,1:0|0:0,0:0:0:0:
136,128,90157,2,0,P|124:80|172:112,1,100,0|0,0:0|1:0,0:0:0:0:
265,170,90473,2,0,P|312:136|321:74,1,100,0|8,1:0|0:0,0:0:0:0:
272,104,90789,2,0,P|292:56|264:0,1,100,0|4,0:0|0:0,0:0:0:0:
256,192,93473,5,0,0:0:0:0:
256,192,96000,5,0,0:0:0:0:
256,192,98526,5,0,0:0:0:0:
256,192,99789,1,0,0:0:0:0:
56,60,101052,5,6,0:0:0:0:
192,212,101368,2,0,P|240:188|260:148,1,100,2|2,0:0|0:0,0:0:0:0:
172,124,101842,2,0,P|112:176|152:288,1,200,2|2,0:0|0:0,0:0:0:0:
392,36,102473,2,0,P|440:92|436:120,1,100,2|0,0:0|0:0,0:0:0:0:
384,260,102789,2,0,P|320:280|388:264,1,234.375008940697,2|6,0:0|0:0,0:0:0:0:
272,180,103894,6,0,P|204:196|168:144,1,100,2|2,0:0|0:0,0:0:0:0:
222,107,104210,2,0,P|282:87|322:107,1,100,0|2,0:0|0:0,0:0:0:0:
272,180,104526,2,0,P|224:144|224:104,1,100,0|2,0:0|0:0,0:0:0:0:
68,72,105000,6,0,L|116:96,1,50,2|2,0:0|0:0,0:0:0:0:
68,136,105157,2,0,L|116:160,1,50,2|0,0:0|0:0,0:0:0:0:
68,204,105315,2,0,L|116:228,1,50,2|0,0:0|0:0,0:0:0:0:
68,272,105473,2,0,L|116:296,3,50,2|0|2|0,0:0|0:0|0:0|0:0,0:0:0:0:
152,312,105789,2,0,P|196:308|176:284,1,93.7500035762788,2|6,0:0|0:0,0:0:0:0:
108,176,106421,6,0,P|168:152|172:156,1,50,2|0,0:0|0:0,0:0:0:0:
104,76,106578,2,0,P|88:52|56:60,1,50,2|0,0:0|0:0,0:0:0:0:
40,164,106894,2,0,P|52:244|140:184,1,200,2|2,0:0|0:0,0:0:0:0:
240,44,107526,2,0,L|148:88,1,100,2|0,0:0|0:0,0:0:0:0:
236,140,107842,2,0,L|139:78,1,100,2|0,0:0|0:0,0:0:0:0:
151,86,108157,2,0,P|92:136|140:164,1,140.625005364418,2|6,0:0|0:0,0:0:0:0:
220,240,108947,6,0,P|288:216|292:188,1,100,2|0,0:0|0:0,0:0:0:0:
144,296,109263,2,0,P|180:348|240:336,2,100,2|2|2,0:0|0:0|0:0,0:0:0:0:
220,160,109736,1,2,0:0:0:0:
336,260,109894,1,2,0:0:0:0:
256,192,109973,12,4,111157,0:0:0:0:
116,300,111473,6,0,L|32:224,1,100,2|2,0:0|0:0,0:0:0:0:
40,136,111789,1,0,0:0:0:0:
140,136,111947,2,0,P|180:156|228:136,1,100,2|0,0:0|0:0,0:0:0:0:
172,48,112263,2,0,P|100:36|64:88,1,100,2|0,0:0|0:0,0:0:0:0:
80,144,112578,2,0,L|80:248,1,100,2|0,0:0|0:0,0:0:0:0:
148,320,112894,2,0,B|164:300|164:300|180:320|180:320|196:300|196:300|212:320|212:320|228:300|228:300|244:320|244:320|256:300|256:300|272:320|272:320,1,200,2|0,0:0|0:0,0:0:0:0:
368,320,113368,5,0,0:0:0:0:
456,320,113526,2,0,P|504:288|496:244,1,100,0|6,0:0|0:0,0:0:0:0:
472,136,113842,2,0,P|424:168|412:224,1,100,0|2,0:0|0:0,0:0:0:0:
360,284,114157,2,0,P|336:308|368:288,1,100,2|0,0:0|0:0,0:0:0:0:
332,208,114473,2,0,B|272:188|368:160|280:120,1,100,2|0,0:0|0:0,0:0:0:0:
204,64,114789,1,2,0:0:0:0:
132,240,115105,1,2,0:0:0:0:
332,208,115263,1,0,0:0:0:0:
208,64,115421,1,2,0:0:0:0:
208,64,115736,5,2,0:0:0:0:
88,64,115894,2,0,B|32:112|112:112|52:168,1,100,2|0,0:0|0:0,0:0:0:0:
88,272,116210,2,0,P|140:272|140:220,1,100,6|0,0:0|0:0,0:0:0:0:
240,232,116526,2,0,P|240:184|192:184,1,100,2|0,0:0|0:0,0:0:0:0:
200,88,116842,2,0,P|152:88|152:136,1,100,2|0,0:0|0:0,0:0:0:0:
60,128,117157,2,0,P|60:180|104:180,1,100,2|0,0:0|0:0,0:0:0:0:
228,184,117473,6,0,P|300:164|336:180,1,100,2|0,0:0|0:0,0:0:0:0:
280,256,117789,2,0,P|200:280|160:248,1,100,2|0,0:0|0:0,0:0:0:0:
192,156,118105,2,0,P|160:112|184:64,1,100,2|0,0:0|0:0,0:0:0:0:
280,104,118421,2,0,P|316:148|312:196,1,100,2|0,0:0|0:0,0:0:0:0:
420,268,118736,6,0,P|436:204|412:144,1,100,2|0,0:0|0:0,0:0:0:0:
428,172,119052,1,2,0:0:0:0:
340,56,119210,2,0,P|276:112|224:112,1,100,2|0,0:0|0:0,0:0:0:0:
264,114,119526,1,2,0:0:0:0:
256,192,119842,12,2,120631,0:0:0:0:
260,96,120789,5,2,0:0:0:0:
256,284,120947,1,2,0:0:0:0:
168,192,121105,1,2,0:0:0:0:
348,192,121263,1,4,0:0:0:0:
456,260,121421,2,0,P|420:308|376:316,1,100,0|10,0:0|0:0,0:0:0:0:
384,192,121736,2,0,P|376:128|320:128,1,100,0|2,0:0|0:0,0:0:0:0:
184,108,122052,5,0,0:0:0:0:
184,108,122131,1,0,0:0:0:0:
184,108,122210,1,8,0:0:0:0:
272,252,122368,6,0,P|336:288|364:252,1,100,2|0,0:0|0:0,0:0:0:0:
348,168,122684,2,0,P|348:104|312:100,1,100,2|8,0:0|0:0,0:0:0:0:
256,160,123000,2,0,P|204:200|160:196,1,100,2|0,0:0|0:0,0:0:0:0:
152,28,123315,1,2,0:0:0:0:
0,144,123473,1,10,0:0:0:0:
172,200,123631,1,2,0:0:0:0:
152,28,123789,5,6,0:0:0:0:
76,96,123947,2,0,L|56:200,1,100,2|10,0:0|0:0,0:0:0:0:
172,164,124263,2,0,L|160:276,1,100,0|2,0:0|0:0,0:0:0:0:
284,100,124578,2,0,L|292:224,1,100,0|8,0:0|0:0,0:0:0:0:
364,256,124894,6,0,P|404:260|432:208,1,100,2|0,0:0|0:0,0:0:0:0:
359,74,125210,2,0,P|315:62|283:102,1,100,2|8,0:0|0:0,0:0:0:0:
283,99,125526,1,2,0:0:0:0:
288,244,125684,1,0,0:0:0:0:
448,88,125842,2,0,L|392:52,1,50,2|0,0:0|0:0,0:0:0:0:
448,148,126000,2,0,L|392:112,1,50,10|0,0:0|0:0,0:0:0:0:
448,208,126157,2,0,L|392:172,1,50,2|0,0:0|0:0,0:0:0:0:
376,160,126315,5,6,0:0:0:0:
312,96,126473,2,0,P|284:24|252:44,1,100,2|10,0:0|0:0,0:0:0:0:
200,48,126789,2,0,B|180:100|140:12|116:84,1,100,0|2,0:0|0:0,0:0:0:0:
200,48,127105,1,0,0:0:0:0:
116,68,127263,1,8,0:0:0:0:
40,136,127421,6,0,P|56:200|104:176,1,100,2|0,0:0|0:0,0:0:0:0:
184,216,127736,2,0,P|200:156|140:152,1,100,2|8,0:0|0:0,0:0:0:0:
80,200,128052,2,0,L|80:300,1,100,2|0,0:0|0:0,0:0:0:0:
184,300,128368,2,0,L|208:256,1,50,2|0,0:0|0:0,0:0:0:0:
240,304,128526,2,0,L|264:260,1,50,10|0,0:0|0:0,0:0:0:0:
296,304,128684,2,0,L|320:260,1,50,2|0,0:0|0:0,0:0:0:0:
336,220,128842,5,6,0:0:0:0:
432,184,129000,2,0,L|460:84,1,100,2|10,0:0|0:0,0:0:0:0:
458,87,129315,2,0,L|344:56,1,100,0|2,0:0|0:0,0:0:0:0:
320,52,129631,1,0,0:0:0:0:
280,56,129710,1,0,0:0:0:0:
236,64,129789,1,8,0:0:0:0:
204,96,129947,6,0,P|208:164|256:148,1,100,2|0,0:0|0:0,0:0:0:0:
350,121,130263,2,0,P|362:81|310:53,1,100,2|8,0:0|0:0,0:0:0:0:
208,140,130578,2,0,B|152:176|168:108|108:144,1,100,2|0,0:0|0:0,0:0:0:0:
0,268,130894,1,2,0:0:0:0:
160,296,131052,1,10,0:0:0:0:
116,139,131210,1,2,0:0:0:0:
160,296,131368,6,0,P|212:272|224:224,1,100,6|2,0:0|0:0,0:0:0:0:
116,139,131684,1,10,0:0:0:0:
272,72,131842,1,0,0:0:0:0:
304,108,132000,2,0,P|336:156|332:204,1,100,2|0,0:0|0:0,0:0:0:0:
272,72,132315,1,8,0:0:0:0:
228,48,132473,6,0,P|160:36|108:56,1,100,2|0,0:0|0:0,0:0:0:0:
96,152,132789,2,0,P|136:164|108:128,1,100,2|8,0:0|0:0,0:0:0:0:
20,140,133105,2,0,P|-4:216|16:264,1,100,2|0,0:0|0:0,0:0:0:0:
96,320,133421,2,0,P|144:328|144:280,1,100,2|10,0:0|0:0,0:0:0:0:
188,264,133657,1,0,0:0:0:0:
228,240,133736,2,0,P|248:200|188:208,1,100,2|4,0:0|0:0,0:0:0:0:
80,140,134052,5,2,0:0:0:0:
208,280,134210,2,0,B|268:272|176:204|272:208,1,100,10|0,0:0|0:0,0:0:0:0:
196,136,134526,2,0,B|160:108|128:176|76:108,1,100,2|0,0:0|0:0,0:0:0:0:
249,208,134842,1,8,0:0:0:0:
168,204,135000,6,0,P|156:260|192:252,1,100,2|0,0:0|0:0,0:0:0:0:
300,184,135315,2,0,P|340:228|308:244,1,100,2|8,0:0|0:0,0:0:0:0:
272,116,135631,2,0,B|304:64|372:88,1,100,2|0,0:0|0:0,0:0:0:0:
448,152,135947,2,0,L|496:128,1,50,2|0,0:0|0:0,0:0:0:0:
448,204,136105,2,0,L|496:180,1,50,10|0,0:0|0:0,0:0:0:0:
448,256,136263,2,0,L|496:232,1,50,2|0,0:0|0:0,0:0:0:0:
412,276,136421,5,4,0:0:0:0:
292,340,136578,2,0,P|252:308|256:252,1,100,2|10,0:0|0:0,0:0:0:0:
344,120,136894,2,0,P|368:176|336:212,1,100,0|2,0:0|0:0,0:0:0:0:
356,308,137210,2,0,B|380:264|420:336|456:280,1,100,0|8,0:0|0:0,0:0:0:0:
476,264,137447,1,0,0:0:0:0:
476,220,137526,6,0,P|416:196|388:224,1,100,2|0,0:0|0:0,0:0:0:0:
288,220,137842,2,0,P|260:152|276:120,1,100,2|8,0:0|0:0,0:0:0:0:
408,116,138157,2,0,P|440:80|400:52,1,100,2|0,0:0|0:0,0:0:0:0:
348,40,138394,1,0,0:0:0:0:
296,32,138473,2,0,B|240:20|276:76|204:64,1,100,2|10,0:0|0:0,0:0:0:0:
80,104,138789,1,2,0:0:0:0:
104,248,138947,5,6,0:0:0:0:
172,336,139105,2,0,P|248:324|256:276,1,100,2|10,0:0|0:0,0:0:0:0:
232,188,139421,2,0,P|264:144|292:188,1,100,0|2,0:0|0:0,0:0:0:0:
368,264,139736,2,0,L|400:316,2,50,0|0|8,0:0|0:0|0:0,0:0:0:0:
420,176,140052,6,0,P|472:152|468:108,1,100,2|0,0:0|0:0,0:0:0:0:
356,0,140368,2,0,P|344:56|388:88,1,100,2|8,0:0|0:0,0:0:0:0:
236,84,140684,2,0,B|200:60|168:108|132:76,1,100,2|0,0:0|0:0,0:0:0:0:
188,252,141000,1,2,0:0:0:0:
0,204,141157,1,10,0:0:0:0:
136,84,141315,1,2,0:0:0:0:
188,252,141473,5,6,0:0:0:0:
400,296,141631,2,0,P|440:296|492:240,1,100,2|2,0:0|0:0,0:0:0:0:
380,220,141947,2,0,P|332:220|288:176,1,100,2|2,0:0|0:0,0:0:0:0:
408,32,142263,2,0,P|440:48|440:148,1,100,0|2,0:0|0:0,0:0:0:0:
452,192,142578,5,0,0:0:0:0:
400,268,142736,1,2,0:0:0:0:
320,320,142894,1,2,0:0:0:0:
228,332,143052,1,2,0:0:0:0:
228,332,143368,5,2,0:0:0:0:
320,320,143526,1,2,0:0:0:0:
400,268,143684,1,2,0:0:0:0:
452,192,143842,1,2,0:0:0:0:
440,80,144000,6,0,P|380:56|324:92,1,100,2|2,0:0|0:0,0:0:0:0:
308,88,144315,2,0,P|252:92|208:60,1,100,2|0,0:0|0:0,0:0:0:0:
108,80,144631,2,0,P|108:124|68:96,1,100,2|2,0:0|0:0,0:0:0:0:
20,184,144947,2,0,P|44:244|28:288,1,100,2|2,0:0|0:0,0:0:0:0:
168,228,145263,6,0,P|220:264|268:272,1,100,4|0,0:0|0:0,0:0:0:0:
220,160,145578,2,0,P|256:104|268:56,1,100,6|0,0:0|0:0,0:0:0:0:
152,120,145894,2,0,P|108:88|60:76,1,100,6|0,0:0|0:0,0:0:0:0:
104,184,146210,2,0,P|64:228|48:280,1,100,6|0,0:0|0:0,0:0:0:0:
232,320,146526,6,0,P|280:332|272:288,1,100,6|2,0:0|0:0,0:0:0:0:
268,256,146842,2,0,P|284:192|320:184,1,100,2|2,0:0|0:0,0:0:0:0:
348,204,147157,2,0,P|392:228|432:192,1,100,2|0,0:0|0:0,0:0:0:0:
416,20,147473,2,0,P|376:0|332:56,1,100,2|0,0:0|0:0,0:0:0:0:
344,208,147789,5,2,0:0:0:0:
168,120,147947,1,2,0:0:0:0:
332,28,148105,1,2,0:0:0:0:
332,28,148421,5,2,0:0:0:0:
168,120,148579,1,2,0:0:0:0:
344,208,148736,1,2,0:0:0:0:
312,104,148894,6,0,P|256:132|232:184,1,100,2|2,0:0|0:0,0:0:0:0:
136,296,149210,2,0,P|88:256|92:216,1,100,2|2,0:0|0:0,0:0:0:0:
224,224,149526,2,0,B|272:204|272:244|320:224,1,100,0|2,0:0|0:0,0:0:0:0:
320,224,149842,1,2,0:0:0:0:
472,228,150000,1,2,0:0:0:0:
324,228,150157,1,2,0:0:0:0:
140,240,150315,6,0,P|112:176|136:148,1,100,6|0,0:0|0:0,0:0:0:0:
216,168,150631,2,0,P|212:112|248:76,1,100,6|0,0:0|0:0,0:0:0:0:
312,148,150947,2,0,P|352:108|396:112,1,100,6|0,0:0|0:0,0:0:0:0:
400,224,151263,2,0,P|452:208|492:232,1,100,6|0,0:0|0:0,0:0:0:0:
328,312,151578,6,0,L|216:312,1,100,6|2,0:0|0:0,0:0:0:0:
160,312,151894,1,2,0:0:0:0:
196,248,152052,1,2,0:0:0:0:
124,248,152210,1,2,0:0:0:0:
84,308,152368,2,0,P|52:252|72:196,1,100,0|2,0:0|0:0,0:0:0:0:
128,164,152684,1,0,0:0:0:0:
220,208,152842,6,0,P|276:180|252:152,1,100,2|2,0:0|0:0,0:0:0:0:
169,78,153157,2,0,P|129:138|133:186,1,100,2|0,0:0|0:0,0:0:0:0:
204,308,153473,2,0,L|232:352,1,50,2|0,0:0|0:0,0:0:0:0:
248,308,153631,2,0,L|276:352,1,50,2|0,0:0|0:0,0:0:0:0:
292,308,153789,2,0,L|320:352,1,50,2|0,0:0|0:0,0:0:0:0:
336,308,153947,2,0,L|364:352,1,50,2|0,0:0|0:0,0:0:0:0:
408,348,154105,6,0,P|456:324|476:276,1,100,2|2,0:0|0:0,0:0:0:0:
400,236,154421,2,0,P|396:176|436:144,1,100,2|0,0:0|0:0,0:0:0:0:
432,40,154736,2,0,P|368:32|320:52,2,100,2|2|2,0:0|0:0|0:0,0:0:0:0:
336,120,155210,6,0,P|280:140|220:128,1,100,2|6,0:0|0:0,0:0:0:0:
136,36,155526,2,0,P|76:28|104:80,1,100,0|6,0:0|0:0,0:0:0:0:
64,216,155842,2,0,P|128:192|172:204,1,100,0|6,0:0|0:0,0:0:0:0:
200,96,156157,2,0,P|156:116|88:100,1,100,0|6,0:0|0:0,0:0:0:0:
264,60,156473,2,0,P|312:120|308:160,1,100,0|6,0:0|0:0,0:0:0:0:
156,128,156789,6,0,P|104:128|100:132,1,50,2|0,0:0|0:0,0:0:0:0:
152,176,156947,2,0,P|108:200|104:212,1,50,2|0,0:0|0:0,0:0:0:0:
176,216,157105,2,0,P|168:260|180:264,1,50,2|0,0:0|0:0,0:0:0:0:
192,296,157263,2,0,B|240:380|324:228|388:364,1,200,2|2,0:0|0:0,0:0:0:0:
444,240,157736,6,0,P|448:188|432:196,1,100,0|2,0:0|0:0,0:0:0:0:
352,176,158052,2,0,P|344:108|360:56,1,100,2|2,0:0|0:0,0:0:0:0:
352,176,158368,1,0,0:0:0:0:
448,56,158526,2,0,P|468:140|468:184,1,100,2|2,0:0|0:0,0:0:0:0:
416,256,158842,2,0,P|384:296|392:244,1,100,2|2,0:0|0:0,0:0:0:0:
264,220,159157,6,0,P|204:244|184:300,1,100,2|2,0:0|0:0,0:0:0:0:
264,300,159473,1,2,0:0:0:0:
272,100,159631,1,0,0:0:0:0:
120,248,159789,1,2,0:0:0:0:
332,196,159947,1,2,0:0:0:0:
152,120,160105,1,2,0:0:0:0:
264,300,160263,1,2,0:0:0:0:
416,184,160421,6,0,P|436:128|400:100,1,100,6|0,0:0|0:0,0:0:0:0:
292,72,160736,2,0,B|276:88|276:88|264:60|204:64,1,100,6|0,0:0|0:0,0:0:0:0:
80,160,161052,2,0,P|96:96|96:56,1,100,6|0,0:0|0:0,0:0:0:0:
148,192,161368,2,0,P|160:272|180:304,1,100,6|0,0:0|0:0,0:0:0:0:
384,296,161684,6,0,P|432:264|440:224,1,100,2|0,0:0|0:0,0:0:0:0:
416,100,162000,1,10,0:0:0:0:
416,100,162079,1,0,0:0:0:0:
416,100,162157,1,0,0:0:0:0:
308,48,162315,2,0,P|232:52|200:40,1,100,2|0,0:0|0:0,0:0:0:0:
84,92,162631,1,10,0:0:0:0:
84,92,162710,1,0,0:0:0:0:
84,92,162789,1,0,0:0:0:0:
44,260,162947,6,0,P|92:228|116:168,1,100,2|0,0:0|0:0,0:0:0:0:
160,40,163263,1,8,0:0:0:0:
160,40,163342,1,0,0:0:0:0:
160,40,163421,1,0,0:0:0:0:
288,180,163578,6,0,P|288:244|272:276,1,100,2|0,0:0|0:0,0:0:0:0:
128,304,163894,1,8,0:0:0:0:
136,312,163973,1,0,0:0:0:0:
136,312,164052,1,0,0:0:0:0:
132,172,164210,6,0,B|152:120|192:200|224:116,1,100,2|0,0:0|0:0,0:0:0:0:
380,84,164526,1,8,0:0:0:0:
380,84,164605,1,0,0:0:0:0:
380,84,164684,1,0,0:0:0:0:
428,200,164842,6,0,B|392:240|460:252|424:300,1,100,2|0,0:0|0:0,0:0:0:0:
252,320,165158,1,8,0:0:0:0:
252,320,165236,1,0,0:0:0:0:
252,320,165315,1,0,0:0:0:0:
324,180,165473,6,0,P|332:140|284:152,1,100,2|0,0:0|0:0,0:0:0:0:
160,264,165789,1,8,0:0:0:0:
160,264,165868,1,0,0:0:0:0:
160,264,165947,1,0,0:0:0:0:
20,212,166105,6,0,B|0:164|0:164|16:100,1,100,2|0,0:0|0:0,0:0:0:0:
48,308,166421,1,8,0:0:0:0:
48,308,166500,1,0,0:0:0:0:
48,308,166578,1,0,0:0:0:0:
192,236,166736,6,0,B|168:208|168:208|200:208|224:160,1,100,2|0,0:0|0:0,0:0:0:0:
256,112,168000,5,2,0:0:0:0:
256,264,168157,5,2,0:0:0:0:
208,144,168315,5,2,0:0:0:0:
308,244,168473,5,2,0:0:0:0:
184,192,168631,5,2,0:0:0:0:
332,192,168789,5,2,0:0:0:0:
204,244,168947,5,2,0:0:0:0:
308,140,169105,5,2,0:0:0:0:
256,272,169263,6,2,L|256:384,2,100
256,220,169736,2,0,P|328:208|348:172,1,100,2|2,0:0|0:0,0:0:0:0:
256,220,170052,2,0,P|204:220|168:184,1,100,0|2,0:0|0:0,0:0:0:0:
104,68,170368,1,0,0:0:0:0:
40,224,170526,6,0,P|52:276|100:296,1,100,4|0,0:0|0:0,0:0:0:0:
187,311,170842,2,4,B|223:271|251:359|303:271,1,100,4|0,0:0|0:0,0:0:0:0:
320,200,171157,2,0,P|288:168|248:204,1,100,4|0,0:0|0:0,0:0:0:0:
280,302,171473,2,0,P|320:284|372:320,1,100,4|0,0:0|0:0,0:0:0:0:
460,284,171789,5,2,0:0:0:0:
452,188,171947,2,0,P|460:128|420:120,1,100,0|10,0:0|0:0,0:0:0:0:
352,84,172263,2,0,P|304:68|256:80,2,100,0|2|0,0:0|0:0|0:0,0:0:0:0:
296,144,172736,2,0,P|244:160|184:124,1,100,10|0,0:0|0:0,0:0:0:0:
72,44,173052,6,0,B|32:80|72:108|72:108|72:156,1,100
84,268,173368,1,8,0:0:0:0:
84,268,173447,1,0,0:0:0:0:
84,268,173526,1,0,0:0:0:0:
216,324,173684,6,0,P|276:328|288:288,1,100,2|0,0:0|0:0,0:0:0:0:
304,176,174000,1,8,0:0:0:0:
304,176,174078,1,0,0:0:0:0:
304,176,174157,1,0,0:0:0:0:
340,56,174315,6,0,P|396:40|436:68,1,100,2|0,0:0|0:0,0:0:0:0:
448,188,174631,1,8,0:0:0:0:
448,188,174710,1,0,0:0:0:0:
448,188,174789,1,0,0:0:0:0:
428,300,174947,6,0,P|388:336|336:340,1,100,2|0,0:0|0:0,0:0:0:0:
208,340,175263,1,8,0:0:0:0:
208,340,175342,1,0,0:0:0:0:
208,340,175421,1,0,0:0:0:0:
236,240,175578,6,0,B|240:188|304:228|304:156,1,100,2|0,0:0|0:0,0:0:0:0:
296,48,175894,1,8,0:0:0:0:
296,48,175973,1,0,0:0:0:0:
296,48,176052,1,0,0:0:0:0:
144,48,176210,6,0,P|96:88|112:112,1,100,2|0,0:0|0:0,0:0:0:0:
224,196,176526,1,8,0:0:0:0:
224,196,176605,1,0,0:0:0:0:
224,196,176684,1,0,0:0:0:0:
360,316,176842,6,0,B|424:296|348:268|416:232,1,100,2|0,0:0|0:0,0:0:0:0:
256,112,178105,5,2,0:0:0:0:
256,264,178262,5,2,0:0:0:0:
304,144,178420,5,2,0:0:0:0:
204,244,178578,5,2,0:0:0:0:
328,192,178736,5,2,0:0:0:0:
180,192,178894,5,2,0:0:0:0:
308,244,179052,5,2,0:0:0:0:
204,140,179210,5,2,0:0:0:0:
348,240,179368,6,0,P|392:200|372:168,1,100,2|2,0:0|0:0,0:0:0:0:
312,92,179684,2,0,P|284:36|336:24,2,100,2|2|2,0:0|0:0|0:0,0:0:0:0:
420,144,180157,2,0,P|456:192|456:200,1,50
464,224,180315,1,2,0:0:0:0:
388,304,180473,2,0,P|356:256|368:256,1,100,0|2,0:0|0:0,0:0:0:0:
360,152,180789,2,0,P|328:104|304:148,1,100,0|2,0:0|0:0,0:0:0:0:
228,256,181105,2,0,P|184:200|216:180,1,100,0|2,0:0|0:0,0:0:0:0:
100,284,181421,2,0,P|56:276|60:220,1,100,0|2,0:0|0:0,0:0:0:0:
256,192,181894,5,2,0:0:0:0:
348,216,182210,2,0,P|384:188|376:148,1,62.5,2|2,0:0|0:0,0:0:0:0:
352,88,182842,2,0,P|308:88|296:72,1,62.5,2|2,0:0|0:0,0:0:0:0:
224,40,183473,2,0,P|188:48|172:76,1,62.5,2|2,0:0|0:0,0:0:0:0:
128,152,183947,1,0,0:0:0:0:
152,232,184105,1,2,0:0:0:0:
224,284,184263,1,2,0:0:0:0:
312,276,184421,6,0,P|336:260|328:220,2,62.5,2|2|2,0:0|0:0|0:0,0:0:0:0:
204,232,185210,1,0,0:0:0:0:
184,136,185368,2,0,P|204:80|212:76,1,62.5,2|2,0:0|0:0,0:0:0:0:
300,48,186000,1,2,0:0:0:0:
416,96,186315,2,0,P|436:120|432:152,1,62.5,2|2,0:0|0:0,0:0:0:0:
376,216,186789,1,2,0:0:0:0:
288,208,186947,1,2,0:0:0:0:
228,136,187263,6,0,P|232:100|252:84,1,62.5,2|2,0:0|0:0,0:0:0:0:
320,56,187894,1,2,0:0:0:0:
400,60,188052,1,2,0:0:0:0:
468,100,188210,2,0,P|476:148|472:160,1,62.5,2|2,0:0|0:0,0:0:0:0:
412,256,188684,2,0,P|392:268|384:268,2,31.25,0|2|0,0:0|0:0|0:0,0:0:0:0:
452,192,189157,1,2,0:0:0:0:
480,120,189315,1,2,0:0:0:0:
456,48,189473,5,2,0:0:0:0:
328,100,189789,2,0,P|312:128|280:132,2,62.5,2|2|2,0:0|0:0|0:0,0:0:0:0:
248,40,190736,2,0,P|216:40|188:56,1,62.5,2|2,0:0|0:0,0:0:0:0:
104,148,191368,1,2,0:0:0:0:
136,256,191684,1,2,0:0:0:0:
228,180,191842,1,2,0:0:0:0:
104,152,192000,6,0,P|144:88|196:72,1,125,0|0,1:0|1:0,1:0:0:0:
280,64,192947,1,0,1:0:0:0:
372,80,193263,2,0,P|428:112|452:176,1,125,0|0,1:0|1:0,1:0:0:0:
392,260,194210,1,0,1:0:0:0:
292,136,194368,1,0,1:0:0:0:
380,268,194526,6,0,P|344:284|256:264,1,125,0|0,1:0|1:0,1:0:0:0:
184,200,195473,1,0,1:0:0:0:
160,108,195789,2,0,P|196:56|260:48,1,125,0|0,1:0|1:0,1:0:0:0:
356,132,196578,1,0,1:0:0:0:
376,0,196736,1,0,1:0:0:0:
252,40,196894,1,0,1:0:0:0:
356,132,197052,6,0,P|392:184|348:220,1,125,0|0,1:0|1:0,1:0:0:0:
304,176,197842,1,0,1:0:0:0:
228,176,198000,1,0,1:0:0:0:
264,240,198158,1,0,1:0:0:0:
296,304,198315,2,0,P|216:348|184:332,1,125,0|0,1:0|1:0,1:0:0:0:
200,204,199105,2,0,P|228:224|232:260,1,62.5,0|0,1:0|1:0,1:0:0:0:
160,264,199578,6,0,P|116:248|104:228,2,62.5,0|0|0,1:0|1:0|1:0,1:0:0:0:
288,252,200368,1,0,1:0:0:0:
372,176,200526,2,0,P|380:144|364:108,1,62.5,0|0,1:0|1:0,1:0:0:0:
332,80,201000,1,0,1:0:0:0:
288,52,201157,2,0,P|256:32|224:36,1,62.5,0|0,1:0|1:0,1:0:0:0:
140,64,201631,1,0,1:0:0:0:
72,128,201789,2,0,P|60:164|80:180,1,62.5,0|0,1:0|1:0,1:0:0:0:
96,196,202184,5,0,1:0:0:0:
128,212,202263,1,0,1:0:0:0:
168,212,202421,1,0,1:0:0:0:
288,92,202736,1,0,1:0:0:0:
288,92,203052,1,0,1:0:0:0:
432,172,203368,5,0,1:0:0:0:
448,196,203447,1,0,1:0:0:0:
452,224,203526,1,0,1:0:0:0:
448,256,203684,1,0,1:0:0:0:
368,332,204000,1,0,1:0:0:0:
368,332,204315,1,0,1:0:0:0:
216,324,204631,5,0,1:0:0:0:
192,308,204710,1,0,1:0:0:0:
176,284,204789,1,0,1:0:0:0:
168,228,204947,1,0,1:0:0:0:
172,128,205263,1,0,1:0:0:0:
172,128,205578,1,0,1:0:0:0:
248,40,205894,5,0,1:0:0:0:
280,32,205973,1,0,1:0:0:0:
312,32,206052,1,0,1:0:0:0:
364,56,206210,1,0,1:0:0:0:
448,124,206526,2,0,P|460:156|444:176,1,62.5,0|0,1:0|1:0,1:0:0:0:
444,40,207000,1,0,1:0:0:0:
324,72,207157,5,0,1:0:0:0:
296,80,207236,1,0,1:0:0:0:
272,96,207315,1,0,1:0:0:0:
244,148,207473,1,0,1:0:0:0:
328,268,207789,1,0,1:0:0:0:
324,264,208105,2,0,P|288:264|268:248,1,62.5,0|0,1:0|1:0,1:0:0:0:
248,224,208500,5,0,1:0:0:0:
240,196,208578,1,0,1:0:0:0:
252,132,208736,1,0,1:0:0:0:
288,28,209052,1,0,1:0:0:0:
288,28,209368,1,0,1:0:0:0:
400,136,209526,1,0,1:0:0:0:
432,264,209684,5,0,1:0:0:0:
428,296,209763,1,0,1:0:0:0:
416,324,209842,1,0,1:0:0:0:
376,368,210000,1,0,1:0:0:0:
236,288,210315,1,0,1:0:0:0:
236,288,210631,1,0,1:0:0:0:
312,168,210947,5,0,1:0:0:0:
304,140,211026,1,0,1:0:0:0:
288,116,211105,1,0,1:0:0:0:
236,84,211263,1,0,1:0:0:0:
96,68,211578,1,0,1:0:0:0:
104,220,211894,1,0,1:0:0:0:
96,68,212052,1,0,0:0:0:0:
232,120,212210,5,0,1:0:0:0:
248,144,212289,1,0,1:0:0:0:
256,172,212368,1,0,1:0:0:0:
252,228,212526,1,0,1:0:0:0:
128,304,212842,1,0,1:0:0:0:
128,304,213157,1,0,1:0:0:0:
88,164,213473,5,0,1:0:0:0:
92,136,213552,1,0,1:0:0:0:
108,112,213631,1,0,1:0:0:0:
160,84,213789,1,0,1:0:0:0:
316,52,214105,1,0,1:0:0:0:
316,52,214421,1,0,1:0:0:0:
304,204,214578,1,0,1:0:0:0:
184,76,214736,5,0,1:0:0:0:
160,96,214815,1,0,1:0:0:0:
144,124,214894,1,0,1:0:0:0:
128,176,215052,1,0,1:0:0:0:
200,272,215368,2,0,P|216:264|232:220,1,62.5,0|0,1:0|1:0,1:0:0:0:
228,116,215842,1,0,1:0:0:0:
340,92,216000,5,0,1:0:0:0:
364,108,216078,1,0,1:0:0:0:
384,132,216157,1,0,1:0:0:0:
404,184,216315,1,0,1:0:0:0:
416,304,216631,2,0,P|384:320|356:312,1,62.5,0|0,1:0|1:0,1:0:0:0:
280,244,217105,1,0,1:0:0:0:
272,148,217263,5,0,1:0:0:0:
296,128,217342,1,0,1:0:0:0:
328,120,217421,1,0,1:0:0:0:
388,136,217578,1,0,1:0:0:0:
440,232,217894,2,0,P|448:276|436:292,1,62.5,0|0,1:0|1:0,1:0:0:0:
376,344,218526,5,0,1:0:0:0:
344,352,218605,1,0,1:0:0:0:
312,348,218684,1,0,1:0:0:0:
264,324,218842,2,0,B|232:312|288:300|252:272,1,62.5,0|0,1:0|1:0,1:0:0:0:
176,208,219473,1,0,1:0:0:0:
252,272,219631,1,0,1:0:0:0:
352,264,219789,5,0,1:0:0:0:
376,240,219868,1,0,1:0:0:0:
388,212,219947,1,0,1:0:0:0:
388,156,220105,1,0,1:0:0:0:
328,36,220421,1,0,1:0:0:0:
272,156,220736,1,0,1:0:0:0:
212,52,221052,5,0,1:0:0:0:
184,64,221131,1,0,1:0:0:0:
164,88,221210,1,0,1:0:0:0:
144,140,221368,1,0,1:0:0:0:
184,268,221684,2,0,P|232:272|240:260,1,62.5,0|0,1:0|1:0,1:0:0:0:
264,204,222157,2,0,P|276:188|296:184,1,31.25,0|0,1:0|1:0,1:0:0:0:
348,296,222631,5,0,1:0:0:0:
432,192,222947,1,0,1:0:0:0:
348,96,223263,1,0,1:0:0:0:
252,8,223578,1,0,1:0:0:0:
184,100,223894,1,0,1:0:0:0:
28,36,224210,1,0,1:0:0:0:
56,200,224526,1,0,1:0:0:0:
184,100,224684,1,0,1:0:0:0:
232,256,224842,5,0,1:0:0:0:
100,340,225157,1,0,1:0:0:0:
136,196,225473,1,0,1:0:0:0:
232,320,225789,1,0,1:0:0:0:
356,124,226105,2,0,P|376:176|372:180,1,62.5,0|0,1:0|1:0,1:0:0:0:
168,152,226736,2,0,P|140:132|144:108,1,62.5,0|0,1:0|1:0,1:0:0:0:
84,208,227210,2,0,P|80:232|92:240,1,31.25,0|0,1:0|1:0,1:0:0:0:
212,320,227684,5,0,1:0:0:0:
344,152,228000,1,0,1:0:0:0:
168,248,228315,1,0,1:0:0:0:
156,152,228631,2,0,P|168:136|216:132,1,62.5,0|0,1:0|1:0,1:0:0:0:
292,240,229263,2,0,L|236:268,1,62.5,0|0,1:0|1:0,1:0:0:0:
128,165,229736,2,0,L|168:145,1,31.25,0|0,1:0|1:0,1:0:0:0:
400,224,230210,5,0,1:0:0:0:
380,336,230526,2,0,P|332:308|332:296,2,62.5,0|0|0,1:0|1:0|1:0,1:0:0:0:
423,151,231473,2,0,P|415:127|379:111,1,62.5,0|0,1:0|1:0,1:0:0:0:
172,80,231947,1,0,1:0:0:0:
284,12,232105,1,0,1:0:0:0:
276,176,232263,1,0,1:0:0:0:
384,112,232421,5,0,0:0:0:0:
360,256,232578,2,0,P|336:296|284:272,1,100
276,176,232894,2,0,B|316:140|224:128|296:84,1,100
400,56,233210,2,0,P|464:96|464:144,1,100
468,264,233526,1,0,0:0:0:0:
376,328,233842,2,0,P|280:328|256:304,1,100
180,168,234157,2,0,B|152:176|152:176|180:176|180:176|152:184|152:184|180:184|180:184|152:192|152:192|180:192|180:192|152:200|152:200|180:200|180:200|152:208|152:208|180:208|180:208|152:216|152:216|180:216|180:216|152:224|152:224|180:224|180:224,1,400
72,316,234947,1,4,2:0:0:0:
204,280,235105,1,0,0:0:0:0:
112,208,235263,2,0,P|64:172|88:152,1,100
184,80,235578,1,0,0:0:0:0:
184,80,235657,1,0,0:0:0:0:
184,80,235736,1,0,0:0:0:0:
304,40,235894,2,0,P|352:56|340:68,1,100
260,232,236368,1,0,0:0:0:0:
292,200,236447,1,0,0:0:0:0:
340,192,236526,1,0,0:0:0:0:
388,200,236684,2,0,P|432:240|416:276,1,100
376,288,237000,2,0,L|352:332,1,50
328,284,237157,2,0,L|304:328,1,50
256,188,237473,21,4,0:0:0:0:
228,120,237631,2,0,P|172:104|164:60,2,100
300,96,238105,1,0,0:0:0:0:
380,80,238263,1,0,0:0:0:0:
460,108,238421,1,0,0:0:0:0:
512,164,238578,6,0,P|520:216|504:260,1,100
444,196,238894,6,0,P|416:248|360:264,1,100
368,188,239210,6,0,P|320:196|264:188,1,100
320,128,239526,6,0,P|428:144|356:264,1,300,0|4,0:0|2:0,0:0:0:0:
368,188,240157,1,0,0:0:0:0:
256,92,240315,2,0,P|212:68|168:92,1,100
182,170,240631,2,0,P|154:138|176:80,1,100
256,92,240947,1,0,0:0:0:0:
372,184,241105,1,0,0:0:0:0:
472,320,241263,2,0,B|448:232|360:340|316:224,1,187.500007152558
448,176,242052,6,0,L|448:136,1,40.6249981403352
376,71,242210,6,0,L|376:111,1,40.6249981403352
300,172,242368,6,0,L|300:116,1,40.6249981403352
300,48,242526,6,0,P|240:52|192:84,1,81.2499962806703,4|0,0:0|0:0,0:0:0:0:
176,144,242842,2,0,P|136:112|136:72,1,81.2499962806703
68,28,243157,1,0,0:0:0:0:
32,132,243315,2,0,P|52:168|36:208,1,81.2499962806703
88,320,243631,6,0,P|136:308|136:268,1,81.2499962806703
264,236,243947,6,0,P|256:288|228:288,1,81.2499962806703
376,276,244263,6,0,B|308:144|484:208|436:64,1,243.749988842011
336,40,244894,6,0,P|288:28|240:40,1,81.2499962806703,0|4,0:0|0:0,0:0:0:0:
276,128,245210,1,0,0:0:0:0:
348,196,245368,2,0,P|304:216|252:212,1,81.2499962806703
336,40,245684,2,0,P|364:76|368:120,1,81.2499962806703
212,104,246000,2,0,B|176:64|160:140|116:84,1,81.2499962806703
48,180,246473,2,0,B|76:216|28:216|60:256,1,81.2499962806703
212,104,246789,1,0,0:0:0:0:
200,280,246947,1,0,0:0:0:0:
48,180,247105,1,0,0:0:0:0:
48,44,247263,2,0,B|92:24|68:84|148:52,1,81.2499962806703
200,176,247578,6,0,P|236:188|200:180,1,100
304,136,247894,2,0,P|316:180|284:244,1,112.499996566773
128,168,248210,2,0,P|148:244|192:272,1,125
256,72,248526,1,0,0:0:0:0:
340,272,248684,2,0,P|372:208|372:152,2,125
372,155,249157,1,0,0:0:0:0:
449,291,249315,2,0,B|413:239|381:335|333:263,1,125
339,271,249631,1,0,0:0:0:0:
339,271,249789,1,0,0:0:0:0:
436,144,249947,5,0,0:0:0:0:
436,144,250026,1,0,0:0:0:0:
436,144,250105,1,0,0:0:0:0:
356,60,250263,2,0,L|300:92,1,62.5
232,40,250421,2,0,L|296:4,2,62.5
144,80,250736,1,0,0:0:0:0:
64,120,250894,1,0,0:0:0:0:
256,192,251052,12,0,252000,0:0:0:0:
144,104,252157,6,0,P|108:40|144:0,1,125
228,128,252473,5,0,0:0:0:0:
308,40,252631,6,0,P|376:72|388:128,1,125
284,232,252947,2,0,L|344:248,2,62.5
312,328,253263,2,0,B|220:196|152:160|80:224,1,250
64,292,253736,5,0,0:0:0:0:
188,288,253894,1,0,0:0:0:0:
40,180,254052,2,0,P|52:108|104:96,1,125
192,144,254368,1,0,0:0:0:0:
216,168,254447,1,0,0:0:0:0:
224,200,254526,1,0,0:0:0:0:
180,288,254684,2,0,P|132:248|124:172,1,125
184,48,255000,1,0,0:0:0:0:
280,144,255157,5,0,0:0:0:0:
280,144,255315,1,0,0:0:0:0:
400,212,255473,2,0,P|456:220|484:140,1,125
456,16,255789,2,0,B|492:84|400:56|424:128,1,125
392,304,256105,1,0,0:0:0:0:
392,304,256184,1,0,0:0:0:0:
392,304,256263,6,0,B|384:224|320:268|320:192,1,125
236,60,256578,1,0,0:0:0:0:
144,216,256736,1,0,0:0:0:0:
321,209,256894,1,0,0:0:0:0:
