osu file format v14

[General]
AudioFilename: audio.mp3
AudioLeadIn: 0
PreviewTime: 55102
Countdown: 0
SampleSet: Normal
StackLeniency: 0.7
Mode: 1
LetterboxInBreaks: 0
WidescreenStoryboard: 0

[Editor]
Bookmarks: 90397,101338
DistanceSpacing: 3.9
BeatDivisor: 4
GridSize: 32
TimelineZoom: 2.7

[Metadata]
Title:Dark Darker Yet Monster
TitleUnicode:Dark Darker Yet Monster
Artist:SharaX
ArtistUnicode:SharaX
Creator:Minion24
Version:Beware of the Man who Speaks in Hands
Source:UNDERTALE
Tags:toby "radiation" fox gaster's gasters theme video game vgm music unused track remix electronic instrumental
BeatmapID:3424563
BeatmapSetID:1676286

[Difficulty]
HPDrainRate:5
CircleSize:5
OverallDifficulty:6.5
ApproachRate:5
SliderMultiplier:1.4
SliderTickRate:1

[Events]
//Background and Video events
0,0,"64590349_p6_master1200.jpg",0,60
//Break Periods
//Storyboard Layer 0 (Background)
//Storyboard Layer 1 (Fail)
//Storyboard Layer 2 (Pass)
//Storyboard Layer 3 (Foreground)
//Storyboard Layer 4 (Overlay)
//Storyboard Sound Samples

[TimingPoints]
44,352.941176470588,4,1,0,50,1,0
11323,-100,4,1,0,65,0,0
22102,-100,4,1,0,65,0,0
22191,-102.528138847707,4,1,0,65,0,0
22367,-107.988212006777,4,1,0,65,0,0
22455,-110.9422323796,4,1,0,65,0,0
22544,-114.062542773454,4,1,0,65,0,0
22632,-117.363315748397,4,1,0,65,0,0
33220,-117.647058823529,4,1,0,65,0,0
33308,-115.133491526751,4,1,0,65,0,0
33396,-112.725210880688,4,1,0,65,0,0
33485,-110.415493502048,4,1,0,65,0,0
33573,-108.198526985254,4,1,0,65,0,0
33750,-104.021470031414,4,1,0,65,0,0
33926,-100.154839381684,4,1,0,65,0,0
45220,-100,4,1,0,65,0,0
45397,-100.933126756867,4,1,0,65,0,0
45573,-101.883832054691,4,1,0,65,0,0
45740,-102.85261734198,4,1,0,65,0,0
46092,-104.846530890409,4,1,0,65,0,0
46269,-105.872762114491,4,1,0,65,0,0
46445,-106.919281288591,4,1,0,65,0,0
46622,-107.986696039048,4,1,0,65,0,0
46798,-109.075638501519,4,1,0,65,0,0
46975,-110.186766569335,4,1,0,65,0,0
47151,-111.32076521894,4,1,0,65,0,0
47504,-113.660258122446,4,1,0,65,0,0
47681,-114.867270868511,4,1,0,65,0,0
47857,-116.100194467826,4,1,0,65,0,0
48034,-117.359872312459,4,1,0,65,0,0
48210,-118.647184798923,4,1,0,65,0,0
48387,-119.963051380175,4,1,0,65,0,0
48563,-121.308432755703,4,1,0,65,0,0
48916,-124.091803115945,4,1,0,65,0,0
49092,-125.531941602541,4,1,0,65,0,0
49269,-127.005899424028,4,1,0,65,0,0
49445,-128.514882023338,4,1,0,65,0,0
49622,-130.06015282068,4,1,0,65,0,0
49798,-131.643036741572,4,1,0,65,0,0
49975,-133.264924005677,4,1,0,65,0,0
56504,-111.111111111111,4,1,0,65,0,0
67092,-111.111111111111,4,1,0,65,0,0
67181,-108.866406766265,4,1,0,65,0,0
67269,-106.710716850583,4,1,0,65,0,0
67357,-104.638630489604,4,1,0,65,0,0
67445,-102.645482007787,4,1,0,65,0,0
67622,-98.87871536773,4,1,0,65,0,0
67808,-95.3785287671181,4,1,0,80,0,1
89681,-95.2380952380952,4,1,0,90,0,1
89769,-98.3606234883202,4,1,0,90,0,1
89857,-101.694949727102,4,1,0,90,0,1
89945,-105.263157894737,4,1,0,90,0,1
90034,-109.090869421502,4,1,0,90,0,1
90210,-117.647058823529,4,1,0,90,0,1
90396,-117.647058823529,4,1,0,90,0,0
90475,-117.36427994667,4,1,0,90,0,0
90563,-117.082857196381,4,1,0,90,0,0
90739,-116.524177018869,4,1,0,90,0,0
90828,-116.246763980708,4,1,0,90,0,0
90916,-115.970668698473,4,1,0,90,0,0
91092,-115.422527245488,4,1,0,90,0,0
91181,-115.150328754189,4,1,0,90,0,0
91269,-114.879411082187,4,1,0,90,0,0
91445,-114.341512944031,4,1,0,90,0,0
91533,-114.074383342402,4,1,0,90,0,0
91622,-113.808498991088,4,1,0,90,0,0
91710,-113.543851203054,4,1,0,90,0,0
91798,-113.280431371883,4,1,0,90,0,0
91886,-113.018358702188,4,1,0,90,0,0
91975,-112.757368694044,4,1,0,90,0,0
92151,-112.238988232864,4,1,0,90,0,0
92239,-111.981706668399,4,1,0,90,0,0
92328,-111.725477095719,4,1,0,90,0,0
92504,-111.216519656964,4,1,0,90,0,0
92592,-110.963775875365,4,1,0,90,0,0
92681,-110.712300800893,4,1,0,90,0,0
92857,-110.212511765186,4,1,0,90,0,0
92945,-109.964305586407,4,1,0,90,0,0
93033,-109.717335229249,4,1,0,90,0,0
93122,-109.471351894566,4,1,0,90,0,0
93210,-109.226469068702,4,1,0,90,0,0
93298,-108.982679382766,4,1,0,90,0,0
93386,-108.739975533506,4,1,0,90,0,0
93563,-108.257913653488,4,1,0,90,0,0
93651,-108.018423622333,4,1,0,90,0,0
93739,-107.779990860257,4,1,0,90,0,0
93916,-107.306384407953,4,1,0,90,0,0
94004,-107.071081278729,4,1,0,90,0,0
94092,-106.836807844386,4,1,0,90,0,0
94269,-106.371436290956,4,1,0,90,0,0
94357,-106.14021121902,4,1,0,90,0,0
94445,-105.909989218363,4,1,0,90,0,0
94533,-105.680763776016,4,1,0,90,0,0
94622,-105.452528435274,4,1,0,90,0,0
94710,-105.225387518796,4,1,0,90,0,0
94798,-104.999112757497,4,1,0,90,0,0
94975,-104.54947019556,4,1,0,90,0,0
95063,-104.326198812351,4,1,0,90,0,0
95151,-104.103770638573,4,1,0,90,0,0
95328,-103.661747571205,4,1,0,90,0,0
95504,-103.223568831024,4,1,0,90,0,0
95592,-103.005812618006,4,1,0,90,0,0
95681,-102.78897321011,4,1,0,90,0,0
95769,-102.573044829549,4,1,0,90,0,0
95857,-102.358126518739,4,1,0,90,0,0
95945,-102.144002614886,4,1,0,90,0,0
96033,-101.930772696416,4,1,0,90,0,0
96122,-101.718431176292,4,1,0,90,0,0
96210,-101.506972513942,4,1,0,90,0,0
96387,-101.086784014945,4,1,0,90,0,0
96475,-100.877940718069,4,1,0,90,0,0
96563,-100.669958574312,4,1,0,90,0,0
96739,-100.256657042028,4,1,0,90,0,0
96828,-100.051226227829,4,1,0,90,0,0
96916,-99.8466355677679,4,1,0,90,0,0
97092,-99.4400530612123,4,1,0,90,0,0
97181,-99.2379517683707,4,1,0,90,0,0
97269,-99.0366703079149,4,1,0,90,0,0
97357,-98.8362037014158,4,1,0,90,0,0
97445,-98.6365470106715,4,1,0,90,0,0
97533,-98.4377922371957,4,1,0,90,0,0
97622,-98.2397403327183,4,1,0,90,0,0
97798,-97.846017764923,4,1,0,90,0,0
97886,-97.6504329331944,4,1,0,90,0,0
97975,-97.455533476463,4,1,0,90,0,0
98151,-97.068059269757,4,1,0,90,0,0
98239,-96.8754752953007,4,1,0,90,0,0
98328,-96.6837474620516,4,1,0,90,0,0
98504,-96.302374046125,4,1,0,90,0,0
98592,-96.112813375828,4,1,0,90,0,0
98681,-95.9240895125234,4,1,0,90,0,0
98769,-95.7360136864205,4,1,0,90,0,0
98857,-95.5486739277289,4,1,0,90,0,0
98945,-95.3620659237962,4,1,0,90,0,0
99033,-95.1761853955951,4,1,0,90,0,0
99210,-94.8066796994249,4,1,0,90,0,0
99298,-94.622955907595,4,1,0,90,0,0
99386,-94.4399428071706,4,1,0,90,0,0
99563,-94.0761207523455,4,1,0,90,0,0
99651,-93.8952148181672,4,1,0,90,0,0
99739,-93.7150033034539,4,1,0,90,0,0
99916,-93.3567347548452,4,1,0,90,0,0
100004,-93.1785823437768,4,1,0,90,0,0
100092,-93.0011085732142,4,1,0,90,0,0
100181,-92.8243095727854,4,1,0,90,0,0
100269,-92.6481815014935,4,1,0,90,0,0
100357,-92.472806059558,4,1,0,90,0,0
100445,-92.2980081166868,4,1,0,90,0,0
100622,-91.9503872490559,4,1,0,90,0,0
100710,-91.7776411310676,4,1,0,90,0,0
100798,-91.6054589525099,4,1,0,90,0,0
100975,-91.2630255153167,4,1,0,90,0,0
101063,-91.0927670521105,4,1,0,90,0,0
101151,-90.9232253377571,4,1,0,90,0,0
101313,-66.6666666666667,4,1,0,80,0,0
101691,-86.9565217391304,4,1,0,80,0,1
124279,-86.9565217391304,4,1,0,65,0,0
124622,-88.6426592797784,4,1,0,65,0,0
124798,-89.5104494498688,4,1,0,65,0,0
124975,-90.3954802259887,4,1,0,65,0,0
125328,-92.2190201729107,4,1,0,65,0,0
125681,-94.1176470588235,4,1,0,65,0,0
126033,-96.0960960960961,4,1,0,65,0,0
126386,-98.159509202454,4,1,0,65,0,0
126563,-99.2248554293856,4,1,0,65,0,0
126739,-100.313479623824,4,1,0,65,0,0
126916,-101.426358885,4,1,0,65,0,0
127092,-102.564102564103,4,1,0,65,0,0
127445,-104.918032786885,4,1,0,65,0,0
127622,-106.135930408793,4,1,0,65,0,0
127798,-107.38255033557,4,1,0,65,0,0
128151,-109.965635738832,4,1,0,65,0,0
128504,-112.676056338028,4,1,0,65,0,0
128857,-115.523465703971,4,1,0,65,0,0
129210,-118.518518518519,4,1,0,65,0,0
129386,-120.075118994443,4,1,0,65,0,0
129563,-121.673003802281,4,1,0,65,0,0
129739,-123.31398947885,4,1,0,65,0,0
135548,-111.111111111111,4,1,0,65,0,0
146328,-111.111111111111,4,1,0,65,0,0
146416,-109.090869421502,4,1,0,65,0,0
146592,-105.263157894737,4,1,0,65,0,0
146681,-103.448240190262,4,1,0,65,0,0
146769,-101.694949727102,4,1,0,65,0,0
146857,-100,4,1,0,65,0,0
169445,-100,4,1,0,65,0,0
169622,-101.259157625068,4,1,0,65,0,0
169798,-102.550429173546,4,1,0,65,0,0
169886,-103.208547319055,4,1,0,65,0,0
170063,-104.550344650211,4,1,0,65,0,0
170151,-105.23446765566,4,1,0,65,0,0
170328,-106.629815402464,4,1,0,65,0,0
170504,-108.062663377239,4,1,0,65,0,0
170681,-109.534663887407,4,1,0,65,0,0
170857,-111.047197279788,4,1,0,65,0,0
179328,-111.111111111111,4,1,0,65,0,0
179504,-113.821193733916,4,1,0,65,0,0
179681,-116.666647222225,4,1,0,65,0,0
179857,-119.658160566893,4,1,0,65,0,0
180033,-122.806974453693,4,1,0,65,0,0
180210,-126.126148851558,4,1,0,65,0,0
180386,-129.629557613209,4,1,0,65,0,0
180563,-133.333333333333,4,1,0,65,0,0
180749,-100,4,1,0,80,0,1
202622,-100,4,1,0,80,0,1
202710,-101.694949727102,4,1,0,80,0,1
202798,-103.448240190262,4,1,0,80,0,1
202975,-107.142895408177,4,1,0,80,0,1
203151,-111.111111111111,4,1,0,80,0,1
203338,-111.111111111111,4,1,0,65,0,0
203416,-110.909133256215,4,1,0,65,0,0
203504,-110.707765817649,4,1,0,65,0,0
203681,-110.307459983211,4,1,0,65,0,0
203857,-109.909917831345,4,1,0,65,0,0
204033,-109.515230830728,4,1,0,65,0,0
204122,-109.319008170503,4,1,0,65,0,0
204210,-109.12348741206,4,1,0,65,0,0
204386,-108.734418357849,4,1,0,65,0,0
204475,-108.540981275595,4,1,0,65,0,0
204563,-108.348113821861,4,1,0,65,0,0
204651,-108.156047545398,4,1,0,65,0,0
204739,-107.964544443605,4,1,0,65,0,0
204828,-107.773834452924,4,1,0,65,0,0
204916,-107.583797019498,4,1,0,65,0,0
205004,-107.394313256324,4,1,0,65,0,0
205092,-107.205610712842,4,1,0,65,0,0
205269,-106.830073947777,4,1,0,65,0,0
205445,-106.457272309186,4,1,0,65,0,0
205533,-106.27173256931,4,1,0,65,0,0
205622,-106.086950986768,4,1,0,65,0,0
205798,-105.719197126129,4,1,0,65,0,0
205886,-105.536330354043,4,1,0,65,0,0
205975,-105.354095113677,4,1,0,65,0,0
206063,-105.172377526766,4,1,0,65,0,0
206151,-104.991395955101,4,1,0,65,0,0
206239,-104.811036182866,4,1,0,65,0,0
206328,-104.631185534111,4,1,0,65,0,0
206504,-104.273547052395,4,1,0,65,0,0
206592,-104.095534717943,4,1,0,65,0,0
206681,-103.918237131025,4,1,0,65,0,0
206857,-103.565340408917,4,1,0,65,0,0
206945,-103.389842775066,4,1,0,65,0,0
207033,-103.214938917399,4,1,0,65,0,0
207210,-102.866794701537,4,1,0,65,0,0
207298,-102.693654559085,4,1,0,65,0,0
207386,-102.520991172943,4,1,0,65,0,0
207475,-102.349012178509,4,1,0,65,0,0
207563,-102.177504804897,4,1,0,65,0,0
207651,-102.006675316833,4,1,0,65,0,0
207739,-101.836416091376,4,1,0,65,0,0
207916,-101.497494026872,4,1,0,65,0,0
208004,-101.328928902557,4,1,0,65,0,0
208092,-101.160820414254,4,1,0,65,0,0
208269,-100.826474612398,4,1,0,65,0,0
208357,-100.6600278023,4,1,0,65,0,0
208445,-100.49423062622,4,1,0,65,0,0
208533,-100.328978721227,4,1,0,65,0,0
208622,-100.164169073111,4,1,0,65,0,0
208710,-100,4,1,0,65,0,0
208798,-99.8363681925324,4,1,0,65,0,0
208886,-99.6731716700938,4,1,0,65,0,0
208975,-99.5106068355826,4,1,0,65,0,0
209063,-99.3485714172173,4,1,0,65,0,0
209151,-99.1869644523838,4,1,0,65,0,0
209328,-98.8655181788972,4,1,0,65,0,0
209416,-98.7054776604828,4,1,0,65,0,0
209504,-98.5460515553523,4,1,0,65,0,0
209681,-98.2286428828928,4,1,0,65,0,0
209769,-98.0707521634408,4,1,0,65,0,0
209857,-97.9133682100751,4,1,0,65,0,0
210033,-97.6000156160025,4,1,0,65,0,0
210122,-97.444042758446,4,1,0,65,0,0
210210,-97.2886622711649,4,1,0,65,0,0
210298,-97.1337765223777,4,1,0,65,0,0
210386,-96.9792891030192,4,1,0,65,0,0
210475,-96.8253860670206,4,1,0,65,0,0
210563,-96.671970735461,4,1,0,65,0,0
210739,-96.3665010768956,4,1,0,65,0,0
210828,-96.2145353222802,4,1,0,65,0,0
210916,-96.0629558187254,4,1,0,65,0,0
211092,-95.7614085354059,4,1,0,65,0,0
211269,-95.4616573480179,4,1,0,65,0,0
211357,-95.3125297851656,4,1,0,65,0,0
211445,-95.163776859976,4,1,0,65,0,0
211533,-95.015577803981,4,1,0,65,0,0
211622,-94.8678396126356,4,1,0,65,0,0
211710,-94.7204704197443,4,1,0,65,0,0
211798,-94.573647809627,4,1,0,65,0,0
211886,-94.4272796633856,4,1,0,65,0,0
211975,-94.2812749845379,4,1,0,65,0,0
212151,-93.9907926619508,4,1,0,65,0,0
212239,-93.8461336331404,4,1,0,65,0,0
212328,-93.702007003288,4,1,0,65,0,0
212504,-93.414990490354,4,1,0,65,0,0
212592,-93.2721840894443,4,1,0,65,0,0
212681,-93.1298136472429,4,1,0,65,0,0
212857,-92.8462864735031,4,1,0,65,0,0
212945,-92.7051263153699,4,1,0,65,0,0
213033,-92.5644804170585,4,1,0,65,0,0
213122,-92.424260629021,4,1,0,65,0,0
213210,-92.2843798535816,4,1,0,65,0,0
213298,-92.145006754229,4,1,0,65,0,0
213386,-92.0060539983531,4,1,0,65,0,0
213563,-91.7293177907177,4,1,0,65,0,0
213651,-91.5916149708326,4,1,0,65,0,0
213739,-91.4542413276229,4,1,0,65,0,0
213916,-91.1808928615391,4,1,0,65,0,0
214004,-91.0447475829896,4,1,0,65,0,0
214092,-90.9090909090909,4,1,0,65,0,0
214254,-66.6666666666667,4,1,0,80,0,0
214632,-86.9565217391304,4,1,0,80,0,1
237220,-86.9565217391304,4,1,0,65,0,0
237386,-87.7659527784068,4,1,0,65,0,0
237739,-89.4308797673366,4,1,0,65,0,0
237916,-90.2872579398615,4,1,0,65,0,0
238092,-91.1601958121006,4,1,0,65,0,0
238269,-92.0501783932457,4,1,0,65,0,0
238445,-92.9577098194947,4,1,0,65,0,0
238622,-93.883314306315,4,1,0,65,0,0
238798,-94.8276270808737,4,1,0,65,0,0
239151,-96.774224765879,4,1,0,65,0,0
239328,-97.7778038518588,4,1,0,65,0,0
239504,-98.802415916674,4,1,0,65,0,0
239681,-99.8487291752994,4,1,0,65,0,0
239857,-100.917440451141,4,1,0,65,0,0
240033,-102.009276723625,4,1,0,65,0,0
240210,-103.124996777344,4,1,0,65,0,0
240563,-105.431293062094,4,1,0,65,0,0
240739,-106.623562314542,4,1,0,65,0,0
240916,-107.843105536342,4,1,0,65,0,0
241092,-109.090869421502,4,1,0,65,0,0
241269,-110.367844990569,4,1,0,65,0,0
241445,-111.6750702157,4,1,0,65,0,0
241622,-113.013760555485,4,1,0,65,0,0
241975,-115.789522437694,4,1,0,65,0,0
242151,-117.229171306988,4,1,0,65,0,0
242328,-118.705070130955,4,1,0,65,0,0
242504,-120.218605512264,4,1,0,65,0,0
242681,-121.771235685791,4,1,0,65,0,0
242857,-123.364495204822,4,1,0,65,0,0
247622,-125,4,1,0,65,0,0
247798,-121.951219512195,4,1,0,65,0,0
247975,-119.047619047619,4,1,0,65,0,0
248151,-116.279069767442,4,1,0,65,0,0
248328,-113.636363636364,4,1,0,65,0,0
248504,-111.111111111111,4,1,0,65,0,0
259092,-111.111111111111,4,1,0,65,0,0
259269,-108.138269917447,4,1,0,65,0,0
259445,-105.320252557966,4,1,0,65,0,0
259622,-102.645482007787,4,1,0,65,0,0
259808,-100.103206405804,4,1,0,80,0,1
282396,-100,4,1,0,65,0,0
282563,-101.259157625068,4,1,0,65,0,0
282739,-102.550429173546,4,1,0,65,0,0
282916,-103.875166979331,4,1,0,65,0,0
283092,-105.23446765566,4,1,0,65,0,0
283445,-108.062663377239,4,1,0,65,0,0
283798,-111.047197279788,4,1,0,65,0,0
293681,-111.111111111111,4,1,0,65,0,0
293857,-112.676056338028,4,1,0,65,0,0
294033,-114.285714285714,4,1,0,65,0,0
294210,-115.942028985507,4,1,0,65,0,0
294386,-117.647058823529,4,1,0,65,0,0
294739,-121.212121212121,4,1,0,65,0,0
295092,-125,4,1,0,65,0,0

[HitObjects]
480,224,44,5,0,0:0:0:0:
480,224,396,1,8,0:0:0:0:
480,224,573,1,8,0:0:0:0:
480,224,750,1,0,0:0:0:0:
480,224,1102,1,8,0:0:0:0:
480,224,1455,1,0,0:0:0:0:
480,224,1808,1,8,0:0:0:0:
480,224,2161,1,8,0:0:0:0:
480,224,2338,1,8,0:0:0:0:
480,224,2514,1,8,0:0:0:0:
480,224,2691,1,0,0:0:0:0:
480,224,2867,1,8,0:0:0:0:
480,224,3220,1,8,0:0:0:0:
480,224,3397,1,8,0:0:0:0:
480,224,3573,1,0,0:0:0:0:
480,224,3926,1,8,0:0:0:0:
480,224,4279,1,0,0:0:0:0:
480,224,4632,1,8,0:0:0:0:
480,224,4985,1,8,0:0:0:0:
480,224,5161,1,8,0:0:0:0:
480,224,5338,1,0,0:0:0:0:
480,224,5514,1,0,0:0:0:0:
480,224,5691,1,8,0:0:0:0:
480,224,6044,1,8,0:0:0:0:
480,224,6220,1,8,0:0:0:0:
480,224,6397,1,0,0:0:0:0:
480,224,6750,1,8,0:0:0:0:
480,224,7102,1,0,0:0:0:0:
480,224,7455,1,8,0:0:0:0:
480,224,7808,1,8,0:0:0:0:
480,224,7985,1,8,0:0:0:0:
480,224,8161,1,8,0:0:0:0:
480,224,8338,1,0,0:0:0:0:
480,224,8514,1,8,0:0:0:0:
480,224,8867,1,8,0:0:0:0:
480,224,9044,1,8,0:0:0:0:
480,224,9220,1,0,0:0:0:0:
480,224,9573,1,8,0:0:0:0:
480,224,9926,1,0,0:0:0:0:
480,224,10279,1,8,0:0:0:0:
480,224,10632,1,8,0:0:0:0:
480,224,10808,1,8,0:0:0:0:
480,224,10985,1,0,0:0:0:0:
480,224,11161,1,0,0:0:0:0:
480,224,11338,1,0,0:0:0:0:
480,224,11514,1,8,0:0:0:0:
480,224,11602,1,8,0:0:0:0:
480,224,11691,1,0,0:0:0:0:
480,224,11867,1,8,0:0:0:0:
480,224,12044,1,0,0:0:0:0:
480,224,12220,1,8,0:0:0:0:
480,224,12308,1,0,0:0:0:0:
480,224,12485,1,8,0:0:0:0:
480,224,12573,1,0,0:0:0:0:
480,224,12661,1,8,0:0:0:0:
480,224,12750,1,8,0:0:0:0:
480,224,12926,1,8,0:0:0:0:
480,224,13014,1,8,0:0:0:0:
480,224,13102,1,0,0:0:0:0:
480,224,13279,1,8,0:0:0:0:
480,224,13455,1,0,0:0:0:0:
480,224,13632,1,0,0:0:0:0:
480,224,13720,1,0,0:0:0:0:
480,224,13897,1,8,0:0:0:0:
480,224,13985,1,0,0:0:0:0:
480,224,14073,1,8,0:0:0:0:
480,224,14161,1,0,0:0:0:0:
480,224,14338,1,0,0:0:0:0:
480,224,14426,1,0,0:0:0:0:
480,224,14514,1,8,0:0:0:0:
480,224,14691,1,8,0:0:0:0:
480,224,14867,1,0,0:0:0:0:
480,224,15044,1,8,0:0:0:0:
480,224,15132,1,0,0:0:0:0:
480,224,15308,1,8,0:0:0:0:
480,224,15397,1,0,0:0:0:0:
480,224,15485,1,0,0:0:0:0:
480,224,15573,1,8,0:0:0:0:
480,224,15750,1,0,0:0:0:0:
480,224,15838,1,0,0:0:0:0:
480,224,15926,1,8,0:0:0:0:
480,224,16102,1,8,0:0:0:0:
480,224,16279,1,0,0:0:0:0:
480,224,16455,1,8,0:0:0:0:
480,224,16544,1,8,0:0:0:0:
480,224,16720,1,8,0:0:0:0:
480,224,16808,1,0,0:0:0:0:
480,224,16897,1,8,0:0:0:0:
480,224,16985,1,8,0:0:0:0:
480,224,17161,1,8,0:0:0:0:
480,224,17250,1,8,0:0:0:0:
480,224,17338,1,0,0:0:0:0:
480,224,17514,1,8,0:0:0:0:
480,224,17691,1,0,0:0:0:0:
480,224,17867,1,0,0:0:0:0:
480,224,17955,1,8,0:0:0:0:
480,224,18132,1,8,0:0:0:0:
480,224,18220,1,0,0:0:0:0:
480,224,18308,1,0,0:0:0:0:
480,224,18397,1,8,0:0:0:0:
480,224,18573,1,8,0:0:0:0:
480,224,18661,1,8,0:0:0:0:
480,224,18749,1,0,0:0:0:0:
480,224,18926,1,8,0:0:0:0:
480,224,19102,1,0,0:0:0:0:
480,224,19279,1,8,0:0:0:0:
480,224,19367,1,8,0:0:0:0:
480,224,19544,1,8,0:0:0:0:
480,224,19632,1,0,0:0:0:0:
480,224,19720,1,8,0:0:0:0:
480,224,19808,1,0,0:0:0:0:
480,224,19985,1,0,0:0:0:0:
480,224,20073,1,0,0:0:0:0:
480,224,20161,1,8,0:0:0:0:
480,224,20338,1,8,0:0:0:0:
480,224,20514,1,0,0:0:0:0:
480,224,20691,1,8,0:0:0:0:
480,224,20779,1,8,0:0:0:0:
480,224,20955,1,8,0:0:0:0:
480,224,21044,1,0,0:0:0:0:
480,224,21132,1,8,0:0:0:0:
480,224,21220,1,8,0:0:0:0:
480,224,21397,1,8,0:0:0:0:
480,224,21485,1,8,0:0:0:0:
480,224,21573,1,0,0:0:0:0:
480,224,21750,1,8,0:0:0:0:
480,224,21926,1,0,0:0:0:0:
480,224,22102,1,8,0:0:0:0:
480,224,22191,1,0,0:0:0:0:
480,224,22367,1,8,0:0:0:0:
480,224,22455,1,0,0:0:0:0:
480,224,22544,1,0,0:0:0:0:
480,224,22632,1,8,0:0:0:0:
480,224,22985,1,8,0:0:0:0:
480,224,23161,1,0,0:0:0:0:
480,224,23250,1,8,0:0:0:0:
480,224,23338,1,0,0:0:0:0:
480,224,23514,1,0,0:0:0:0:
480,224,23867,1,0,0:0:0:0:
480,224,24044,1,8,0:0:0:0:
480,224,24397,1,8,0:0:0:0:
480,224,24750,1,0,0:0:0:0:
480,224,25102,1,8,0:0:0:0:
480,224,25455,1,0,0:0:0:0:
480,224,25808,1,0,0:0:0:0:
480,224,25985,1,0,0:0:0:0:
480,224,26073,1,8,0:0:0:0:
480,224,26161,1,8,0:0:0:0:
480,224,26338,1,8,0:0:0:0:
480,224,26691,1,0,0:0:0:0:
480,224,26867,1,8,0:0:0:0:
480,224,27220,1,0,0:0:0:0:
480,224,27573,1,8,0:0:0:0:
480,224,27926,1,8,0:0:0:0:
480,224,28102,1,0,0:0:0:0:
480,224,28279,1,8,0:0:0:0:
480,224,28632,1,8,0:0:0:0:
480,224,28808,1,0,0:0:0:0:
480,224,28897,1,8,0:0:0:0:
480,224,28985,1,0,0:0:0:0:
480,224,29161,1,0,0:0:0:0:
480,224,29514,1,0,0:0:0:0:
480,224,29691,1,8,0:0:0:0:
480,224,30044,1,8,0:0:0:0:
480,224,30397,1,0,0:0:0:0:
480,224,30750,1,8,0:0:0:0:
480,224,31102,1,0,0:0:0:0:
480,224,31455,1,0,0:0:0:0:
480,224,31632,1,0,0:0:0:0:
480,224,31720,1,8,0:0:0:0:
480,224,31808,1,8,0:0:0:0:
480,224,31985,1,8,0:0:0:0:
480,224,32338,1,0,0:0:0:0:
480,224,32514,1,8,0:0:0:0:
480,224,32867,1,0,0:0:0:0:
480,224,33220,1,0,0:0:0:0:
480,224,33308,1,0,0:0:0:0:
480,224,33396,1,0,0:0:0:0:
480,224,33485,1,0,0:0:0:0:
480,224,33573,1,8,0:0:0:0:
480,224,33750,1,8,0:0:0:0:
480,224,33926,1,0,0:0:0:0:
480,224,34102,1,8,0:0:0:0:
480,224,34191,1,8,0:0:0:0:
480,224,34279,1,0,0:0:0:0:
480,224,34455,1,0,0:0:0:0:
480,224,34543,1,0,0:0:0:0:
480,224,34632,1,8,0:0:0:0:
480,224,34808,1,8,0:0:0:0:
480,224,34985,1,0,0:0:0:0:
480,224,35161,1,8,0:0:0:0:
480,224,35338,1,8,0:0:0:0:
480,224,35427,1,0,0:0:0:0:
480,224,35515,1,0,0:0:0:0:
480,224,35603,1,0,0:0:0:0:
480,224,35691,1,8,0:0:0:0:
480,224,35867,1,0,0:0:0:0:
480,224,36044,1,8,0:0:0:0:
480,224,36132,1,8,0:0:0:0:
480,224,36220,1,0,0:0:0:0:
480,224,36308,1,0,0:0:0:0:
480,224,36397,1,8,0:0:0:0:
480,224,36573,1,0,0:0:0:0:
480,224,36750,1,8,0:0:0:0:
480,224,36926,1,8,0:0:0:0:
480,224,37014,1,0,0:0:0:0:
480,224,37102,1,8,0:0:0:0:
480,224,37279,1,0,0:0:0:0:
480,224,37367,1,8,0:0:0:0:
480,224,37455,1,8,0:0:0:0:
480,224,37632,1,8,0:0:0:0:
480,224,37808,1,0,0:0:0:0:
480,224,37985,1,8,0:0:0:0:
480,224,38161,1,8,0:0:0:0:
480,224,38250,1,8,0:0:0:0:
480,224,38338,1,8,0:0:0:0:
480,224,38426,1,0,0:0:0:0:
480,224,38514,1,8,0:0:0:0:
480,224,38691,1,0,0:0:0:0:
480,224,38867,1,8,0:0:0:0:
480,224,38955,1,8,0:0:0:0:
480,224,39044,1,0,0:0:0:0:
480,224,39132,1,0,0:0:0:0:
480,224,39220,1,8,0:0:0:0:
480,224,39397,1,0,0:0:0:0:
480,224,39573,1,8,0:0:0:0:
480,224,39750,1,8,0:0:0:0:
480,224,39838,1,8,0:0:0:0:
480,224,39926,1,0,0:0:0:0:
480,224,40102,1,0,0:0:0:0:
480,224,40191,1,8,0:0:0:0:
480,224,40279,1,0,0:0:0:0:
480,224,40455,1,8,0:0:0:0:
480,224,40632,1,0,0:0:0:0:
480,224,40808,1,8,0:0:0:0:
480,224,40985,1,8,0:0:0:0:
480,224,41073,1,0,0:0:0:0:
480,224,41161,1,0,0:0:0:0:
480,224,41250,1,0,0:0:0:0:
480,224,41338,1,8,0:0:0:0:
480,224,41514,1,0,0:0:0:0:
480,224,41691,1,8,0:0:0:0:
480,224,41779,1,8,0:0:0:0:
480,224,41867,1,0,0:0:0:0:
480,224,41955,1,0,0:0:0:0:
480,224,42044,1,8,0:0:0:0:
480,224,42220,1,0,0:0:0:0:
480,224,42397,1,8,0:0:0:0:
480,224,42573,1,8,0:0:0:0:
480,224,42661,1,8,0:0:0:0:
480,224,42749,1,0,0:0:0:0:
480,224,42926,1,0,0:0:0:0:
480,224,43014,1,8,0:0:0:0:
480,224,43102,1,0,0:0:0:0:
480,224,43279,1,8,0:0:0:0:
480,224,43455,1,0,0:0:0:0:
480,224,43632,1,8,0:0:0:0:
480,224,43808,1,8,0:0:0:0:
480,224,43897,1,8,0:0:0:0:
480,224,43985,1,8,0:0:0:0:
480,224,44073,1,0,0:0:0:0:
480,224,44161,1,8,0:0:0:0:
480,224,44338,1,0,0:0:0:0:
480,224,44514,1,8,0:0:0:0:
480,224,44602,1,8,0:0:0:0:
480,224,44691,1,0,0:0:0:0:
480,224,44779,1,0,0:0:0:0:
480,224,44867,1,8,0:0:0:0:
480,224,45044,1,0,0:0:0:0:
480,224,45220,1,0,0:0:0:0:
480,224,45397,1,8,0:0:0:0:
480,224,45573,1,0,0:0:0:0:
480,224,45750,1,0,0:0:0:0:
480,224,46102,1,8,0:0:0:0:
480,224,46279,1,0,0:0:0:0:
480,224,46455,1,0,0:0:0:0:
480,224,46632,1,8,0:0:0:0:
480,224,46808,1,0,0:0:0:0:
480,224,46985,1,8,0:0:0:0:
480,224,47161,1,0,0:0:0:0:
480,224,47514,1,0,0:0:0:0:
480,224,47691,1,8,0:0:0:0:
480,224,47867,1,8,0:0:0:0:
480,224,48044,1,0,0:0:0:0:
480,224,48220,1,8,0:0:0:0:
480,224,48397,1,0,0:0:0:0:
480,224,48573,1,8,0:0:0:0:
480,224,48926,1,8,0:0:0:0:
480,224,49102,1,0,0:0:0:0:
480,224,49279,1,0,0:0:0:0:
480,224,49455,1,8,0:0:0:0:
480,224,49632,1,0,0:0:0:0:
480,224,49808,1,8,0:0:0:0:
480,224,49985,1,0,0:0:0:0:
480,224,50338,1,8,0:0:0:0:
480,224,50514,1,8,0:0:0:0:
480,224,50691,1,0,0:0:0:0:
480,224,50867,1,8,0:0:0:0:
480,224,51044,1,0,0:0:0:0:
480,224,51220,1,8,0:0:0:0:
480,224,51397,1,0,0:0:0:0:
480,224,51750,1,8,0:0:0:0:
480,224,51926,1,0,0:0:0:0:
480,224,52102,1,0,0:0:0:0:
480,224,52279,1,8,0:0:0:0:
480,224,52455,1,0,0:0:0:0:
480,224,52632,1,8,0:0:0:0:
480,224,52808,1,0,0:0:0:0:
480,224,53161,1,0,0:0:0:0:
480,224,53338,1,8,0:0:0:0:
480,224,53514,1,8,0:0:0:0:
480,224,53691,1,0,0:0:0:0:
480,224,53867,1,8,0:0:0:0:
480,224,54044,1,0,0:0:0:0:
480,224,54220,1,8,0:0:0:0:
480,224,54573,1,8,0:0:0:0:
480,224,54750,1,0,0:0:0:0:
480,224,54926,1,8,0:0:0:0:
256,192,55102,12,0,56161,0:0:0:0:
480,224,56514,5,0,0:0:0:0:
480,224,56867,1,8,0:0:0:0:
480,224,57220,1,0,0:0:0:0:
480,224,57396,1,0,0:0:0:0:
480,224,57573,1,8,0:0:0:0:
480,224,57750,1,8,0:0:0:0:
480,224,57926,1,0,0:0:0:0:
480,224,58279,1,8,0:0:0:0:
480,224,58632,1,0,0:0:0:0:
480,224,58808,1,0,0:0:0:0:
480,224,58985,1,8,0:0:0:0:
480,224,59161,1,0,0:0:0:0:
480,224,59338,1,0,0:0:0:0:
480,224,59691,1,8,0:0:0:0:
480,224,60044,1,0,0:0:0:0:
480,224,60221,1,0,0:0:0:0:
480,224,60397,1,8,0:0:0:0:
480,224,60750,1,0,0:0:0:0:
480,224,61102,1,8,0:0:0:0:
480,224,61455,1,0,0:0:0:0:
480,224,61632,1,8,0:0:0:0:
480,224,61808,1,8,0:0:0:0:
480,224,62161,1,0,0:0:0:0:
480,224,62514,1,8,0:0:0:0:
480,224,62867,1,0,0:0:0:0:
480,224,63044,1,0,0:0:0:0:
480,224,63220,1,8,0:0:0:0:
480,224,63397,1,8,0:0:0:0:
480,224,63573,1,0,0:0:0:0:
480,224,63926,1,8,0:0:0:0:
480,224,64279,1,0,0:0:0:0:
480,224,64455,1,0,0:0:0:0:
480,224,64632,1,8,0:0:0:0:
480,224,64808,1,0,0:0:0:0:
480,224,64985,1,0,0:0:0:0:
480,224,65338,1,8,0:0:0:0:
480,224,65691,1,0,0:0:0:0:
480,224,65867,1,0,0:0:0:0:
480,224,66043,1,8,0:0:0:0:
480,224,66397,1,0,0:0:0:0:
480,224,66573,1,0,0:0:0:0:
480,224,66750,1,8,0:0:0:0:
480,224,66926,1,0,0:0:0:0:
480,224,67102,1,0,0:0:0:0:
480,224,67191,1,0,0:0:0:0:
480,224,67279,1,0,0:0:0:0:
480,224,67367,1,0,0:0:0:0:
480,224,67455,1,8,0:0:0:0:
480,224,67632,1,8,0:0:0:0:
480,224,67808,1,0,0:0:0:0:
480,224,67985,1,8,0:0:0:0:
480,224,68073,1,8,0:0:0:0:
480,224,68161,1,0,0:0:0:0:
480,224,68338,1,8,0:0:0:0:
480,224,68514,1,0,0:0:0:0:
480,224,68602,1,0,0:0:0:0:
480,224,68691,1,8,0:0:0:0:
480,224,68779,1,0,0:0:0:0:
480,224,68867,1,8,0:0:0:0:
480,224,69044,1,8,0:0:0:0:
480,224,69132,1,8,0:0:0:0:
480,224,69220,1,0,0:0:0:0:
480,224,69397,1,0,0:0:0:0:
480,224,69485,1,0,0:0:0:0:
480,224,69573,1,8,0:0:0:0:
480,224,69750,1,8,0:0:0:0:
480,224,69926,1,8,0:0:0:0:
480,224,70014,1,0,0:0:0:0:
480,224,70102,1,8,0:0:0:0:
480,224,70191,1,8,0:0:0:0:
480,224,70279,1,0,0:0:0:0:
480,224,70455,1,8,0:0:0:0:
480,224,70543,1,8,0:0:0:0:
480,224,70632,1,0,0:0:0:0:
480,224,70808,1,8,0:0:0:0:
480,224,70985,1,0,0:0:0:0:
480,224,71161,1,0,0:0:0:0:
480,224,71338,1,8,0:0:0:0:
480,224,71426,1,8,0:0:0:0:
480,224,71514,1,0,0:0:0:0:
480,224,71602,1,0,0:0:0:0:
480,224,71691,1,8,0:0:0:0:
480,224,71867,1,0,0:0:0:0:
480,224,71955,1,0,0:0:0:0:
480,224,72044,1,8,0:0:0:0:
480,224,72220,1,8,0:0:0:0:
480,224,72308,1,0,0:0:0:0:
480,224,72397,1,8,0:0:0:0:
480,224,72573,1,0,0:0:0:0:
480,224,72750,1,8,0:0:0:0:
480,224,72838,1,0,0:0:0:0:
480,224,72926,1,0,0:0:0:0:
480,224,73014,1,0,0:0:0:0:
480,224,73102,1,8,0:0:0:0:
480,224,73279,1,0,0:0:0:0:
480,224,73455,1,8,0:0:0:0:
480,224,73632,1,8,0:0:0:0:
480,224,73808,1,0,0:0:0:0:
480,224,73896,1,0,0:0:0:0:
480,224,73985,1,8,0:0:0:0:
480,224,74161,1,8,0:0:0:0:
480,224,74250,1,8,0:0:0:0:
480,224,74338,1,8,0:0:0:0:
480,224,74426,1,0,0:0:0:0:
480,224,74514,1,8,0:0:0:0:
480,224,74691,1,0,0:0:0:0:
480,224,74779,1,8,0:0:0:0:
480,224,74867,1,8,0:0:0:0:
480,224,75044,1,0,0:0:0:0:
480,224,75132,1,0,0:0:0:0:
480,224,75220,1,8,0:0:0:0:
480,224,75397,1,0,0:0:0:0:
480,224,75573,1,8,0:0:0:0:
480,224,75661,1,8,0:0:0:0:
480,224,75750,1,0,0:0:0:0:
480,224,75838,1,0,0:0:0:0:
480,224,75926,1,8,0:0:0:0:
480,224,76102,1,8,0:0:0:0:
480,224,76191,1,8,0:0:0:0:
480,224,76279,1,0,0:0:0:0:
480,224,76455,1,0,0:0:0:0:
480,224,76632,1,8,0:0:0:0:
480,224,76808,1,0,0:0:0:0:
480,224,76985,1,0,0:0:0:0:
480,224,77073,1,0,0:0:0:0:
480,224,77161,1,8,0:0:0:0:
480,224,77250,1,0,0:0:0:0:
480,224,77338,1,8,0:0:0:0:
480,224,77514,1,8,0:0:0:0:
480,224,77602,1,0,0:0:0:0:
480,224,77691,1,0,0:0:0:0:
480,224,77867,1,8,0:0:0:0:
480,224,77955,1,8,0:0:0:0:
480,224,78043,1,0,0:0:0:0:
480,224,78220,1,0,0:0:0:0:
480,224,78397,1,8,0:0:0:0:
480,224,78485,1,0,0:0:0:0:
480,224,78573,1,0,0:0:0:0:
480,224,78661,1,0,0:0:0:0:
480,224,78750,1,8,0:0:0:0:
480,224,78926,1,8,0:0:0:0:
480,224,79102,1,0,0:0:0:0:
480,224,79279,1,0,0:0:0:0:
480,224,79455,1,8,0:0:0:0:
480,224,79543,1,0,0:0:0:0:
480,224,79632,1,0,0:0:0:0:
480,224,79808,1,8,0:0:0:0:
480,224,79897,1,0,0:0:0:0:
480,224,79985,1,8,0:0:0:0:
480,224,80073,1,8,0:0:0:0:
480,224,80161,1,0,0:0:0:0:
480,224,80338,1,8,0:0:0:0:
480,224,80426,1,8,0:0:0:0:
480,224,80514,1,0,0:0:0:0:
480,224,80691,1,0,0:0:0:0:
480,224,80779,1,8,0:0:0:0:
480,224,80867,1,0,0:0:0:0:
480,224,81044,1,0,0:0:0:0:
480,224,81220,1,8,0:0:0:0:
480,224,81308,1,8,0:0:0:0:
480,224,81397,1,0,0:0:0:0:
480,224,81485,1,0,0:0:0:0:
480,224,81573,1,8,0:0:0:0:
480,224,81750,1,0,0:0:0:0:
480,224,81926,1,0,0:0:0:0:
480,224,82014,1,0,0:0:0:0:
480,224,82102,1,8,0:0:0:0:
480,224,82279,1,0,0:0:0:0:
480,224,82455,1,8,0:0:0:0:
480,224,82632,1,8,0:0:0:0:
480,224,82720,1,0,0:0:0:0:
480,224,82808,1,0,0:0:0:0:
480,224,82896,1,0,0:0:0:0:
480,224,82985,1,8,0:0:0:0:
480,224,83161,1,0,0:0:0:0:
480,224,83249,1,8,0:0:0:0:
480,224,83338,1,0,0:0:0:0:
480,224,83514,1,8,0:0:0:0:
480,224,83602,1,8,0:0:0:0:
480,224,83691,1,0,0:0:0:0:
480,224,83867,1,0,0:0:0:0:
480,224,84044,1,8,0:0:0:0:
480,224,84132,1,8,0:0:0:0:
480,224,84220,1,0,0:0:0:0:
480,224,84308,1,0,0:0:0:0:
480,224,84397,1,8,0:0:0:0:
480,224,84573,1,0,0:0:0:0:
480,224,84750,1,8,0:0:0:0:
480,224,84926,1,8,0:0:0:0:
480,224,85102,1,8,0:0:0:0:
480,224,85191,1,8,0:0:0:0:
480,224,85279,1,0,0:0:0:0:
480,224,85455,1,8,0:0:0:0:
480,224,85543,1,8,0:0:0:0:
480,224,85631,1,8,0:0:0:0:
480,224,85720,1,0,0:0:0:0:
480,224,85808,1,8,0:0:0:0:
480,224,85985,1,8,0:0:0:0:
480,224,86073,1,8,0:0:0:0:
480,224,86161,1,0,0:0:0:0:
480,224,86338,1,8,0:0:0:0:
480,224,86426,1,0,0:0:0:0:
480,224,86514,1,8,0:0:0:0:
480,224,86691,1,0,0:0:0:0:
480,224,86867,1,8,0:0:0:0:
480,224,86956,1,8,0:0:0:0:
480,224,87044,1,0,0:0:0:0:
480,224,87132,1,0,0:0:0:0:
480,224,87220,1,8,0:0:0:0:
480,224,87397,1,0,0:0:0:0:
480,224,87485,1,8,0:0:0:0:
480,224,87573,1,0,0:0:0:0:
480,224,87750,1,0,0:0:0:0:
480,224,87926,1,8,0:0:0:0:
480,224,88102,1,0,0:0:0:0:
480,224,88279,1,8,0:0:0:0:
480,224,88367,1,0,0:0:0:0:
480,224,88455,1,0,0:0:0:0:
480,224,88544,1,0,0:0:0:0:
480,224,88632,1,8,0:0:0:0:
480,224,88808,1,0,0:0:0:0:
480,224,88896,1,0,0:0:0:0:
480,224,88985,1,8,0:0:0:0:
480,224,89161,1,8,0:0:0:0:
480,224,89250,1,8,0:0:0:0:
480,224,89338,1,0,0:0:0:0:
480,224,89514,1,0,0:0:0:0:
480,224,89691,1,8,0:0:0:0:
480,224,89779,1,0,0:0:0:0:
480,224,89867,1,8,0:0:0:0:
480,224,89955,1,8,0:0:0:0:
480,224,90044,1,0,0:0:0:0:
480,224,90220,1,0,0:0:0:0:
480,224,90396,1,8,0:0:0:0:
480,224,90485,1,8,0:0:0:0:
480,224,90573,1,0,0:0:0:0:
480,224,90749,1,0,0:0:0:0:
480,224,90838,1,8,0:0:0:0:
480,224,90926,1,0,0:0:0:0:
480,224,91102,1,0,0:0:0:0:
480,224,91191,1,0,0:0:0:0:
480,224,91279,1,8,0:0:0:0:
480,224,91455,1,0,0:0:0:0:
480,224,91543,1,0,0:0:0:0:
480,224,91632,1,8,0:0:0:0:
480,224,91720,1,0,0:0:0:0:
480,224,91808,1,8,0:0:0:0:
480,224,91896,1,8,0:0:0:0:
480,224,91985,1,0,0:0:0:0:
480,224,92161,1,0,0:0:0:0:
480,224,92249,1,8,0:0:0:0:
480,224,92338,1,0,0:0:0:0:
480,224,92514,1,0,0:0:0:0:
480,224,92602,1,0,0:0:0:0:
480,224,92691,1,8,0:0:0:0:
480,224,92867,1,0,0:0:0:0:
480,224,92955,1,0,0:0:0:0:
480,224,93043,1,8,0:0:0:0:
480,224,93132,1,8,0:0:0:0:
480,224,93220,1,0,0:0:0:0:
480,224,93308,1,8,0:0:0:0:
480,224,93396,1,0,0:0:0:0:
480,224,93573,1,0,0:0:0:0:
480,224,93661,1,8,0:0:0:0:
480,224,93749,1,0,0:0:0:0:
480,224,93926,1,0,0:0:0:0:
480,224,94014,1,0,0:0:0:0:
480,224,94102,1,8,0:0:0:0:
480,224,94279,1,0,0:0:0:0:
480,224,94367,1,0,0:0:0:0:
480,224,94455,1,8,0:0:0:0:
480,224,94543,1,8,0:0:0:0:
480,224,94632,1,8,0:0:0:0:
480,224,94720,1,8,0:0:0:0:
480,224,94808,1,0,0:0:0:0:
480,224,94985,1,0,0:0:0:0:
480,224,95073,1,8,0:0:0:0:
480,224,95161,1,0,0:0:0:0:
480,224,95338,1,0,0:0:0:0:
480,224,95514,1,8,0:0:0:0:
480,224,95602,1,0,0:0:0:0:
480,224,95691,1,8,0:0:0:0:
480,224,95779,1,0,0:0:0:0:
480,224,95867,1,8,0:0:0:0:
480,224,95955,1,8,0:0:0:0:
480,224,96043,1,0,0:0:0:0:
480,224,96132,1,8,0:0:0:0:
480,224,96220,1,0,0:0:0:0:
480,224,96397,1,0,0:0:0:0:
480,224,96485,1,8,0:0:0:0:
480,224,96573,1,0,0:0:0:0:
480,224,96749,1,0,0:0:0:0:
480,224,96838,1,0,0:0:0:0:
480,224,96926,1,8,0:0:0:0:
480,224,97102,1,0,0:0:0:0:
480,224,97191,1,0,0:0:0:0:
480,224,97279,1,8,0:0:0:0:
480,224,97367,1,0,0:0:0:0:
480,224,97455,1,8,0:0:0:0:
480,224,97543,1,8,0:0:0:0:
480,224,97632,1,0,0:0:0:0:
480,224,97808,1,0,0:0:0:0:
480,224,97896,1,8,0:0:0:0:
480,224,97985,1,0,0:0:0:0:
480,224,98161,1,0,0:0:0:0:
480,224,98249,1,0,0:0:0:0:
480,224,98338,1,8,0:0:0:0:
480,224,98514,1,8,0:0:0:0:
480,224,98602,1,0,0:0:0:0:
480,224,98691,1,8,0:0:0:0:
480,224,98779,1,8,0:0:0:0:
480,224,98867,1,0,0:0:0:0:
480,224,98955,1,8,0:0:0:0:
480,224,99043,1,0,0:0:0:0:
480,224,99220,1,0,0:0:0:0:
480,224,99308,1,8,0:0:0:0:
480,224,99396,1,0,0:0:0:0:
480,224,99573,1,0,0:0:0:0:
480,224,99661,1,0,0:0:0:0:
480,224,99749,1,8,0:0:0:0:
480,224,99926,1,0,0:0:0:0:
480,224,100014,1,0,0:0:0:0:
480,224,100102,1,8,0:0:0:0:
480,224,100191,1,0,0:0:0:0:
480,224,100279,1,8,0:0:0:0:
480,224,100367,1,8,0:0:0:0:
480,224,100455,1,0,0:0:0:0:
480,224,100632,1,0,0:0:0:0:
480,224,100720,1,0,0:0:0:0:
480,224,100808,1,8,0:0:0:0:
480,224,100985,1,0,0:0:0:0:
480,224,101073,1,8,0:0:0:0:
480,224,101161,1,8,0:0:0:0:
480,160,101338,1,12,0:0:0:0:
480,160,101691,1,4,0:0:0:0:
480,224,101867,1,0,0:0:0:0:
480,224,101955,1,0,0:0:0:0:
480,224,102044,1,8,0:0:0:0:
480,224,102132,1,0,0:0:0:0:
480,224,102220,1,8,0:0:0:0:
480,224,102397,1,8,0:0:0:0:
480,224,102441,1,8,0:0:0:0:
480,224,102573,1,8,0:0:0:0:
480,224,102617,1,8,0:0:0:0:
480,224,102750,1,0,0:0:0:0:
480,224,102926,1,8,0:0:0:0:
480,224,103102,1,0,0:0:0:0:
480,224,103279,1,0,0:0:0:0:
480,224,103367,1,0,0:0:0:0:
480,224,103455,1,8,0:0:0:0:
480,224,103632,1,0,0:0:0:0:
480,224,103691,1,0,0:0:0:0:
480,224,103750,1,8,0:0:0:0:
480,224,103808,1,8,0:0:0:0:
480,224,103985,1,0,0:0:0:0:
480,224,104044,1,0,0:0:0:0:
480,224,104102,1,0,0:0:0:0:
480,224,104161,1,8,0:0:0:0:
480,224,104338,1,0,0:0:0:0:
480,160,104514,1,12,0:0:0:0:
480,224,104691,1,0,0:0:0:0:
480,224,104779,1,0,0:0:0:0:
480,224,104867,1,8,0:0:0:0:
480,224,104955,1,8,0:0:0:0:
480,224,105044,1,8,0:0:0:0:
480,224,105220,1,8,0:0:0:0:
480,224,105264,1,8,0:0:0:0:
480,224,105397,1,8,0:0:0:0:
480,224,105441,1,8,0:0:0:0:
480,224,105573,1,0,0:0:0:0:
480,224,105749,1,0,0:0:0:0:
480,224,105926,1,8,0:0:0:0:
480,224,106102,1,0,0:0:0:0:
480,224,106191,1,0,0:0:0:0:
480,224,106279,1,8,0:0:0:0:
480,224,106455,1,8,0:0:0:0:
480,224,106514,1,0,0:0:0:0:
480,224,106573,1,0,0:0:0:0:
480,224,106632,1,8,0:0:0:0:
480,224,106808,1,0,0:0:0:0:
480,224,106867,1,0,0:0:0:0:
480,224,106926,1,0,0:0:0:0:
480,224,106985,1,8,0:0:0:0:
480,224,107161,1,0,0:0:0:0:
480,224,107249,1,0,0:0:0:0:
480,160,107338,1,12,0:0:0:0:
480,224,107514,1,0,0:0:0:0:
480,224,107602,1,0,0:0:0:0:
480,224,107691,1,8,0:0:0:0:
480,224,107779,1,0,0:0:0:0:
480,224,107867,1,8,0:0:0:0:
480,224,108043,1,8,0:0:0:0:
480,224,108088,1,8,0:0:0:0:
480,224,108220,1,8,0:0:0:0:
480,224,108264,1,8,0:0:0:0:
480,224,108396,1,0,0:0:0:0:
480,224,108573,1,8,0:0:0:0:
480,224,108749,1,0,0:0:0:0:
480,224,108838,1,0,0:0:0:0:
480,224,108926,1,0,0:0:0:0:
480,224,109014,1,0,0:0:0:0:
480,224,109102,1,8,0:0:0:0:
480,224,109279,1,0,0:0:0:0:
480,224,109338,1,0,0:0:0:0:
480,224,109396,1,8,0:0:0:0:
480,224,109455,1,8,0:0:0:0:
480,224,109632,1,0,0:0:0:0:
480,224,109691,1,0,0:0:0:0:
480,224,109749,1,0,0:0:0:0:
480,224,109808,1,8,0:0:0:0:
480,224,109985,1,0,0:0:0:0:
480,160,110161,1,12,0:0:0:0:
480,224,110338,1,0,0:0:0:0:
480,224,110426,1,0,0:0:0:0:
480,224,110514,1,8,0:0:0:0:
480,224,110602,1,8,0:0:0:0:
480,224,110691,1,0,0:0:0:0:
480,224,110867,1,8,0:0:0:0:
480,224,110911,1,8,0:0:0:0:
480,224,111043,1,8,0:0:0:0:
480,224,111088,1,8,0:0:0:0:
480,224,111220,1,0,0:0:0:0:
480,224,111396,1,8,0:0:0:0:
480,224,111573,1,0,0:0:0:0:
480,224,111661,1,0,0:0:0:0:
480,224,111749,1,8,0:0:0:0:
480,224,111838,1,0,0:0:0:0:
480,224,111926,1,8,0:0:0:0:
480,224,112102,1,8,0:0:0:0:
480,224,112161,1,0,0:0:0:0:
480,224,112220,1,0,0:0:0:0:
480,224,112279,1,8,0:0:0:0:
480,224,112455,1,0,0:0:0:0:
480,224,112514,1,0,0:0:0:0:
480,224,112573,1,0,0:0:0:0:
480,224,112632,1,8,0:0:0:0:
480,224,112808,1,0,0:0:0:0:
480,160,112985,1,12,0:0:0:0:
480,224,113161,1,0,0:0:0:0:
480,224,113249,1,0,0:0:0:0:
480,224,113338,1,8,0:0:0:0:
480,224,113426,1,8,0:0:0:0:
480,224,113514,1,0,0:0:0:0:
480,224,113691,1,8,0:0:0:0:
480,224,113735,1,8,0:0:0:0:
480,224,113867,1,8,0:0:0:0:
480,224,113912,1,8,0:0:0:0:
480,224,114044,1,0,0:0:0:0:
480,224,114132,1,0,0:0:0:0:
480,224,114220,1,8,0:0:0:0:
480,224,114396,1,8,0:0:0:0:
480,224,114485,1,8,0:0:0:0:
480,224,114573,1,0,0:0:0:0:
480,224,114661,1,0,0:0:0:0:
480,224,114749,1,8,0:0:0:0:
480,224,114926,1,0,0:0:0:0:
480,224,114985,1,0,0:0:0:0:
480,224,115043,1,8,0:0:0:0:
480,224,115102,1,8,0:0:0:0:
480,224,115279,1,0,0:0:0:0:
480,224,115338,1,0,0:0:0:0:
480,224,115396,1,0,0:0:0:0:
480,224,115455,1,8,0:0:0:0:
480,224,115632,1,0,0:0:0:0:
480,160,115808,1,12,0:0:0:0:
480,224,115985,1,0,0:0:0:0:
480,224,116073,1,0,0:0:0:0:
480,224,116161,1,8,0:0:0:0:
480,224,116249,1,0,0:0:0:0:
480,224,116338,1,8,0:0:0:0:
480,224,116514,1,8,0:0:0:0:
480,224,116558,1,8,0:0:0:0:
480,224,116691,1,8,0:0:0:0:
480,224,116736,1,8,0:0:0:0:
480,224,116867,1,0,0:0:0:0:
480,224,116955,1,0,0:0:0:0:
480,224,117043,1,8,0:0:0:0:
480,224,117132,1,0,0:0:0:0:
480,224,117220,1,8,0:0:0:0:
480,224,117396,1,0,0:0:0:0:
480,224,117485,1,0,0:0:0:0:
480,224,117573,1,8,0:0:0:0:
480,224,117749,1,8,0:0:0:0:
480,224,117808,1,0,0:0:0:0:
480,224,117867,1,0,0:0:0:0:
480,224,117926,1,8,0:0:0:0:
480,224,118102,1,0,0:0:0:0:
480,224,118161,1,0,0:0:0:0:
480,224,118220,1,0,0:0:0:0:
480,224,118279,1,8,0:0:0:0:
480,224,118455,1,0,0:0:0:0:
480,160,118632,1,12,0:0:0:0:
480,224,118808,1,8,0:0:0:0:
480,224,118896,1,8,0:0:0:0:
480,224,118985,1,0,0:0:0:0:
480,224,119073,1,0,0:0:0:0:
480,224,119161,1,8,0:0:0:0:
480,224,119338,1,8,0:0:0:0:
480,224,119382,1,8,0:0:0:0:
480,224,119514,1,8,0:0:0:0:
480,224,119558,1,8,0:0:0:0:
480,224,119691,1,0,0:0:0:0:
480,224,119779,1,0,0:0:0:0:
480,224,119867,1,8,0:0:0:0:
480,224,120043,1,8,0:0:0:0:
480,224,120132,1,8,0:0:0:0:
480,224,120220,1,0,0:0:0:0:
480,224,120308,1,0,0:0:0:0:
480,224,120396,1,8,0:0:0:0:
480,224,120573,1,0,0:0:0:0:
480,224,120632,1,0,0:0:0:0:
480,224,120691,1,8,0:0:0:0:
480,224,120749,1,8,0:0:0:0:
480,224,120926,1,0,0:0:0:0:
480,224,120985,1,0,0:0:0:0:
480,224,121043,1,0,0:0:0:0:
480,224,121102,1,8,0:0:0:0:
480,224,121279,1,0,0:0:0:0:
480,224,121367,1,0,0:0:0:0:
480,160,121455,1,12,0:0:0:0:
480,224,121632,1,8,0:0:0:0:
480,224,121720,1,0,0:0:0:0:
480,224,121808,1,8,0:0:0:0:
480,224,121896,1,8,0:0:0:0:
480,224,121985,1,0,0:0:0:0:
480,224,122161,1,8,0:0:0:0:
480,224,122205,1,8,0:0:0:0:
480,224,122338,1,8,0:0:0:0:
480,224,122382,1,8,0:0:0:0:
480,224,122514,1,0,0:0:0:0:
480,224,122602,1,0,0:0:0:0:
480,224,122691,1,8,0:0:0:0:
480,224,122779,1,0,0:0:0:0:
480,224,122867,1,8,0:0:0:0:
480,224,123043,1,8,0:0:0:0:
480,224,123132,1,0,0:0:0:0:
480,224,123220,1,8,0:0:0:0:
480,224,123396,1,8,0:0:0:0:
480,224,123455,1,0,0:0:0:0:
480,224,123514,1,0,0:0:0:0:
480,224,123573,1,8,0:0:0:0:
480,224,123749,1,0,0:0:0:0:
480,224,123808,1,0,0:0:0:0:
480,224,123867,1,0,0:0:0:0:
480,224,123926,1,8,0:0:0:0:
480,224,124102,1,0,0:0:0:0:
480,224,124279,1,8,0:0:0:0:
480,224,124632,1,8,0:0:0:0:
480,224,124808,1,8,0:0:0:0:
480,224,124985,1,0,0:0:0:0:
480,224,125338,1,8,0:0:0:0:
480,224,125691,1,0,0:0:0:0:
480,224,126043,1,8,0:0:0:0:
480,224,126396,1,8,0:0:0:0:
480,224,126573,1,8,0:0:0:0:
480,224,126749,1,8,0:0:0:0:
480,224,126926,1,0,0:0:0:0:
480,224,127102,1,8,0:0:0:0:
480,224,127455,1,8,0:0:0:0:
480,224,127632,1,0,0:0:0:0:
480,224,127808,1,0,0:0:0:0:
480,224,128161,1,8,0:0:0:0:
480,224,128514,1,0,0:0:0:0:
480,224,128867,1,8,0:0:0:0:
480,224,129220,1,8,0:0:0:0:
480,224,129396,1,8,0:0:0:0:
480,224,129573,1,0,0:0:0:0:
480,224,129749,1,0,0:0:0:0:
480,224,129926,1,8,0:0:0:0:
480,224,130279,1,8,0:0:0:0:
480,224,130455,1,0,0:0:0:0:
480,224,130632,1,0,0:0:0:0:
480,224,130985,1,8,0:0:0:0:
480,224,131338,1,0,0:0:0:0:
480,224,131691,1,8,0:0:0:0:
480,224,132043,1,8,0:0:0:0:
480,224,132220,1,8,0:0:0:0:
480,224,132396,1,8,0:0:0:0:
480,224,132573,1,0,0:0:0:0:
480,224,132749,1,8,0:0:0:0:
480,224,133102,1,8,0:0:0:0:
480,224,133279,1,0,0:0:0:0:
480,224,133455,1,0,0:0:0:0:
480,224,133808,1,8,0:0:0:0:
480,224,134161,1,0,0:0:0:0:
480,224,134514,1,8,0:0:0:0:
480,224,134867,1,8,0:0:0:0:
480,224,135043,1,8,0:0:0:0:
480,224,135220,1,0,0:0:0:0:
480,224,135396,1,0,0:0:0:0:
480,224,135573,1,0,0:0:0:0:
480,224,135749,1,8,0:0:0:0:
480,224,136102,1,8,0:0:0:0:
480,224,136279,1,0,0:0:0:0:
480,224,136455,1,0,0:0:0:0:
480,224,136543,1,8,0:0:0:0:
480,224,136720,1,8,0:0:0:0:
480,224,136808,1,0,0:0:0:0:
480,224,136896,1,8,0:0:0:0:
480,224,136985,1,8,0:0:0:0:
480,224,137161,1,8,0:0:0:0:
480,224,137514,1,8,0:0:0:0:
480,224,137867,1,0,0:0:0:0:
480,224,137955,1,8,0:0:0:0:
480,224,138132,1,8,0:0:0:0:
480,224,138220,1,0,0:0:0:0:
480,224,138308,1,8,0:0:0:0:
480,224,138396,1,0,0:0:0:0:
480,224,138573,1,8,0:0:0:0:
480,224,138926,1,8,0:0:0:0:
480,224,139279,1,8,0:0:0:0:
480,224,139367,1,8,0:0:0:0:
480,224,139543,1,0,0:0:0:0:
480,224,139632,1,8,0:0:0:0:
480,224,139720,1,8,0:0:0:0:
480,224,139808,1,0,0:0:0:0:
480,224,139985,1,8,0:0:0:0:
480,224,140338,1,8,0:0:0:0:
480,224,140690,1,0,0:0:0:0:
480,224,140779,1,8,0:0:0:0:
480,224,140955,1,8,0:0:0:0:
480,224,141043,1,0,0:0:0:0:
480,224,141131,1,8,0:0:0:0:
480,224,141220,1,8,0:0:0:0:
480,224,141396,1,8,0:0:0:0:
480,224,141749,1,8,0:0:0:0:
480,224,142102,1,0,0:0:0:0:
480,224,142190,1,8,0:0:0:0:
480,224,142367,1,8,0:0:0:0:
480,224,142455,1,0,0:0:0:0:
480,224,142543,1,8,0:0:0:0:
480,224,142631,1,0,0:0:0:0:
480,224,142808,1,8,0:0:0:0:
480,224,143161,1,8,0:0:0:0:
480,224,143514,1,0,0:0:0:0:
480,224,143602,1,8,0:0:0:0:
480,224,143779,1,8,0:0:0:0:
480,224,143867,1,0,0:0:0:0:
480,224,143955,1,8,0:0:0:0:
480,224,144043,1,8,0:0:0:0:
480,224,144220,1,8,0:0:0:0:
480,224,144573,1,8,0:0:0:0:
480,224,144926,1,0,0:0:0:0:
480,224,145014,1,8,0:0:0:0:
480,224,145191,1,8,0:0:0:0:
480,224,145279,1,0,0:0:0:0:
480,224,145367,1,0,0:0:0:0:
480,224,145455,1,8,0:0:0:0:
480,224,145632,1,8,0:0:0:0:
480,224,145985,1,8,0:0:0:0:
480,224,146338,1,0,0:0:0:0:
480,224,146426,1,8,0:0:0:0:
480,224,146602,1,8,0:0:0:0:
480,224,146691,1,8,0:0:0:0:
480,224,146779,1,8,0:0:0:0:
480,224,146867,1,0,0:0:0:0:
480,224,147043,1,0,0:0:0:0:
480,224,147220,1,8,0:0:0:0:
480,224,147396,1,0,0:0:0:0:
480,224,147485,1,8,0:0:0:0:
480,224,147573,1,0,0:0:0:0:
480,224,147749,1,8,0:0:0:0:
480,224,147926,1,8,0:0:0:0:
480,224,148014,1,8,0:0:0:0:
480,224,148102,1,0,0:0:0:0:
480,224,148279,1,8,0:0:0:0:
480,224,148455,1,0,0:0:0:0:
480,224,148543,1,0,0:0:0:0:
480,224,148632,1,8,0:0:0:0:
480,224,148808,1,0,0:0:0:0:
480,224,148985,1,8,0:0:0:0:
480,224,149161,1,0,0:0:0:0:
480,224,149249,1,8,0:0:0:0:
480,224,149338,1,8,0:0:0:0:
480,224,149514,1,0,0:0:0:0:
480,224,149691,1,8,0:0:0:0:
480,224,149867,1,0,0:0:0:0:
480,224,150043,1,8,0:0:0:0:
480,224,150220,1,0,0:0:0:0:
480,224,150308,1,8,0:0:0:0:
480,224,150396,1,0,0:0:0:0:
480,224,150573,1,0,0:0:0:0:
480,224,150749,1,8,0:0:0:0:
480,224,150838,1,8,0:0:0:0:
480,224,150926,1,0,0:0:0:0:
480,224,151102,1,8,0:0:0:0:
480,224,151279,1,0,0:0:0:0:
480,224,151367,1,0,0:0:0:0:
480,224,151455,1,8,0:0:0:0:
480,224,151632,1,0,0:0:0:0:
480,224,151808,1,8,0:0:0:0:
480,224,151985,1,8,0:0:0:0:
480,224,152073,1,0,0:0:0:0:
480,224,152161,1,8,0:0:0:0:
480,224,152338,1,0,0:0:0:0:
480,224,152514,1,8,0:0:0:0:
480,224,152691,1,0,0:0:0:0:
480,224,152867,1,8,0:0:0:0:
480,224,153043,1,0,0:0:0:0:
480,224,153132,1,8,0:0:0:0:
480,224,153220,1,8,0:0:0:0:
480,224,153396,1,0,0:0:0:0:
480,224,153573,1,8,0:0:0:0:
480,224,153661,1,0,0:0:0:0:
480,224,153749,1,0,0:0:0:0:
480,224,153926,1,8,0:0:0:0:
480,224,154102,1,0,0:0:0:0:
480,224,154191,1,0,0:0:0:0:
480,224,154279,1,8,0:0:0:0:
480,224,154455,1,0,0:0:0:0:
480,224,154632,1,8,0:0:0:0:
480,224,154808,1,0,0:0:0:0:
480,224,154896,1,8,0:0:0:0:
480,224,154985,1,8,0:0:0:0:
480,224,155161,1,0,0:0:0:0:
480,224,155338,1,8,0:0:0:0:
480,224,155514,1,0,0:0:0:0:
480,224,155691,1,8,0:0:0:0:
480,224,155867,1,0,0:0:0:0:
480,224,155955,1,8,0:0:0:0:
480,224,156043,1,0,0:0:0:0:
480,224,156220,1,0,0:0:0:0:
480,224,156396,1,8,0:0:0:0:
480,224,156485,1,0,0:0:0:0:
480,224,156573,1,0,0:0:0:0:
480,224,156749,1,8,0:0:0:0:
480,224,156926,1,0,0:0:0:0:
480,224,157014,1,0,0:0:0:0:
480,224,157102,1,8,0:0:0:0:
480,224,157279,1,0,0:0:0:0:
480,224,157455,1,8,0:0:0:0:
480,224,157632,1,0,0:0:0:0:
480,224,157720,1,0,0:0:0:0:
480,224,157808,1,8,0:0:0:0:
480,224,157985,1,0,0:0:0:0:
480,224,158161,1,0,0:0:0:0:
480,224,158338,1,8,0:0:0:0:
480,224,158426,1,8,0:0:0:0:
480,224,158514,1,0,0:0:0:0:
480,224,158691,1,8,0:0:0:0:
480,224,158779,1,8,0:0:0:0:
480,224,158867,1,8,0:0:0:0:
480,224,158955,1,0,0:0:0:0:
480,224,159043,1,8,0:0:0:0:
480,224,159220,1,8,0:0:0:0:
480,224,159396,1,0,0:0:0:0:
480,224,159485,1,0,0:0:0:0:
480,224,159573,1,8,0:0:0:0:
480,224,159749,1,8,0:0:0:0:
480,224,159838,1,0,0:0:0:0:
480,224,159926,1,8,0:0:0:0:
480,224,160102,1,0,0:0:0:0:
480,224,160279,1,8,0:0:0:0:
480,224,160367,1,8,0:0:0:0:
480,224,160455,1,0,0:0:0:0:
480,224,160543,1,0,0:0:0:0:
480,224,160632,1,8,0:0:0:0:
480,224,160808,1,0,0:0:0:0:
480,224,160985,1,8,0:0:0:0:
480,224,161161,1,8,0:0:0:0:
480,224,161249,1,8,0:0:0:0:
480,224,161338,1,0,0:0:0:0:
480,224,161514,1,0,0:0:0:0:
480,224,161602,1,8,0:0:0:0:
480,224,161691,1,8,0:0:0:0:
480,224,161779,1,8,0:0:0:0:
480,224,161867,1,0,0:0:0:0:
480,224,162043,1,8,0:0:0:0:
480,224,162220,1,0,0:0:0:0:
480,224,162396,1,8,0:0:0:0:
480,224,162573,1,0,0:0:0:0:
480,224,162661,1,8,0:0:0:0:
480,224,162749,1,8,0:0:0:0:
480,224,162926,1,0,0:0:0:0:
480,224,163102,1,8,0:0:0:0:
480,224,163191,1,0,0:0:0:0:
480,224,163279,1,0,0:0:0:0:
480,224,163367,1,0,0:0:0:0:
480,224,163455,1,8,0:0:0:0:
480,224,163632,1,0,0:0:0:0:
480,224,163808,1,8,0:0:0:0:
480,224,163985,1,8,0:0:0:0:
480,224,164073,1,8,0:0:0:0:
480,224,164161,1,0,0:0:0:0:
480,224,164338,1,0,0:0:0:0:
480,224,164426,1,8,0:0:0:0:
480,224,164514,1,0,0:0:0:0:
480,224,164691,1,0,0:0:0:0:
480,224,164867,1,8,0:0:0:0:
480,224,164955,1,8,0:0:0:0:
480,224,165043,1,0,0:0:0:0:
480,224,165132,1,0,0:0:0:0:
480,224,165220,1,8,0:0:0:0:
480,224,165396,1,0,0:0:0:0:
480,224,165485,1,8,0:0:0:0:
480,224,165573,1,8,0:0:0:0:
480,224,165749,1,0,0:0:0:0:
480,224,165926,1,8,0:0:0:0:
480,224,166014,1,8,0:0:0:0:
480,224,166102,1,0,0:0:0:0:
480,224,166279,1,8,0:0:0:0:
480,224,166367,1,0,0:0:0:0:
480,224,166455,1,8,0:0:0:0:
480,224,166543,1,0,0:0:0:0:
480,224,166632,1,8,0:0:0:0:
480,224,166808,1,8,0:0:0:0:
480,224,166896,1,8,0:0:0:0:
480,224,166985,1,0,0:0:0:0:
480,224,167161,1,0,0:0:0:0:
480,224,167338,1,8,0:0:0:0:
480,224,167514,1,0,0:0:0:0:
480,224,167691,1,8,0:0:0:0:
480,224,167779,1,8,0:0:0:0:
480,224,167867,1,0,0:0:0:0:
480,224,167955,1,0,0:0:0:0:
480,224,168043,1,8,0:0:0:0:
480,224,168220,1,0,0:0:0:0:
480,224,168396,1,8,0:0:0:0:
480,224,168485,1,8,0:0:0:0:
480,224,168573,1,0,0:0:0:0:
480,224,168749,1,8,0:0:0:0:
480,224,168926,1,8,0:0:0:0:
480,224,169014,1,0,0:0:0:0:
480,224,169102,1,8,0:0:0:0:
480,224,169191,1,8,0:0:0:0:
480,224,169279,1,0,0:0:0:0:
480,224,169455,1,0,0:0:0:0:
480,224,169632,1,0,0:0:0:0:
480,224,169808,1,0,0:0:0:0:
480,224,169896,1,0,0:0:0:0:
480,224,170073,1,0,0:0:0:0:
480,224,170161,1,0,0:0:0:0:
480,224,170338,1,0,0:0:0:0:
480,224,170514,1,0,0:0:0:0:
480,224,170691,1,0,0:0:0:0:
480,224,170867,1,8,0:0:0:0:
480,224,171043,1,8,0:0:0:0:
480,224,171220,1,8,0:0:0:0:
480,224,171308,1,8,0:0:0:0:
480,224,171485,1,8,0:0:0:0:
480,224,171573,1,8,0:0:0:0:
480,224,171749,1,0,0:0:0:0:
480,224,171926,1,8,0:0:0:0:
480,224,172102,1,8,0:0:0:0:
480,224,172279,1,0,0:0:0:0:
480,224,172455,1,0,0:0:0:0:
480,224,172632,1,0,0:0:0:0:
480,224,172720,1,0,0:0:0:0:
480,224,172896,1,0,0:0:0:0:
480,224,172985,1,0,0:0:0:0:
480,224,173161,1,0,0:0:0:0:
480,224,173338,1,0,0:0:0:0:
480,224,173514,1,0,0:0:0:0:
480,224,173691,1,8,0:0:0:0:
480,224,173867,1,0,0:0:0:0:
480,224,174043,1,8,0:0:0:0:
480,224,174132,1,8,0:0:0:0:
480,224,174308,1,8,0:0:0:0:
480,224,174396,1,8,0:0:0:0:
480,224,174573,1,0,0:0:0:0:
480,224,174749,1,8,0:0:0:0:
480,224,174926,1,8,0:0:0:0:
480,224,175102,1,0,0:0:0:0:
480,224,175279,1,0,0:0:0:0:
480,224,175455,1,0,0:0:0:0:
480,224,175543,1,0,0:0:0:0:
480,224,175720,1,0,0:0:0:0:
480,224,175808,1,0,0:0:0:0:
480,224,175985,1,0,0:0:0:0:
480,224,176161,1,0,0:0:0:0:
480,224,176338,1,0,0:0:0:0:
480,224,176514,1,8,0:0:0:0:
480,224,176691,1,8,0:0:0:0:
480,224,176867,1,8,0:0:0:0:
480,224,176955,1,8,0:0:0:0:
480,224,177132,1,8,0:0:0:0:
480,224,177220,1,8,0:0:0:0:
480,224,177396,1,0,0:0:0:0:
480,224,177573,1,8,0:0:0:0:
480,224,177749,1,8,0:0:0:0:
480,224,177926,1,0,0:0:0:0:
480,224,178102,1,0,0:0:0:0:
480,224,178279,1,0,0:0:0:0:
480,224,178367,1,0,0:0:0:0:
480,224,178543,1,0,0:0:0:0:
480,224,178632,1,0,0:0:0:0:
480,224,178808,1,0,0:0:0:0:
480,224,178985,1,0,0:0:0:0:
480,224,179161,1,0,0:0:0:0:
480,224,179338,1,8,0:0:0:0:
480,224,179514,1,0,0:0:0:0:
480,224,179691,1,8,0:0:0:0:
480,224,179867,1,8,0:0:0:0:
480,224,180043,1,8,0:0:0:0:
480,224,180220,1,0,0:0:0:0:
480,224,180396,1,8,0:0:0:0:
480,224,180573,1,0,0:0:0:0:
480,224,180749,1,8,0:0:0:0:
480,224,180838,1,8,0:0:0:0:
480,224,180926,1,0,0:0:0:0:
480,224,181014,1,0,0:0:0:0:
480,224,181102,1,8,0:0:0:0:
480,224,181279,1,0,0:0:0:0:
480,224,181455,1,8,0:0:0:0:
480,224,181543,1,0,0:0:0:0:
480,224,181632,1,8,0:0:0:0:
480,224,181720,1,0,0:0:0:0:
480,224,181808,1,0,0:0:0:0:
480,224,181985,1,8,0:0:0:0:
480,224,182161,1,8,0:0:0:0:
480,224,182249,1,0,0:0:0:0:
480,224,182338,1,8,0:0:0:0:
480,224,182514,1,8,0:0:0:0:
480,224,182602,1,8,0:0:0:0:
480,224,182691,1,0,0:0:0:0:
480,224,182867,1,8,0:0:0:0:
480,224,183043,1,0,0:0:0:0:
480,224,183132,1,0,0:0:0:0:
480,224,183220,1,8,0:0:0:0:
480,224,183308,1,0,0:0:0:0:
480,224,183396,1,8,0:0:0:0:
480,224,183573,1,0,0:0:0:0:
480,224,183749,1,8,0:0:0:0:
480,224,183926,1,0,0:0:0:0:
480,224,184014,1,0,0:0:0:0:
480,224,184102,1,8,0:0:0:0:
480,224,184279,1,0,0:0:0:0:
480,224,184367,1,8,0:0:0:0:
480,224,184455,1,8,0:0:0:0:
480,224,184543,1,8,0:0:0:0:
480,224,184632,1,0,0:0:0:0:
480,224,184808,1,8,0:0:0:0:
480,224,184985,1,8,0:0:0:0:
480,224,185073,1,0,0:0:0:0:
480,224,185161,1,8,0:0:0:0:
480,224,185338,1,0,0:0:0:0:
480,224,185426,1,8,0:0:0:0:
480,224,185514,1,8,0:0:0:0:
480,224,185602,1,8,0:0:0:0:
480,224,185691,1,0,0:0:0:0:
480,224,185867,1,8,0:0:0:0:
480,224,185955,1,8,0:0:0:0:
480,224,186043,1,0,0:0:0:0:
480,224,186220,1,8,0:0:0:0:
480,224,186396,1,8,0:0:0:0:
480,224,186485,1,8,0:0:0:0:
480,224,186573,1,8,0:0:0:0:
480,224,186661,1,0,0:0:0:0:
480,224,186749,1,8,0:0:0:0:
480,224,186926,1,0,0:0:0:0:
480,224,187102,1,8,0:0:0:0:
480,224,187191,1,0,0:0:0:0:
480,224,187279,1,8,0:0:0:0:
480,224,187367,1,8,0:0:0:0:
480,224,187455,1,0,0:0:0:0:
480,224,187632,1,8,0:0:0:0:
480,224,187808,1,8,0:0:0:0:
480,224,187896,1,0,0:0:0:0:
480,224,187985,1,8,0:0:0:0:
480,224,188161,1,0,0:0:0:0:
480,224,188249,1,8,0:0:0:0:
480,224,188338,1,8,0:0:0:0:
480,224,188514,1,8,0:0:0:0:
480,224,188691,1,8,0:0:0:0:
480,224,188779,1,8,0:0:0:0:
480,224,188867,1,0,0:0:0:0:
480,224,188955,1,0,0:0:0:0:
480,224,189043,1,8,0:0:0:0:
480,224,189220,1,0,0:0:0:0:
480,224,189396,1,8,0:0:0:0:
480,224,189573,1,0,0:0:0:0:
480,224,189661,1,0,0:0:0:0:
480,224,189749,1,8,0:0:0:0:
480,224,189926,1,0,0:0:0:0:
480,224,190014,1,8,0:0:0:0:
480,224,190102,1,8,0:0:0:0:
480,224,190191,1,0,0:0:0:0:
480,224,190279,1,8,0:0:0:0:
480,224,190455,1,8,0:0:0:0:
480,224,190632,1,0,0:0:0:0:
480,224,190808,1,8,0:0:0:0:
480,224,190985,1,0,0:0:0:0:
480,224,191073,1,0,0:0:0:0:
480,224,191161,1,8,0:0:0:0:
480,224,191338,1,0,0:0:0:0:
480,224,191514,1,8,0:0:0:0:
480,224,191691,1,8,0:0:0:0:
480,224,191867,1,8,0:0:0:0:
480,224,192043,1,0,0:0:0:0:
480,224,192132,1,0,0:0:0:0:
480,224,192220,1,8,0:0:0:0:
480,224,192308,1,0,0:0:0:0:
480,224,192396,1,0,0:0:0:0:
480,224,192573,1,8,0:0:0:0:
480,224,192749,1,0,0:0:0:0:
480,224,192838,1,0,0:0:0:0:
480,224,192926,1,8,0:0:0:0:
480,224,193014,1,0,0:0:0:0:
480,224,193102,1,8,0:0:0:0:
480,224,193279,1,8,0:0:0:0:
480,224,193455,1,8,0:0:0:0:
480,224,193543,1,0,0:0:0:0:
480,224,193632,1,8,0:0:0:0:
480,224,193808,1,8,0:0:0:0:
480,224,193896,1,8,0:0:0:0:
480,224,193985,1,0,0:0:0:0:
480,224,194161,1,0,0:0:0:0:
480,224,194249,1,0,0:0:0:0:
480,224,194338,1,8,0:0:0:0:
480,224,194426,1,0,0:0:0:0:
480,224,194514,1,8,0:0:0:0:
480,224,194691,1,8,0:0:0:0:
480,224,194867,1,0,0:0:0:0:
480,224,195043,1,8,0:0:0:0:
480,224,195220,1,0,0:0:0:0:
480,224,195308,1,0,0:0:0:0:
480,224,195396,1,8,0:0:0:0:
480,224,195573,1,0,0:0:0:0:
480,224,195661,1,0,0:0:0:0:
480,224,195749,1,8,0:0:0:0:
480,224,195838,1,0,0:0:0:0:
480,224,195926,1,8,0:0:0:0:
480,224,196102,1,8,0:0:0:0:
480,224,196279,1,8,0:0:0:0:
480,224,196367,1,8,0:0:0:0:
480,224,196455,1,0,0:0:0:0:
480,224,196632,1,8,0:0:0:0:
480,224,196720,1,0,0:0:0:0:
480,224,196808,1,8,0:0:0:0:
480,224,196896,1,8,0:0:0:0:
480,224,196985,1,0,0:0:0:0:
480,224,197161,1,8,0:0:0:0:
480,224,197249,1,0,0:0:0:0:
480,224,197338,1,0,0:0:0:0:
480,224,197514,1,8,0:0:0:0:
480,224,197691,1,8,0:0:0:0:
480,224,197779,1,0,0:0:0:0:
480,224,197867,1,8,0:0:0:0:
480,224,197955,1,0,0:0:0:0:
480,224,198043,1,8,0:0:0:0:
480,224,198220,1,8,0:0:0:0:
480,224,198396,1,0,0:0:0:0:
480,224,198485,1,0,0:0:0:0:
480,224,198573,1,8,0:0:0:0:
480,224,198661,1,0,0:0:0:0:
480,224,198749,1,8,0:0:0:0:
480,224,198926,1,8,0:0:0:0:
480,224,199102,1,8,0:0:0:0:
480,224,199191,1,8,0:0:0:0:
480,224,199279,1,0,0:0:0:0:
480,224,199455,1,8,0:0:0:0:
480,224,199543,1,0,0:0:0:0:
480,224,199632,1,0,0:0:0:0:
480,224,199808,1,0,0:0:0:0:
480,224,199896,1,8,0:0:0:0:
480,224,199985,1,8,0:0:0:0:
480,224,200073,1,0,0:0:0:0:
480,224,200161,1,8,0:0:0:0:
480,224,200338,1,0,0:0:0:0:
480,224,200514,1,8,0:0:0:0:
480,224,200691,1,0,0:0:0:0:
480,224,200867,1,8,0:0:0:0:
480,224,200955,1,8,0:0:0:0:
480,224,201043,1,0,0:0:0:0:
480,224,201132,1,0,0:0:0:0:
480,224,201220,1,8,0:0:0:0:
480,224,201396,1,8,0:0:0:0:
480,224,201573,1,8,0:0:0:0:
480,224,201661,1,0,0:0:0:0:
480,224,201749,1,8,0:0:0:0:
480,224,201926,1,8,0:0:0:0:
480,224,202014,1,8,0:0:0:0:
480,224,202102,1,0,0:0:0:0:
480,224,202191,1,0,0:0:0:0:
480,224,202279,1,8,0:0:0:0:
480,224,202455,1,0,0:0:0:0:
480,224,202632,1,8,0:0:0:0:
480,224,202720,1,0,0:0:0:0:
480,224,202808,1,8,0:0:0:0:
480,224,202985,1,8,0:0:0:0:
480,224,203161,1,0,0:0:0:0:
480,224,203338,1,8,0:0:0:0:
480,224,203426,1,8,0:0:0:0:
480,224,203514,1,0,0:0:0:0:
480,224,203691,1,0,0:0:0:0:
480,224,203867,1,8,0:0:0:0:
480,224,204043,1,0,0:0:0:0:
480,224,204132,1,0,0:0:0:0:
480,224,204220,1,8,0:0:0:0:
480,224,204396,1,0,0:0:0:0:
480,224,204485,1,0,0:0:0:0:
480,224,204573,1,8,0:0:0:0:
480,224,204661,1,0,0:0:0:0:
480,224,204749,1,8,0:0:0:0:
480,224,204838,1,8,0:0:0:0:
480,224,204926,1,0,0:0:0:0:
480,224,205014,1,8,0:0:0:0:
480,224,205102,1,0,0:0:0:0:
480,224,205279,1,0,0:0:0:0:
480,224,205455,1,0,0:0:0:0:
480,224,205543,1,8,0:0:0:0:
480,224,205632,1,8,0:0:0:0:
480,224,205808,1,0,0:0:0:0:
480,224,205896,1,0,0:0:0:0:
480,224,205985,1,8,0:0:0:0:
480,224,206073,1,8,0:0:0:0:
480,224,206161,1,0,0:0:0:0:
480,224,206249,1,8,0:0:0:0:
480,224,206338,1,0,0:0:0:0:
480,224,206514,1,0,0:0:0:0:
480,224,206602,1,8,0:0:0:0:
480,224,206691,1,0,0:0:0:0:
480,224,206867,1,0,0:0:0:0:
480,224,206955,1,0,0:0:0:0:
480,224,207043,1,8,0:0:0:0:
480,224,207220,1,0,0:0:0:0:
480,224,207308,1,0,0:0:0:0:
480,224,207396,1,8,0:0:0:0:
480,224,207485,1,8,0:0:0:0:
480,224,207573,1,8,0:0:0:0:
480,224,207661,1,8,0:0:0:0:
480,224,207749,1,0,0:0:0:0:
480,224,207926,1,0,0:0:0:0:
480,224,208014,1,0,0:0:0:0:
480,224,208102,1,8,0:0:0:0:
480,224,208279,1,0,0:0:0:0:
480,224,208367,1,8,0:0:0:0:
480,224,208455,1,8,0:0:0:0:
480,224,208543,1,0,0:0:0:0:
480,224,208632,1,8,0:0:0:0:
480,224,208720,1,0,0:0:0:0:
480,224,208808,1,8,0:0:0:0:
480,224,208896,1,8,0:0:0:0:
480,224,208985,1,0,0:0:0:0:
480,224,209073,1,8,0:0:0:0:
480,224,209161,1,0,0:0:0:0:
480,224,209338,1,0,0:0:0:0:
480,224,209426,1,8,0:0:0:0:
480,224,209514,1,0,0:0:0:0:
480,224,209691,1,0,0:0:0:0:
480,224,209779,1,0,0:0:0:0:
480,224,209867,1,8,0:0:0:0:
480,224,210043,1,0,0:0:0:0:
480,224,210132,1,0,0:0:0:0:
480,224,210220,1,8,0:0:0:0:
480,224,210308,1,0,0:0:0:0:
480,224,210396,1,8,0:0:0:0:
480,224,210485,1,8,0:0:0:0:
480,224,210573,1,0,0:0:0:0:
480,224,210749,1,0,0:0:0:0:
480,224,210838,1,8,0:0:0:0:
480,224,210926,1,0,0:0:0:0:
480,224,211102,1,0,0:0:0:0:
480,224,211279,1,8,0:0:0:0:
480,224,211367,1,0,0:0:0:0:
480,224,211455,1,8,0:0:0:0:
480,224,211543,1,8,0:0:0:0:
480,224,211632,1,8,0:0:0:0:
480,224,211720,1,0,0:0:0:0:
480,224,211808,1,0,0:0:0:0:
480,224,211896,1,8,0:0:0:0:
480,224,211985,1,0,0:0:0:0:
480,224,212161,1,0,0:0:0:0:
480,224,212249,1,8,0:0:0:0:
480,224,212338,1,0,0:0:0:0:
480,224,212514,1,0,0:0:0:0:
480,224,212602,1,0,0:0:0:0:
480,224,212691,1,8,0:0:0:0:
480,224,212867,1,0,0:0:0:0:
480,224,212955,1,0,0:0:0:0:
480,224,213043,1,8,0:0:0:0:
480,224,213132,1,0,0:0:0:0:
480,224,213220,1,8,0:0:0:0:
480,224,213308,1,8,0:0:0:0:
480,224,213396,1,0,0:0:0:0:
480,224,213573,1,8,0:0:0:0:
480,224,213661,1,0,0:0:0:0:
480,224,213749,1,8,0:0:0:0:
480,224,213926,1,0,0:0:0:0:
480,224,214014,1,8,0:0:0:0:
480,224,214102,1,8,0:0:0:0:
480,160,214279,1,12,0:0:0:0:
480,160,214632,1,4,0:0:0:0:
480,224,214808,1,0,0:0:0:0:
480,224,214896,1,0,0:0:0:0:
480,224,214985,1,8,0:0:0:0:
480,224,215161,1,8,0:0:0:0:
480,224,215338,1,8,0:0:0:0:
480,224,215382,1,8,0:0:0:0:
480,224,215514,1,8,0:0:0:0:
480,224,215558,1,8,0:0:0:0:
480,224,215691,1,0,0:0:0:0:
480,224,215867,1,0,0:0:0:0:
480,224,215955,1,0,0:0:0:0:
480,224,216043,1,8,0:0:0:0:
480,224,216220,1,0,0:0:0:0:
480,224,216308,1,8,0:0:0:0:
480,224,216396,1,8,0:0:0:0:
480,224,216573,1,8,0:0:0:0:
480,224,216632,1,0,0:0:0:0:
480,224,216691,1,0,0:0:0:0:
480,224,216749,1,8,0:0:0:0:
480,224,216926,1,0,0:0:0:0:
480,224,216985,1,0,0:0:0:0:
480,224,217043,1,0,0:0:0:0:
480,224,217102,1,8,0:0:0:0:
480,224,217279,1,8,0:0:0:0:
480,224,217367,1,0,0:0:0:0:
480,160,217455,1,12,0:0:0:0:
480,224,217632,1,0,0:0:0:0:
480,224,217720,1,0,0:0:0:0:
480,224,217808,1,8,0:0:0:0:
480,224,217985,1,0,0:0:0:0:
480,224,218161,1,8,0:0:0:0:
480,224,218205,1,8,0:0:0:0:
480,224,218338,1,8,0:0:0:0:
480,224,218382,1,8,0:0:0:0:
480,224,218514,1,0,0:0:0:0:
480,224,218691,1,8,0:0:0:0:
480,224,218867,1,0,0:0:0:0:
480,224,219043,1,0,0:0:0:0:
480,224,219132,1,0,0:0:0:0:
480,224,219220,1,8,0:0:0:0:
480,224,219396,1,0,0:0:0:0:
480,224,219455,1,0,0:0:0:0:
480,224,219514,1,8,0:0:0:0:
480,224,219573,1,8,0:0:0:0:
480,224,219749,1,0,0:0:0:0:
480,224,219808,1,0,0:0:0:0:
480,224,219867,1,0,0:0:0:0:
480,224,219926,1,8,0:0:0:0:
480,224,220102,1,0,0:0:0:0:
480,160,220279,1,12,0:0:0:0:
480,224,220455,1,0,0:0:0:0:
480,224,220543,1,0,0:0:0:0:
480,224,220632,1,8,0:0:0:0:
480,224,220808,1,0,0:0:0:0:
480,224,220985,1,8,0:0:0:0:
480,224,221029,1,8,0:0:0:0:
480,224,221161,1,8,0:0:0:0:
480,224,221205,1,8,0:0:0:0:
480,224,221338,1,0,0:0:0:0:
480,224,221514,1,0,0:0:0:0:
480,224,221602,1,0,0:0:0:0:
480,224,221691,1,8,0:0:0:0:
480,224,221867,1,0,0:0:0:0:
480,224,221955,1,8,0:0:0:0:
480,224,222043,1,8,0:0:0:0:
480,224,222220,1,8,0:0:0:0:
480,224,222279,1,0,0:0:0:0:
480,224,222338,1,0,0:0:0:0:
480,224,222396,1,8,0:0:0:0:
480,224,222573,1,0,0:0:0:0:
480,224,222632,1,0,0:0:0:0:
480,224,222691,1,0,0:0:0:0:
480,224,222749,1,8,0:0:0:0:
480,224,222926,1,0,0:0:0:0:
480,160,223102,1,12,0:0:0:0:
480,224,223279,1,8,0:0:0:0:
480,224,223367,1,0,0:0:0:0:
480,224,223455,1,8,0:0:0:0:
480,224,223632,1,0,0:0:0:0:
480,224,223808,1,8,0:0:0:0:
480,224,223852,1,8,0:0:0:0:
480,224,223985,1,8,0:0:0:0:
480,224,224029,1,8,0:0:0:0:
480,224,224161,1,0,0:0:0:0:
480,224,224338,1,0,0:0:0:0:
480,224,224514,1,8,0:0:0:0:
480,224,224691,1,0,0:0:0:0:
480,224,224779,1,8,0:0:0:0:
480,224,224867,1,8,0:0:0:0:
480,224,225043,1,0,0:0:0:0:
480,224,225102,1,0,0:0:0:0:
480,224,225161,1,8,0:0:0:0:
480,224,225220,1,8,0:0:0:0:
480,224,225396,1,0,0:0:0:0:
480,224,225455,1,0,0:0:0:0:
480,224,225514,1,0,0:0:0:0:
480,224,225573,1,8,0:0:0:0:
480,224,225749,1,0,0:0:0:0:
480,160,225926,1,12,0:0:0:0:
480,224,226102,1,0,0:0:0:0:
480,224,226191,1,0,0:0:0:0:
480,224,226279,1,8,0:0:0:0:
480,224,226367,1,8,0:0:0:0:
480,224,226455,1,0,0:0:0:0:
480,224,226632,1,8,0:0:0:0:
480,224,226676,1,8,0:0:0:0:
480,224,226808,1,8,0:0:0:0:
480,224,226852,1,8,0:0:0:0:
480,224,226985,1,0,0:0:0:0:
480,224,227073,1,0,0:0:0:0:
480,224,227161,1,0,0:0:0:0:
480,224,227249,1,0,0:0:0:0:
480,224,227338,1,8,0:0:0:0:
480,224,227426,1,8,0:0:0:0:
480,224,227514,1,0,0:0:0:0:
480,224,227602,1,0,0:0:0:0:
480,224,227691,1,8,0:0:0:0:
480,224,227867,1,8,0:0:0:0:
480,224,227926,1,0,0:0:0:0:
480,224,227985,1,0,0:0:0:0:
480,224,228043,1,8,0:0:0:0:
480,224,228220,1,0,0:0:0:0:
480,224,228279,1,0,0:0:0:0:
480,224,228338,1,0,0:0:0:0:
480,224,228396,1,8,0:0:0:0:
480,224,228573,1,0,0:0:0:0:
480,224,228661,1,0,0:0:0:0:
480,160,228749,1,12,0:0:0:0:
480,224,228926,1,0,0:0:0:0:
480,224,229014,1,0,0:0:0:0:
480,224,229102,1,8,0:0:0:0:
480,224,229191,1,0,0:0:0:0:
480,224,229279,1,8,0:0:0:0:
480,224,229455,1,8,0:0:0:0:
480,224,229499,1,8,0:0:0:0:
480,224,229632,1,8,0:0:0:0:
480,224,229676,1,8,0:0:0:0:
480,224,229808,1,0,0:0:0:0:
480,224,229896,1,0,0:0:0:0:
480,224,229985,1,8,0:0:0:0:
480,224,230073,1,0,0:0:0:0:
480,224,230161,1,8,0:0:0:0:
480,224,230249,1,8,0:0:0:0:
480,224,230338,1,0,0:0:0:0:
480,224,230426,1,0,0:0:0:0:
480,224,230514,1,8,0:0:0:0:
480,224,230691,1,0,0:0:0:0:
480,224,230749,1,0,0:0:0:0:
480,224,230808,1,8,0:0:0:0:
480,224,230867,1,8,0:0:0:0:
480,224,231043,1,0,0:0:0:0:
480,224,231102,1,0,0:0:0:0:
480,224,231161,1,0,0:0:0:0:
480,224,231220,1,8,0:0:0:0:
480,224,231396,1,0,0:0:0:0:
480,160,231573,1,12,0:0:0:0:
480,224,231749,1,0,0:0:0:0:
480,224,231838,1,0,0:0:0:0:
480,224,231926,1,8,0:0:0:0:
480,224,232014,1,0,0:0:0:0:
480,224,232102,1,8,0:0:0:0:
480,224,232279,1,8,0:0:0:0:
480,224,232323,1,8,0:0:0:0:
480,224,232455,1,8,0:0:0:0:
480,224,232499,1,8,0:0:0:0:
480,224,232632,1,0,0:0:0:0:
480,224,232720,1,0,0:0:0:0:
480,224,232808,1,0,0:0:0:0:
480,224,232896,1,0,0:0:0:0:
480,224,232985,1,8,0:0:0:0:
480,224,233073,1,8,0:0:0:0:
480,224,233161,1,0,0:0:0:0:
480,224,233249,1,0,0:0:0:0:
480,224,233338,1,8,0:0:0:0:
480,224,233514,1,8,0:0:0:0:
480,224,233573,1,0,0:0:0:0:
480,224,233632,1,0,0:0:0:0:
480,224,233691,1,8,0:0:0:0:
480,224,233867,1,0,0:0:0:0:
480,224,233926,1,0,0:0:0:0:
480,224,233985,1,0,0:0:0:0:
480,224,234043,1,8,0:0:0:0:
480,224,234220,1,0,0:0:0:0:
480,224,234308,1,0,0:0:0:0:
480,160,234396,1,12,0:0:0:0:
480,224,234573,1,0,0:0:0:0:
480,224,234661,1,0,0:0:0:0:
480,224,234749,1,8,0:0:0:0:
480,224,234838,1,8,0:0:0:0:
480,224,234926,1,8,0:0:0:0:
480,224,235102,1,8,0:0:0:0:
480,224,235146,1,8,0:0:0:0:
480,224,235279,1,8,0:0:0:0:
480,224,235323,1,8,0:0:0:0:
480,224,235455,1,0,0:0:0:0:
480,224,235543,1,0,0:0:0:0:
480,224,235632,1,8,0:0:0:0:
480,224,235720,1,0,0:0:0:0:
480,224,235808,1,8,0:0:0:0:
480,224,235896,1,8,0:0:0:0:
480,224,235985,1,0,0:0:0:0:
480,224,236073,1,0,0:0:0:0:
480,224,236161,1,8,0:0:0:0:
480,224,236338,1,0,0:0:0:0:
480,224,236396,1,0,0:0:0:0:
480,224,236455,1,8,0:0:0:0:
480,224,236514,1,8,0:0:0:0:
480,224,236691,1,0,0:0:0:0:
480,224,236749,1,0,0:0:0:0:
480,224,236808,1,0,0:0:0:0:
480,224,236867,1,8,0:0:0:0:
480,224,237043,1,0,0:0:0:0:
480,224,237220,1,8,0:0:0:0:
480,224,237396,1,8,0:0:0:0:
480,224,237749,1,0,0:0:0:0:
480,224,237926,1,0,0:0:0:0:
480,224,238102,1,0,0:0:0:0:
480,224,238279,1,0,0:0:0:0:
480,224,238455,1,0,0:0:0:0:
480,224,238632,1,8,0:0:0:0:
480,224,238808,1,8,0:0:0:0:
480,224,239161,1,8,0:0:0:0:
480,224,239338,1,8,0:0:0:0:
480,224,239514,1,0,0:0:0:0:
480,224,239691,1,8,0:0:0:0:
480,224,239867,1,8,0:0:0:0:
480,224,240043,1,0,0:0:0:0:
480,224,240220,1,0,0:0:0:0:
480,224,240573,1,0,0:0:0:0:
480,224,240749,1,0,0:0:0:0:
480,224,240926,1,0,0:0:0:0:
480,224,241102,1,0,0:0:0:0:
480,224,241279,1,0,0:0:0:0:
480,224,241455,1,8,0:0:0:0:
480,224,241632,1,8,0:0:0:0:
480,224,241985,1,8,0:0:0:0:
480,224,242161,1,8,0:0:0:0:
480,224,242338,1,8,0:0:0:0:
480,224,242514,1,0,0:0:0:0:
480,224,242691,1,0,0:0:0:0:
480,224,242867,1,8,0:0:0:0:
480,224,243043,1,8,0:0:0:0:
480,224,243396,1,8,0:0:0:0:
480,224,243573,1,8,0:0:0:0:
480,224,243749,1,8,0:0:0:0:
480,224,243926,1,0,0:0:0:0:
480,224,244102,1,8,0:0:0:0:
480,224,244279,1,0,0:0:0:0:
480,224,244455,1,0,0:0:0:0:
480,224,244808,1,0,0:0:0:0:
480,224,244985,1,0,0:0:0:0:
480,224,245162,1,0,0:0:0:0:
480,224,245338,1,8,0:0:0:0:
480,224,245514,1,8,0:0:0:0:
480,224,245691,1,0,0:0:0:0:
480,224,245867,1,0,0:0:0:0:
480,224,246220,1,8,0:0:0:0:
480,224,246396,1,8,0:0:0:0:
480,224,246573,1,8,0:0:0:0:
480,224,246749,1,0,0:0:0:0:
480,224,246926,1,8,0:0:0:0:
480,224,247102,1,0,0:0:0:0:
480,224,247279,1,0,0:0:0:0:
480,224,247632,1,0,0:0:0:0:
480,224,247808,1,0,0:0:0:0:
480,224,247985,1,0,0:0:0:0:
480,224,248161,1,0,0:0:0:0:
480,224,248338,1,0,0:0:0:0:
480,224,248514,1,0,0:0:0:0:
480,224,248691,1,8,0:0:0:0:
480,224,248867,1,0,0:0:0:0:
480,224,248955,1,0,0:0:0:0:
480,224,249043,1,0,0:0:0:0:
480,224,249220,1,8,0:0:0:0:
480,224,249396,1,8,0:0:0:0:
480,224,249573,1,0,0:0:0:0:
480,224,249749,1,8,0:0:0:0:
480,224,249926,1,0,0:0:0:0:
480,224,250102,1,8,0:0:0:0:
480,224,250279,1,0,0:0:0:0:
480,224,250367,1,0,0:0:0:0:
480,224,250455,1,8,0:0:0:0:
480,224,250632,1,8,0:0:0:0:
480,224,250808,1,8,0:0:0:0:
480,224,250985,1,0,0:0:0:0:
480,224,251161,1,8,0:0:0:0:
480,224,251338,1,0,0:0:0:0:
480,224,251514,1,0,0:0:0:0:
480,224,251691,1,0,0:0:0:0:
480,224,251779,1,0,0:0:0:0:
480,224,251867,1,8,0:0:0:0:
480,224,252043,1,0,0:0:0:0:
480,224,252220,1,8,0:0:0:0:
480,224,252396,1,8,0:0:0:0:
480,224,252573,1,8,0:0:0:0:
480,224,252749,1,0,0:0:0:0:
480,224,252926,1,8,0:0:0:0:
480,224,253102,1,0,0:0:0:0:
480,224,253191,1,0,0:0:0:0:
480,224,253279,1,8,0:0:0:0:
480,224,253455,1,8,0:0:0:0:
480,224,253632,1,0,0:0:0:0:
480,224,253808,1,8,0:0:0:0:
480,224,253985,1,8,0:0:0:0:
480,224,254161,1,8,0:0:0:0:
480,224,254337,1,8,0:0:0:0:
480,224,254514,1,0,0:0:0:0:
480,224,254602,1,8,0:0:0:0:
480,224,254691,1,8,0:0:0:0:
480,224,254867,1,8,0:0:0:0:
480,224,255043,1,0,0:0:0:0:
480,224,255220,1,8,0:0:0:0:
480,224,255396,1,8,0:0:0:0:
480,224,255573,1,0,0:0:0:0:
480,224,255749,1,0,0:0:0:0:
480,224,255926,1,0,0:0:0:0:
480,224,256014,1,8,0:0:0:0:
480,224,256102,1,8,0:0:0:0:
480,224,256279,1,8,0:0:0:0:
480,224,256455,1,0,0:0:0:0:
480,224,256631,1,0,0:0:0:0:
480,224,256808,1,8,0:0:0:0:
480,224,256984,1,0,0:0:0:0:
480,224,257161,1,0,0:0:0:0:
480,224,257337,1,0,0:0:0:0:
480,224,257426,1,0,0:0:0:0:
480,224,257514,1,8,0:0:0:0:
480,224,257690,1,8,0:0:0:0:
480,224,257867,1,8,0:0:0:0:
480,224,258043,1,0,0:0:0:0:
480,224,258220,1,8,0:0:0:0:
480,224,258396,1,0,0:0:0:0:
480,224,258573,1,0,0:0:0:0:
480,224,258749,1,8,0:0:0:0:
480,224,258838,1,0,0:0:0:0:
480,224,258926,1,8,0:0:0:0:
480,224,259102,1,0,0:0:0:0:
480,224,259279,1,0,0:0:0:0:
480,224,259455,1,8,0:0:0:0:
480,224,259632,1,8,0:0:0:0:
480,224,259808,1,0,0:0:0:0:
480,224,259985,1,8,0:0:0:0:
480,224,260073,1,8,0:0:0:0:
480,224,260161,1,0,0:0:0:0:
480,224,260338,1,0,0:0:0:0:
480,224,260514,1,8,0:0:0:0:
480,224,260602,1,0,0:0:0:0:
480,224,260691,1,8,0:0:0:0:
480,224,260779,1,8,0:0:0:0:
480,224,260867,1,0,0:0:0:0:
480,224,261043,1,0,0:0:0:0:
480,224,261220,1,8,0:0:0:0:
480,224,261396,1,8,0:0:0:0:
480,224,261485,1,8,0:0:0:0:
480,224,261573,1,0,0:0:0:0:
480,224,261749,1,0,0:0:0:0:
480,224,261926,1,8,0:0:0:0:
480,224,262014,1,8,0:0:0:0:
480,224,262102,1,0,0:0:0:0:
480,224,262191,1,0,0:0:0:0:
480,224,262279,1,8,0:0:0:0:
480,224,262455,1,8,0:0:0:0:
480,224,262632,1,0,0:0:0:0:
480,224,262808,1,0,0:0:0:0:
480,224,262896,1,0,0:0:0:0:
480,224,262985,1,8,0:0:0:0:
480,224,263161,1,0,0:0:0:0:
480,224,263338,1,8,0:0:0:0:
480,224,263426,1,0,0:0:0:0:
480,224,263514,1,0,0:0:0:0:
480,224,263602,1,0,0:0:0:0:
480,224,263691,1,8,0:0:0:0:
480,224,263867,1,0,0:0:0:0:
480,224,264043,1,8,0:0:0:0:
480,224,264220,1,8,0:0:0:0:
480,224,264308,1,8,0:0:0:0:
480,224,264396,1,0,0:0:0:0:
480,224,264573,1,0,0:0:0:0:
480,224,264749,1,8,0:0:0:0:
480,224,264838,1,8,0:0:0:0:
480,224,264926,1,0,0:0:0:0:
480,224,265102,1,8,0:0:0:0:
480,224,265191,1,8,0:0:0:0:
480,224,265279,1,8,0:0:0:0:
480,224,265367,1,0,0:0:0:0:
480,224,265455,1,8,0:0:0:0:
480,224,265632,1,8,0:0:0:0:
480,224,265720,1,8,0:0:0:0:
480,224,265808,1,0,0:0:0:0:
480,224,265985,1,8,0:0:0:0:
480,224,266161,1,8,0:0:0:0:
480,224,266249,1,8,0:0:0:0:
480,224,266338,1,0,0:0:0:0:
480,224,266426,1,8,0:0:0:0:
480,224,266514,1,0,0:0:0:0:
480,224,266691,1,8,0:0:0:0:
480,224,266867,1,8,0:0:0:0:
480,224,267043,1,8,0:0:0:0:
480,224,267132,1,8,0:0:0:0:
480,224,267220,1,0,0:0:0:0:
480,224,267396,1,0,0:0:0:0:
480,224,267573,1,8,0:0:0:0:
480,224,267661,1,8,0:0:0:0:
480,224,267749,1,0,0:0:0:0:
480,224,267838,1,0,0:0:0:0:
480,224,267926,1,8,0:0:0:0:
480,224,268102,1,0,0:0:0:0:
480,224,268279,1,0,0:0:0:0:
480,224,268455,1,8,0:0:0:0:
480,224,268543,1,8,0:0:0:0:
480,224,268632,1,0,0:0:0:0:
480,224,268808,1,8,0:0:0:0:
480,224,268985,1,8,0:0:0:0:
480,224,269073,1,0,0:0:0:0:
480,224,269161,1,0,0:0:0:0:
480,224,269249,1,0,0:0:0:0:
480,224,269338,1,8,0:0:0:0:
480,224,269514,1,8,0:0:0:0:
480,224,269691,1,8,0:0:0:0:
480,224,269867,1,0,0:0:0:0:
480,224,269955,1,0,0:0:0:0:
480,224,270043,1,8,0:0:0:0:
480,224,270220,1,0,0:0:0:0:
480,224,270396,1,8,0:0:0:0:
480,224,270485,1,8,0:0:0:0:
480,224,270573,1,0,0:0:0:0:
480,224,270661,1,0,0:0:0:0:
480,224,270749,1,8,0:0:0:0:
480,224,270926,1,0,0:0:0:0:
480,224,271102,1,0,0:0:0:0:
480,224,271279,1,8,0:0:0:0:
480,224,271455,1,8,0:0:0:0:
480,224,271543,1,8,0:0:0:0:
480,224,271632,1,0,0:0:0:0:
480,224,271808,1,8,0:0:0:0:
480,224,271896,1,8,0:0:0:0:
480,224,271985,1,0,0:0:0:0:
480,224,272073,1,0,0:0:0:0:
480,224,272161,1,8,0:0:0:0:
480,224,272338,1,0,0:0:0:0:
480,224,272514,1,8,0:0:0:0:
480,224,272602,1,0,0:0:0:0:
480,224,272691,1,8,0:0:0:0:
480,224,272867,1,8,0:0:0:0:
480,224,272955,1,8,0:0:0:0:
480,224,273043,1,0,0:0:0:0:
480,224,273220,1,0,0:0:0:0:
480,224,273308,1,0,0:0:0:0:
480,224,273396,1,8,0:0:0:0:
480,224,273485,1,0,0:0:0:0:
480,224,273573,1,8,0:0:0:0:
480,224,273749,1,0,0:0:0:0:
480,224,273926,1,8,0:0:0:0:
480,224,274102,1,0,0:0:0:0:
480,224,274279,1,8,0:0:0:0:
480,224,274367,1,8,0:0:0:0:
480,224,274455,1,0,0:0:0:0:
480,224,274632,1,8,0:0:0:0:
480,224,274720,1,0,0:0:0:0:
480,224,274808,1,0,0:0:0:0:
480,224,274896,1,0,0:0:0:0:
480,224,274985,1,8,0:0:0:0:
480,224,275161,1,0,0:0:0:0:
480,224,275338,1,8,0:0:0:0:
480,224,275426,1,0,0:0:0:0:
480,224,275514,1,8,0:0:0:0:
480,224,275691,1,0,0:0:0:0:
480,224,275779,1,0,0:0:0:0:
480,224,275867,1,8,0:0:0:0:
480,224,276043,1,8,0:0:0:0:
480,224,276132,1,8,0:0:0:0:
480,224,276220,1,0,0:0:0:0:
480,224,276308,1,0,0:0:0:0:
480,224,276396,1,8,0:0:0:0:
480,224,276573,1,0,0:0:0:0:
480,224,276749,1,8,0:0:0:0:
480,224,276926,1,8,0:0:0:0:
480,224,277102,1,8,0:0:0:0:
480,224,277191,1,8,0:0:0:0:
480,224,277279,1,0,0:0:0:0:
480,224,277455,1,8,0:0:0:0:
480,224,277543,1,8,0:0:0:0:
480,224,277632,1,8,0:0:0:0:
480,224,277720,1,0,0:0:0:0:
480,224,277808,1,8,0:0:0:0:
480,224,277985,1,0,0:0:0:0:
480,224,278161,1,8,0:0:0:0:
480,224,278249,1,0,0:0:0:0:
480,224,278338,1,8,0:0:0:0:
480,224,278514,1,8,0:0:0:0:
480,224,278602,1,8,0:0:0:0:
480,224,278691,1,0,0:0:0:0:
480,224,278867,1,0,0:0:0:0:
480,224,278955,1,0,0:0:0:0:
480,224,279043,1,8,0:0:0:0:
480,224,279132,1,0,0:0:0:0:
480,224,279220,1,8,0:0:0:0:
480,224,279396,1,0,0:0:0:0:
480,224,279573,1,0,0:0:0:0:
480,224,279749,1,8,0:0:0:0:
480,224,279926,1,0,0:0:0:0:
480,224,280014,1,0,0:0:0:0:
480,224,280102,1,8,0:0:0:0:
480,224,280279,1,0,0:0:0:0:
480,224,280367,1,0,0:0:0:0:
480,224,280455,1,8,0:0:0:0:
480,224,280543,1,8,0:0:0:0:
480,224,280632,1,8,0:0:0:0:
480,224,280808,1,0,0:0:0:0:
480,224,280985,1,8,0:0:0:0:
480,224,281161,1,8,0:0:0:0:
480,224,281338,1,8,0:0:0:0:
480,224,281426,1,8,0:0:0:0:
480,224,281514,1,0,0:0:0:0:
480,224,281691,1,8,0:0:0:0:
480,224,281867,1,8,0:0:0:0:
480,224,281955,1,8,0:0:0:0:
480,224,282043,1,0,0:0:0:0:
480,224,282220,1,0,0:0:0:0:
480,224,282396,1,0,0:0:0:0:
480,224,282573,1,8,0:0:0:0:
480,224,282749,1,8,0:0:0:0:
480,224,282926,1,0,0:0:0:0:
480,224,283102,1,0,0:0:0:0:
480,224,283455,1,8,0:0:0:0:
480,224,283808,1,0,0:0:0:0:
480,224,283985,1,8,0:0:0:0:
480,224,284161,1,8,0:0:0:0:
480,224,284338,1,8,0:0:0:0:
480,224,284514,1,0,0:0:0:0:
480,224,284867,1,8,0:0:0:0:
480,224,285043,1,8,0:0:0:0:
480,224,285132,1,8,0:0:0:0:
480,224,285220,1,0,0:0:0:0:
480,224,285396,1,0,0:0:0:0:
480,224,285573,1,8,0:0:0:0:
480,224,285749,1,0,0:0:0:0:
480,224,285926,1,0,0:0:0:0:
480,224,286279,1,8,0:0:0:0:
480,224,286632,1,0,0:0:0:0:
480,224,286808,1,8,0:0:0:0:
480,224,286985,1,8,0:0:0:0:
480,224,287161,1,0,0:0:0:0:
480,224,287338,1,0,0:0:0:0:
480,224,287691,1,8,0:0:0:0:
480,224,287867,1,0,0:0:0:0:
480,224,287955,1,8,0:0:0:0:
480,224,288043,1,0,0:0:0:0:
480,224,288220,1,0,0:0:0:0:
480,224,288396,1,8,0:0:0:0:
480,224,288573,1,8,0:0:0:0:
480,224,288749,1,0,0:0:0:0:
480,224,289102,1,8,0:0:0:0:
480,224,289455,1,0,0:0:0:0:
480,224,289632,1,8,0:0:0:0:
480,224,289808,1,8,0:0:0:0:
480,224,289985,1,8,0:0:0:0:
480,224,290161,1,0,0:0:0:0:
480,224,290514,1,0,0:0:0:0:
480,224,290691,1,8,0:0:0:0:
480,224,290779,1,0,0:0:0:0:
480,224,290867,1,0,0:0:0:0:
480,224,291043,1,8,0:0:0:0:
480,224,291220,1,8,0:0:0:0:
480,224,291396,1,0,0:0:0:0:
480,224,291573,1,0,0:0:0:0:
480,224,291926,1,8,0:0:0:0:
480,224,292279,1,0,0:0:0:0:
480,224,292455,1,0,0:0:0:0:
480,224,292632,1,8,0:0:0:0:
480,224,292808,1,8,0:0:0:0:
480,224,292985,1,0,0:0:0:0:
480,224,293338,1,8,0:0:0:0:
480,224,293691,1,0,0:0:0:0:
480,224,293867,1,0,0:0:0:0:
480,224,294043,1,8,0:0:0:0:
480,224,294220,1,0,0:0:0:0:
480,224,294396,1,0,0:0:0:0:
480,224,294749,1,8,0:0:0:0:
480,224,295102,1,0,0:0:0:0:
480,224,295455,1,8,0:0:0:0:
480,224,295632,1,8,0:0:0:0:
480,224,295808,1,0,0:0:0:0:
480,224,296161,1,8,0:0:0:0:
480,224,296514,1,0,0:0:0:0:
480,224,296691,1,8,0:0:0:0:
480,224,296867,1,8,0:0:0:0:
480,224,297043,1,8,0:0:0:0:
480,224,297220,1,0,0:0:0:0:
480,224,297573,1,8,0:0:0:0:
480,224,297926,1,0,0:0:0:0:
480,224,298102,1,0,0:0:0:0:
480,224,298279,1,8,0:0:0:0:
480,224,298632,1,0,0:0:0:0:
480,224,298985,1,8,0:0:0:0:
480,224,299338,1,0,0:0:0:0:
480,224,299514,1,0,0:0:0:0:
480,224,299691,1,8,0:0:0:0:
480,224,299867,1,8,0:0:0:0:
480,224,300043,1,0,0:0:0:0:
480,224,300396,1,8,0:0:0:0:
480,224,300749,1,0,0:0:0:0:
480,224,301102,1,8,0:0:0:0:
480,224,301279,1,0,0:0:0:0:
480,224,301455,1,0,0:0:0:0:
480,224,301808,1,8,0:0:0:0:
480,224,302161,1,0,0:0:0:0:
480,224,302338,1,0,0:0:0:0:
480,224,302514,1,8,0:0:0:0:
480,224,302691,1,0,0:0:0:0:
480,224,302867,1,0,0:0:0:0:
480,224,303220,1,8,0:0:0:0:
480,224,303573,1,0,0:0:0:0:
480,224,303749,1,0,0:0:0:0:
480,224,303926,1,8,0:0:0:0:
480,224,304279,1,0,0:0:0:0:
480,224,304455,1,0,0:0:0:0:
480,224,304632,1,8,0:0:0:0:
480,224,304808,1,8,0:0:0:0:
480,224,304985,1,0,0:0:0:0:
