osu file format v14

[General]
AudioFilename: ELECTRIC DREEEEAM.mp3
AudioLeadIn: 0
PreviewTime: 222340
Countdown: 0
SampleSet: Normal
StackLeniency: 0.7
Mode: 0
LetterboxInBreaks: 0
WidescreenStoryboard: 0

[Editor]
Bookmarks: 10673,32004,53341,74671,96004,138671,181338,202671,245338,288004,309338,330671
DistanceSpacing: 0.2
BeatDivisor: 4
GridSize: 4
TimelineZoom: 1.300001

[Metadata]
Title:Electric Dream
TitleUnicode:Electric Dream
Artist:Shapeshifter
ArtistUnicode:Shapeshifter
Creator:Secretpipe
Version:YOU SHINE SO BRIGHT
Source:
Tags:collab drum and bass dnb (:
BeatmapID:1537517
BeatmapSetID:728243

[Difficulty]
HPDrainRate:7
CircleSize:4.5
OverallDifficulty:8
ApproachRate:9.2
SliderMultiplier:1.4
SliderTickRate:1

[Events]
//Background and Video events
0,0,"893562.jpg",0,0
//Break Periods
//Storyboard Layer 0 (Background)
//Storyboard Layer 1 (Fail)
//Storyboard Layer 2 (Pass)
//Storyboard Layer 3 (Foreground)
//Storyboard Sound Samples

[TimingPoints]
7,333.333333333333,4,1,0,40,1,0
7.95849519452138,-100,4,1,0,40,0,0
10673,-83.3333333333333,4,1,0,40,0,0
32006,-76.9230769230769,4,1,0,40,0,0
57423,-76.9230769230769,4,1,0,5,0,0
57506,-76.9230769230769,4,1,0,40,0,0
57756,-76.9230769230769,4,1,0,5,0,0
57840,-76.9230769230769,4,1,0,40,0,0
74673,-86.9565217391304,4,1,0,40,0,0

[HitObjects]
77,57,7,6,0,P|66:91|76:124,2,70
146,183,507,2,0,P|156:216|143:248,2,70
29,324,1006,2,0,L|112:311,2,70
142,248,1506,2,0,L|219:254,2,70
291,344,2006,2,0,P|295:303|269:270,1,70
187,168,2340,1,0,0:0:0:0:
270,39,2506,6,0,L|257:118,2,70
334,231,3006,2,0,L|318:148,2,70
172,330,3506,2,0,L|188:241,2,70
122,208,4006,1,0,0:0:0:0:
168,65,4173,2,0,L|179:150,1,70
276,231,4506,6,0,P|243:240|191:220,2,70
407,160,5006,2,0,P|367:154|328:175,2,70
472,290,5506,2,0,B|480:263|480:263|465:209,2,70
349,355,6006,2,0,B|341:328|341:328|356:274,2,70
196,197,6506,1,0,0:0:0:0:
162,269,6673,1,0,0:0:0:0:
293,212,6840,1,0,0:0:0:0:
104,107,7006,6,0,L|118:198,2,70
12,258,7506,2,0,P|57:271|92:252,1,70
45,180,7840,1,0,0:0:0:0:
227,265,8006,2,0,P|177:275|147:256,1,70
196,197,8340,1,0,0:0:0:0:
332,315,8506,6,0,L|311:225,2,70
381,190,9006,2,0,L|399:116,2,70
314,92,9506,2,0,L|298:8,2,70
369,259,10006,2,0,L|383:174,2,70
469,131,10506,1,0,0:0:0:0:
239,36,10673,6,0,P|208:94|237:158,1,125.999996154785
250,177,11006,2,0,P|258:215|235:266,2,83.9999974365235
166,306,11506,1,0,0:0:0:0:
304,117,11673,1,0,0:0:0:0:
368,258,11840,6,0,L|386:341,1,83.9999974365235
439,185,12173,1,0,0:0:0:0:
318,17,12340,2,0,L|298:116,1,83.9999974365235
368,258,12673,1,0,0:0:0:0:
440,65,12839,1,0,0:0:0:0:
185,103,13006,2,0,L|173:58,1,41.9999987182618
140,171,13173,2,0,L|130:217,1,41.9999987182618
78,338,13340,6,0,P|62:278|97:229,1,125.999996154785
131,212,13673,2,0,L|217:227,2,83.9999974365235
270,153,14173,1,0,0:0:0:0:
369,349,14340,1,0,0:0:0:0:
443,186,14506,6,0,B|452:220|452:220|441:271,2,83.9999974365235
220,33,15006,2,0,B|201:66|201:66|209:115,1,83.9999974365235
295,312,15340,2,0,P|246:298|177:336,1,125.999996154785
159,360,15673,2,0,P|121:367|73:347,1,83.9999974365235
256,213,16006,5,0,0:0:0:0:
185,103,16173,1,0,0:0:0:0:
29,267,16340,2,0,L|129:251,2,83.9999974365235
241,372,16840,1,0,0:0:0:0:
348,141,17006,1,0,0:0:0:0:
198,263,17173,6,0,P|180:223|192:179,1,83.9999974365235
154,332,17506,1,0,0:0:0:0:
423,157,17673,2,0,P|420:112|392:77,1,83.9999974365235
325,259,18006,1,0,0:0:0:0:
506,145,18173,1,0,0:0:0:0:
256,49,18340,2,0,P|265:76|264:102,1,41.9999987182618
217,203,18506,2,0,P|218:181|224:154,1,41.9999987182618
248,281,18673,5,0,0:0:0:0:
326,169,18840,1,0,0:0:0:0:
152,348,19006,2,0,L|136:252,2,83.9999974365235
66,192,19506,1,0,0:0:0:0:
291,277,19673,1,0,0:0:0:0:
208,131,19840,2,0,P|194:86|205:50,1,83.9999974365235
160,196,20173,1,0,0:0:0:0:
390,334,20340,2,0,L|376:241,1,83.9999974365235
378,22,20673,2,0,B|417:72|417:72|396:196,1,167.999994873047
399,175,21340,6,0,P|443:185|486:163,1,83.9999974365235
273,64,21673,2,0,L|294:161,2,83.9999974365235
349,218,22173,1,0,0:0:0:0:
121,143,22340,1,0,0:0:0:0:
273,64,22506,2,0,L|254:201,1,125.999996154785
228,216,22840,1,0,0:0:0:0:
389,27,23006,2,0,L|403:130,2,83.9999974365235
453,168,23506,1,0,0:0:0:0:
282,272,23673,2,0,L|226:264,1,41.9999987182618
351,321,23840,2,0,L|405:311,1,41.9999987182618
271,357,24006,6,0,L|166:342,1,83.9999974365235
443,246,24340,2,0,P|462:202|444:156,2,83.9999974365235
381,106,24840,1,0,0:0:0:0:
200,271,25006,1,0,0:0:0:0:
165,52,25173,2,0,L|151:144,1,83.9999974365235
200,271,25506,1,0,0:0:0:0:
61,16,25673,2,0,L|77:98,1,83.9999974365235
104,332,26006,2,0,P|110:271|211:293,1,167.999994873047
199,270,26673,6,0,L|180:143,1,125.999996154785
195,110,27006,1,0,0:0:0:0:
311,28,27173,2,0,L|299:117,1,83.9999974365235
373,290,27506,1,0,0:0:0:0:
491,127,27673,1,0,0:0:0:0:
281,255,27840,6,0,L|259:173,1,83.9999974365235
316,338,28173,1,0,0:0:0:0:
96,193,28340,2,0,P|93:146|119:103,1,83.9999974365235
169,335,28673,1,0,0:0:0:0:
256,109,28840,1,0,0:0:0:0:
308,273,29006,2,0,L|262:286,1,41.9999987182618
152,263,29173,2,0,P|182:261|217:277,1,41.9999987182618
86,308,29340,5,0,0:0:0:0:
151,185,29506,2,0,L|129:99,2,83.9999974365235
175,349,30006,1,0,0:0:0:0:
60,227,30173,1,0,0:0:0:0:
233,48,30340,1,0,0:0:0:0:
205,240,30506,2,0,P|183:202|188:155,1,83.9999974365235
269,282,30840,1,0,0:0:0:0:
443,145,31006,2,0,P|465:107|460:60,1,83.9999974365235
379,187,31340,5,0,0:0:0:0:
352,174,31423,1,0,0:0:0:0:
323,167,31506,1,0,0:0:0:0:
293,169,31590,1,0,0:0:0:0:
268,184,31673,1,0,0:0:0:0:
242,197,31756,1,0,0:0:0:0:
212,199,31840,1,0,0:0:0:0:
183,194,31923,1,0,0:0:0:0:
154,179,32006,6,0,P|151:134|172:94,1,90.9999958343508
320,252,32340,2,0,P|323:296|302:336,1,90.9999958343508
104,276,32673,2,0,L|164:256,1,45.4999979171754
236,276,32840,1,0,0:0:0:0:
379,187,33006,1,0,0:0:0:0:
220,124,33173,6,0,P|196:84|201:28,1,90.9999958343508
154,179,33506,1,0,0:0:0:0:
444,132,33673,2,0,P|464:180|452:236,1,90.9999958343508
372,320,34006,1,0,0:0:0:0:
504,332,34173,1,0,0:0:0:0:
379,187,34340,2,0,P|345:184|314:199,1,45.4999979171754
221,222,34506,2,0,P|245:231|272:229,1,45.4999979171754
144,176,34673,6,0,B|98:162|59:197|59:197|66:244|144:248,1,181.999991668702
168,88,35173,1,0,0:0:0:0:
328,220,35340,2,0,P|348:176|338:117,1,90.9999958343508
240,336,35673,1,0,0:0:0:0:
436,336,35840,6,0,B|408:312|408:312|340:296,1,90.9999958343508
152,352,36173,2,0,B|102:358|102:358|42:339,2,90.9999958343508
200,128,36673,2,0,P|176:192|204:268,1,136.499993751526
215,288,37006,2,0,P|239:336|235:380,1,90.9999958343508
288,196,37340,6,0,P|360:200|392:216,1,90.9999958343508
512,108,37673,2,0,P|466:110|423:97,1,90.9999958343508
248,0,38006,1,0,0:0:0:0:
368,12,38173,1,0,0:0:0:0:
152,136,38340,2,0,L|104:84,1,45.4999979171754
48,10,38506,6,0,P|124:14|92:114,1,181.999991668702
32,284,39006,2,0,P|84:312|140:308,1,90.9999958343508
308,248,39340,1,0,0:0:0:0:
276,380,39506,1,0,0:0:0:0:
208,144,39673,2,0,L|188:92,1,45.4999979171754
267,30,39840,2,0,L|264:76,1,45.4999979171754
320,140,40006,6,0,P|359:115|461:132,1,136.499993751526
480,144,40340,2,0,B|472:196|472:196|480:240,1,90.9999958343508
404,384,40673,2,0,B|412:332|412:332|404:288,1,90.9999958343508
356,80,41006,1,0,0:0:0:0:
204,144,41173,6,0,P|152:144|112:120,2,90.9999958343508
16,0,41673,2,0,B|8:52|8:52|28:104,1,90.9999958343508
152,240,42006,1,0,0:0:0:0:
180,64,42173,1,0,0:0:0:0:
68,280,42340,2,0,P|128:328|216:308,1,136.499993751526
220,316,42673,6,0,B|265:296|322:310|322:310|293:347,1,136.499993751526
290,360,43006,1,0,0:0:0:0:
324,200,43173,1,0,0:0:0:0:
492,268,43340,2,0,L|508:212,1,45.4999979171754
468,156,43506,2,0,L|452:100,1,45.4999979171754
420,0,43673,1,0,0:0:0:0:
284,120,43840,6,0,P|336:112|390:140,1,90.9999958343508
276,32,44173,1,0,0:0:0:0:
140,208,44340,2,0,P|108:144|128:68,1,136.499993751526
136,44,44673,1,0,0:0:0:0:
24,144,44840,1,0,0:0:0:0:
164,232,45006,2,0,P|195:232|235:244,1,45.4999979171754
324,272,45173,2,0,P|293:279|252:280,1,45.4999979171754
396,231,45340,6,0,B|434:201|434:201|499:196,1,90.9999958343508
296,364,45673,2,0,B|244:360|244:360|196:324,1,90.9999958343508
316,195,46006,2,0,B|329:127|329:127|320:100,1,90.9999958343508
155,238,46340,1,0,0:0:0:0:
222,68,46506,6,0,B|231:101|231:101|222:173,1,90.9999958343508
184,313,46840,1,0,0:0:0:0:
64,111,47006,2,0,B|115:103|115:103|162:111,1,90.9999958343508
342,205,47340,2,0,P|419:158|385:84,1,181.999991668702
298,29,48006,6,0,B|267:52|267:52|242:107|242:107|210:134,1,136.499993751526
183,154,48340,2,0,P|132:161|88:132,1,90.9999958343508
0,9,48673,1,0,0:0:0:0:
147,81,48840,1,0,0:0:0:0:
14,287,49006,1,0,0:0:0:0:
170,245,49173,6,0,P|218:258|249:289,2,90.9999958343508
384,361,49673,2,0,B|392:308|392:308|380:257,1,90.9999958343508
411,86,50006,1,0,0:0:0:0:
461,254,50173,1,0,0:0:0:0:
280,108,50340,2,0,P|256:119|236:124,1,45.4999979171754
119,93,50506,2,0,P|141:89|167:94,1,45.4999979171754
37,195,50673,6,0,P|26:151|45:110,1,90.9999958343508
197,366,51006,1,0,0:0:0:0:
44,270,51173,1,0,0:0:0:0:
173,193,51340,2,0,L|156:302,1,90.9999958343508
133,56,51673,1,0,0:0:0:0:
353,111,51840,6,0,P|332:150|294:174,1,90.9999958343508
133,56,52173,1,0,0:0:0:0:
432,32,52340,2,0,L|449:138,1,90.9999958343508
422,263,52673,1,0,0:0:0:0:
395,249,52756,1,0,0:0:0:0:
365,245,52839,1,0,0:0:0:0:
337,254,52923,1,0,0:0:0:0:
313,271,53006,2,0,P|279:269|253:263,1,45.4999979171754
206,199,53173,2,0,P|177:197|151:206,1,45.4999979171754
92,332,53340,6,0,L|1:335,1,90.9999958343508
206,199,53673,1,0,0:0:0:0:
200,188,53840,1,0,0:0:0:0:
320,332,54006,6,0,L|229:328,2,90.9999958343508
434,199,54506,2,0,B|411:171|411:171|451:130|428:76,1,136.499993751526
360,112,54840,1,0,0:0:0:0:
128,76,55006,6,0,P|165:51|210:50,1,90.9999958343508
360,112,55340,2,0,P|322:136|277:137,1,90.9999958343508
128,76,55673,5,0,0:0:0:0:
302,334,55840,1,0,0:0:0:0:
84,288,56006,6,0,L|175:282,1,90.9999958343508
32,192,56340,1,0,0:0:0:0:
16,184,56506,1,0,0:0:0:0:
210,50,56673,6,0,L|301:56,2,90.9999958343508
419,342,57173,6,0,P|359:367|304:332,1,136.499993751526
367,294,57506,2,0,P|427:269|483:305,1,136.499993751526
419,342,57840,1,0,0:0:0:0:
396,120,58006,5,0,0:0:0:0:
416,36,58173,1,0,0:0:0:0:
500,56,58340,1,0,0:0:0:0:
480,140,58506,1,0,0:0:0:0:
480,140,58590,1,0,0:0:0:0:
480,140,58673,6,0,L|372:148,1,90.9999958343508
256,88,59006,1,0,0:0:0:0:
244,104,59173,1,0,0:0:0:0:
20,156,59340,6,0,L|128:164,1,90.9999958343508
244,104,59673,1,0,0:0:0:0:
256,120,59840,1,0,0:0:0:0:
268,280,60006,1,0,0:0:0:0:
256,264,60173,1,0,0:0:0:0:
88,356,60340,6,0,P|139:314|204:323,1,136.499993751526
220,336,60673,2,0,P|263:353|310:337,1,90.9999958343508
392,184,61006,1,0,0:0:0:0:
120,200,61173,1,0,0:0:0:0:
256,36,61340,2,0,L|252:126,3,90.9999958343508
116,272,62006,6,0,P|73:257|48:220,1,90.9999958343508
252,126,62340,1,0,0:0:0:0:
127,356,62506,6,0,P|107:315|115:271,1,90.9999958343508
252,126,62840,1,0,0:0:0:0:
396,271,63006,6,0,P|404:315|385:356,1,90.9999958343508
252,126,63340,1,0,0:0:0:0:
252,126,63506,1,0,0:0:0:0:
396,272,63673,6,0,P|438:257|463:220,1,90.9999958343508
463,220,63923,1,0,0:0:0:0:
463,220,64006,5,0,0:0:0:0:
176,308,64173,1,0,0:0:0:0:
56,56,64340,2,0,B|24:96|24:96|44:225,1,181.999991668702
252,126,64840,2,0,P|207:125|168:149,1,90.9999958343508
157,318,65173,2,0,B|189:278|189:278|168:148,1,181.999991668702
369,351,65673,5,0,0:0:0:0:
385,355,65840,1,0,0:0:0:0:
463,220,66006,5,0,0:0:0:0:
447,224,66173,1,0,0:0:0:0:
168,148,66340,5,0,0:0:0:0:
385,355,66506,1,0,0:0:0:0:
66,324,66673,6,0,L|186:316,1,90.9999958343508
168,148,67006,2,0,P|209:132|236:176,1,90.9999958343508
28,150,67340,6,0,L|118:230,2,90.9999958343508
224,98,67840,2,0,P|265:116|253:166,1,90.9999958343508
28,150,68173,1,0,0:0:0:0:
224,98,68340,2,0,P|268:101|273:152,1,90.9999958343508
448,324,68673,2,0,P|403:320|398:269,1,90.9999958343508
392,281,68923,1,0,0:0:0:0:
392,281,69006,5,0,0:0:0:0:
448,60,69173,1,0,0:0:0:0:
405,62,69256,1,0,0:0:0:0:
392,102,69339,5,0,0:0:0:0:
500,200,69506,1,0,0:0:0:0:
204,240,69673,1,0,0:0:0:0:
200,256,69840,1,0,0:0:0:0:
12,184,70006,1,0,0:0:0:0:
12,184,70173,1,0,0:0:0:0:
308,144,70339,1,0,0:0:0:0:
312,128,70506,1,0,0:0:0:0:
316,112,70673,1,0,0:0:0:0:
44,336,70840,6,0,B|63:326|69:310|69:310|130:304|171:345|171:345|178:329|167:314,1,181.999991668702
308,148,71340,2,0,B|331:155|353:148|353:148|412:196|412:269|412:269|336:264|308:304|308:304|344:288|388:296,1,363.999983337403
368,293,72173,5,0,0:0:0:0:
368,293,72340,5,0,0:0:0:0:
368,293,72506,5,0,0:0:0:0:
368,293,72673,5,0,0:0:0:0:
368,293,72840,5,0,0:0:0:0:
368,293,73007,5,0,0:0:0:0:
368,293,73173,5,0,0:0:0:0:
368,293,73340,5,0,0:0:0:0:
368,293,73506,5,0,0:0:0:0:
368,293,73673,5,0,0:0:0:0:
368,293,73839,5,0,0:0:0:0:
368,293,74006,5,0,0:0:0:0:
368,293,74173,5,0,0:0:0:0:
368,293,74340,5,0,0:0:0:0:
368,293,74506,5,0,0:0:0:0:
423,348,74673,2,0,B|360:338|360:338|261:378,1,161.000003070831
144,239,75173,1,0,0:0:0:0:
51,300,75340,2,0,P|134:350|197:336,1,161.000003070831
251,177,75840,1,0,0:0:0:0:
126,165,76006,6,0,B|121:204|121:204|144:239,1,80.5000015354157
371,190,76340,2,0,B|375:150|375:150|352:115,1,80.5000015354157
251,177,76673,2,0,B|244:238|244:238|265:273|265:273|254:335,1,161.000003070831
127,303,77173,1,0,0:0:0:0:
358,213,77340,6,0,P|426:224|508:265,1,161.000003070831
257,261,77840,1,0,0:0:0:0:
389,106,78006,2,0,P|337:106|298:120,1,80.5000015354157
178,252,78340,2,0,P|216:261|256:260,1,80.5000015354157
58,179,78673,6,0,B|35:227|35:227|63:335,1,161.000003070831
158,241,79173,1,0,0:0:0:0:
347,355,79340,1,0,0:0:0:0:
362,259,79506,1,0,0:0:0:0:
266,244,79673,1,0,0:0:0:0:
251,339,79840,1,0,0:0:0:0:
506,202,80006,6,0,B|420:198|444:262|359:258,1,161.000003070831
357,158,80506,1,0,0:0:0:0:
509,296,80673,2,0,L|497:376,1,80.5000015354157
357,158,81006,2,0,L|369:78,1,80.5000015354157
496,39,81340,5,0,0:0:0:0:
436,180,81506,1,0,0:0:0:0:
261,83,81673,1,0,0:0:0:0:
380,57,81840,1,0,0:0:0:0:
273,225,82006,2,0,P|225:222|191:203,1,80.5000015354157
99,37,82340,2,0,P|120:80|120:119,1,80.5000015354157
49,363,82673,6,0,P|40:276|86:205,1,161.000003070831
226,112,83173,1,0,0:0:0:0:
224,306,83340,2,0,L|133:296,1,80.5000015354157
313,221,83673,2,0,L|404:211,1,80.5000015354157
207,40,84006,6,0,B|200:91|200:91|219:132|219:132|201:203,1,161.000003070831
101,142,84506,1,0,0:0:0:0:
305,72,84673,1,0,0:0:0:0:
295,175,84840,1,0,0:0:0:0:
209,111,85006,1,0,0:0:0:0:
391,136,85173,1,0,0:0:0:0:
129,218,85340,6,0,L|36:205,1,80.5000015354157
168,330,85673,2,0,L|75:317,1,80.5000015354157
354,265,86006,2,0,L|447:252,1,80.5000015354157
315,377,86339,2,0,L|408:364,1,80.5000015354157
344,61,86673,5,0,0:0:0:0:
266,193,86840,1,0,0:0:0:0:
375,169,87006,1,0,0:0:0:0:
157,212,87173,1,0,0:0:0:0:
196,104,87340,1,0,0:0:0:0:
121,308,87506,1,0,0:0:0:0:
38,232,87673,1,0,0:0:0:0:
190,384,87840,1,0,0:0:0:0:
139,191,88006,6,0,P|122:142|105:116,1,80.5000015354157
293,250,88340,2,0,P|272:284|260:322,1,80.5000015354157
441,214,88673,1,0,0:0:0:0:
265,114,88840,2,0,P|316:137|342:142,2,80.5000015354157
485,107,89340,5,0,0:0:0:0:
441,214,89506,1,0,0:0:0:0:
248,197,89673,1,0,0:0:0:0:
353,145,89840,1,0,0:0:0:0:
331,341,90006,1,0,0:0:0:0:
206,315,90173,1,0,0:0:0:0:
258,93,90340,1,0,0:0:0:0:
338,244,90506,1,0,0:0:0:0:
124,129,90673,6,0,L|106:88,2,40.2500007677078
64,199,90923,1,0,0:0:0:0:
64,199,91006,2,0,L|37:235,2,40.2500007677078
154,223,91256,1,0,0:0:0:0:
154,223,91339,2,0,L|198:227,2,40.2500007677078
101,316,91590,1,0,0:0:0:0:
101,316,91673,2,0,L|56:320,3,40.2500007677078
178,361,92006,5,0,0:0:0:0:
200,343,92090,1,0,0:0:0:0:
226,335,92173,1,0,0:0:0:0:
254,333,92256,1,0,0:0:0:0:
281,339,92340,2,0,P|309:349|328:363,1,40.2500007677078
397,252,92506,2,0,P|379:261|360:267,1,40.2500007677078
260,215,92673,1,0,0:0:0:0:
254,187,92756,1,0,0:0:0:0:
248,159,92840,1,0,0:0:0:0:
242,131,92923,1,0,0:0:0:0:
236,103,93006,2,0,L|288:108,1,40.2500007677078
150,179,93173,2,0,L|98:184,1,40.2500007677078
112,37,93340,5,0,0:0:0:0:
146,48,93423,1,0,0:0:0:0:
146,84,93506,1,0,0:0:0:0:
112,95,93590,1,0,0:0:0:0:
90,66,93673,2,0,L|149:73,1,40.2500007677078
290,96,93840,2,0,L|231:103,1,40.2500007677078
278,228,94006,1,0,0:0:0:0:
303,241,94090,1,0,0:0:0:0:
330,247,94173,1,0,0:0:0:0:
358,248,94256,1,0,0:0:0:0:
386,245,94340,2,0,L|390:199,1,40.2500007677078
474,110,94506,2,0,L|477:150,1,40.2500007677078
434,345,94673,5,0,0:0:0:0:
426,344,94756,1,0,0:0:0:0:
417,343,94840,1,0,0:0:0:0:
409,342,94923,1,0,0:0:0:0:
401,341,95006,1,0,0:0:0:0:
392,340,95090,1,0,0:0:0:0:
384,339,95173,1,0,0:0:0:0:
376,338,95256,1,0,0:0:0:0:
367,337,95340,1,0,0:0:0:0:
359,336,95423,1,0,0:0:0:0:
351,335,95506,1,0,0:0:0:0:
342,334,95590,1,0,0:0:0:0:
334,333,95673,1,0,0:0:0:0:
