osu file format v14

[General]
AudioFilename: Shano x 40mP - Natsukoi Hanabi.mp3
AudioLeadIn: 2000
PreviewTime: 66938
Countdown: 0
SampleSet: Soft
StackLeniency: 0.7
Mode: 0
LetterboxInBreaks: 0
WidescreenStoryboard: 1

[Editor]
DistanceSpacing: 0.9
BeatDivisor: 4
GridSize: 8
TimelineZoom: 2

[Metadata]
Title:Natsukoi Hanabi
TitleUnicode:夏恋花火
Artist:Shano x 40mP
ArtistUnicode:シャノ × 40㍍
Creator:Dunois
Version:Collab of Light
Source:
Tags:Sugar Panoram a Note Summer Festival Fireworks Chano
BeatmapID:1367823
BeatmapSetID:645484

[Difficulty]
HPDrainRate:6
CircleSize:4
OverallDifficulty:8
ApproachRate:9
SliderMultiplier:1.9
SliderTickRate:1

[Events]
//Background and Video events
0,0,"ggmine.jpg",0,0
//Break Periods
2,191884,206125
//Storyboard Layer 0 (Background)
//Storyboard Layer 1 (Fail)
//Storyboard Layer 2 (Pass)
//Storyboard Layer 3 (Foreground)
//Storyboard Sound Samples

[TimingPoints]
293,379.746835443038,4,2,2,30,1,0
293,-166.666666666667,4,2,2,30,0,0
9406,-166.666666666667,4,2,1,30,0,0
10736,-125,4,2,1,40,0,0
12444,-100,4,2,1,60,0,0
28014,-166.666666666667,4,2,1,30,0,0
30103,-125,4,2,1,30,0,0
33900,-100,4,2,1,40,0,0
40166,-125,4,2,1,30,0,0
45862,-100,4,2,1,40,0,0
51938,-166.666666666667,4,2,1,40,0,0
52128,-166.666666666667,4,2,1,30,0,0
60862,-125,4,2,1,40,0,0
64090,-125,4,2,1,60,0,0
64280,-125,4,2,1,30,0,0
64660,-125,4,2,1,40,0,0
65039,-125,4,2,1,50,0,0
65419,-125,4,2,1,60,0,0
67128,-100,4,2,1,80,0,1
91432,-100,4,2,1,80,0,0
91527,-100,4,2,1,60,0,0
97887,-100,4,2,1,30,0,0
103584,-125,4,2,1,40,0,0
110039,-100,4,2,1,30,0,0
112128,-111.111111111111,4,2,1,30,0,0
115736,-125,4,2,1,40,0,0
121811,-100,4,2,1,40,0,0
122001,-100,4,2,1,30,0,0
130925,-100,4,2,1,40,0,0
134153,-125,4,2,1,30,0,0
134533,-125,4,2,1,40,0,0
134913,-125,4,2,1,50,0,0
135293,-125,4,2,1,60,0,0
137001,-100,4,2,1,80,0,1
159976,-100,4,2,1,50,0,1
160356,-100,4,2,1,60,0,1
160736,-100,4,2,1,70,0,1
161305,-100,4,2,1,80,0,0
161400,-100,4,2,1,60,0,0
189976,-100,4,2,1,30,0,0
190166,-100,4,2,2,20,0,0
206875,-125,4,2,1,40,0,0
212951,-125,4,2,1,50,0,0
214470,-125,4,2,1,60,0,0
215989,-125,4,2,1,70,0,0
216179,-125,4,2,1,40,0,0
216558,-125,4,2,1,50,0,0
217318,-125,4,2,1,60,0,0
219027,379.746835443038,4,2,1,80,1,1
219027,-100,4,2,1,80,0,1
243330,-100,4,2,1,80,0,0
243425,-100,4,2,1,60,0,0
270862,-100,4,2,1,45,0,0
272191,-100,4,2,1,35,0,0
273710,-100,4,2,1,25,0,0
275229,-100,4,2,1,15,0,0
276748,-100,4,2,1,5,0,0

[Colours]
Combo1 : 185,185,185
Combo2 : 220,194,254
Combo3 : 149,149,255
Combo4 : 191,128,255

[HitObjects]
176,156,293,6,0,L|156:88,2,56.9999982604981,2|0|0,0:0|0:0|0:0,0:0:0:0:
184,188,862,2,0,B|188:256|172:308|172:308,1,113.999996520996,0|0,0:0|0:0,0:0:0:0:
300,356,1622,2,0,B|296:288|312:236|312:236,1,113.999996520996,0|0,0:0|0:0,0:0:0:0:
428,176,2381,2,0,B|432:244|416:296|416:296,1,113.999996520996,0|0,0:0|0:0,0:0:0:0:
286,88,3330,6,0,L|307:32,2,56.9999982604981,2|0|0,0:0|0:0|0:0,0:0:0:0:
270,118,3900,2,0,B|213:139|156:116|156:116,1,113.999996520996,0|0,0:0|0:0,0:0:0:0:
48,36,4660,1,2,0:0:0:0:
36,172,5039,1,0,0:0:0:0:
91,297,5419,1,0,0:0:0:0:
208,224,5799,1,0,0:0:0:0:
208,224,6368,5,2,0:0:0:0:
208,224,6558,1,0,0:0:0:0:
232,304,6748,1,0,0:0:0:0:
232,304,6938,2,0,P|260:316|356:304,1,113.999996520996,0|0,0:0|0:0,0:0:0:0:
440,208,7698,2,0,P|412:196|316:208,1,113.999996520996,2|0,0:0|0:0,0:0:0:0:
208,136,8457,2,0,P|196:108|208:12,1,113.999996520996,2|0,0:0|0:0,0:0:0:0:
324,88,9217,2,0,L|388:96,1,56.9999982604981,0|2,0:0|0:0,0:0:0:0:
428,288,9786,5,2,0:0:0:0:
428,288,9976,2,0,B|384:304|356:284|312:296,1,113.999996520996,0|8,0:0|0:0,0:0:0:0:
314,296,10736,6,0,P|214:284|154:288,1,152,6|8,0:0|0:0,0:0:0:0:
92,308,11305,1,8,0:0:0:0:
40,178,11495,2,0,P|140:166|200:170,1,152,2|8,0:0|0:0,0:0:0:0:
336,216,12065,1,2,0:0:0:0:
436,312,12444,6,0,P|444:268|432:216,1,95,4|0,0:0|0:0,0:0:0:0:
384,152,12824,1,8,0:0:0:0:
244,248,13014,2,0,B|220:264|184:264|184:264|132:228|128:144,1,190,2|2,0:0|0:0,0:0:0:0:
336,228,13584,1,8,0:0:0:0:
384,152,13774,2,0,L|480:152,1,95,2|0,0:0|0:0,0:0:0:0:
296,56,14153,2,0,P|300:104|288:152,1,95,2|8,0:0|0:0,0:0:0:0:
169,335,14533,2,0,L|360:320,1,190,2|2,0:0|0:0,0:0:0:0:
76,292,15103,1,8,0:0:0:0:
72,288,15482,6,0,P|52:244|56:192,2,95,2|0|8,0:0|0:0|0:0,0:0:0:0:
172,216,16052,2,0,B|212:192|260:204|260:204|304:216|360:192,1,190,2|2,0:0|0:0,0:0:0:0:
424,148,16622,1,8,0:0:0:0:
288,112,16811,2,0,P|264:216|312:280,1,190,2|2,0:0|0:0,0:0:0:0:
428,240,17381,1,8,0:0:0:0:
368,72,17571,1,2,0:0:0:0:
368,72,17666,1,0,0:0:0:0:
368,72,17761,1,8,0:0:0:0:
508,192,17951,1,8,0:0:0:0:
388,316,18141,1,2,0:0:0:0:
392,320,18520,6,0,L|296:336,1,95,4|0,0:0|0:0,0:0:0:0:
128,256,18900,2,0,P|132:308|156:344,1,95,8|0,0:0|0:0,0:0:0:0:
224,280,19280,1,8,0:0:0:0:
192,192,19470,1,0,0:0:0:0:
132,260,19660,1,8,0:0:0:0:
340,188,19849,1,0,0:0:0:0:
264,124,20039,2,0,L|280:24,1,95,8|0,0:0|0:0,0:0:0:0:
100,172,20419,1,8,0:0:0:0:
320,280,20609,2,0,P|364:300|416:296,2,95,0|8|0,0:0|0:0|0:0,0:0:0:0:
264,124,21179,1,8,0:0:0:0:
136,56,21368,5,0,0:0:0:0:
136,56,21463,1,0,0:0:0:0:
136,56,21558,2,0,L|44:60,1,90,8|0,0:0|0:0,0:0:0:0:
176,136,21938,1,8,0:0:0:0:
316,196,22128,2,0,L|408:192,1,90,0|8,0:0|0:0,0:0:0:0:
236,252,22508,1,0,0:0:0:0:
88,132,22698,1,8,0:0:0:0:
88,132,22887,1,4,0:0:0:0:
480,156,23267,5,2,0:0:0:0:
480,156,23457,1,8,0:0:0:0:
504,280,23647,1,2,0:0:0:0:
504,280,23837,1,8,0:0:0:0:
404,360,24027,1,2,0:0:0:0:
288,316,24217,1,8,0:0:0:0:
280,300,24311,1,0,0:0:0:0:
272,284,24406,1,2,0:0:0:0:
268,268,24501,1,0,0:0:0:0:
268,252,24596,6,0,B|262:195|297:141|297:141|269:155|237:154,1,180,4|8,0:0|0:0,0:0:0:0:
66,146,25166,1,8,3:0:0:0:
96,280,25356,2,0,P|136:255|158:219,2,90,0|0|8,0:0|0:0|0:0,0:0:0:0:
96,280,25925,1,8,0:0:0:0:
328,40,26305,1,8,0:0:0:0:
328,40,26495,1,8,0:0:0:0:
160,88,26685,2,0,B|196:123|256:123|256:123|296:123|324:151,1,180,4|8,0:0|0:0,0:0:0:0:
376,224,27255,1,4,3:0:0:0:
84,320,27634,5,2,0:0:0:0:
428,64,29153,1,2,0:0:0:0:
88,324,30103,2,0,L|160:316,1,72,8|4,0:0|0:3,0:0:0:0:
472,284,30672,6,0,B|432:284|432:284|388:256|332:276,1,144,2|8,0:0|0:0,0:0:0:0:
264,344,31242,2,0,P|296:280|296:208,1,144,2|8,0:0|0:0,0:0:0:0:
224,112,31811,1,8,0:0:0:0:
52,196,32001,2,0,P|68:126|114:71,1,144,2|8,0:0|0:0,0:0:0:0:
312,48,32571,1,8,0:0:0:0:
472,112,32761,2,0,L|452:256,1,144,2|2,0:0|0:0,0:0:0:0:
452,254,33330,1,8,0:0:0:0:
136,184,33710,6,0,P|208:184|264:176,1,113.999996520996,6|8,0:0|0:0,0:0:0:0:
360,128,34280,1,0,0:0:0:0:
508,24,34470,2,0,P|464:24|416:28,1,90,0|2,0:0|0:0,0:0:0:0:
256,96,34849,1,8,0:0:0:0:
60,260,35039,1,0,0:0:0:0:
136,184,35229,2,0,P|144:136|144:92,1,90,2|0,0:0|0:0,0:0:0:0:
40,40,35609,1,8,0:0:0:0:
136,184,35799,2,0,P|184:192|228:192,1,90,2|0,0:0|0:0,0:0:0:0:
384,112,36179,1,2,0:0:0:0:
328,260,36368,1,8,0:0:0:0:
496,136,36558,1,0,0:0:0:0:
325,351,36748,6,0,P|289:259|297:179,1,180,2|8,0:0|0:0,0:0:0:0:
428,40,37318,2,0,P|464:132|456:212,1,180,2|2,0:0|0:0,0:0:0:0:
408,316,37887,1,8,0:0:0:0:
236,352,38077,2,0,B|197:360|163:339|163:339|112:307|63:318,1,180,2|2,0:0|0:0,0:0:0:0:
140,136,38647,2,0,L|148:228,1,90,8|2,0:0|0:0,0:0:0:0:
439,133,39217,2,0,L|432:44,1,90,2|4,0:0|0:3,0:0:0:0:
428,40,39786,5,6,0:0:0:0:
84,344,41305,1,2,0:0:0:0:
428,344,42255,2,0,L|436:272,1,72,8|4,0:0|0:3,0:0:0:0:
432,92,42824,6,0,P|356:80|296:112,1,144,2|8,0:0|0:0,0:0:0:0:
324,300,43394,2,0,P|372:240|374:172,1,144,2|8,0:0|0:0,0:0:0:0:
216,56,43963,1,8,0:0:0:0:
4,140,44153,2,0,P|63:188|128:191,1,144,2|8,0:0|0:0,0:0:0:0:
300,112,44723,1,8,0:0:0:0:
88,120,44913,2,0,L|32:256,1,144,2|2,0:0|0:0,0:0:0:0:
33,253,45482,1,8,0:0:0:0:
328,272,45862,6,0,P|320:316|300:356,1,90,6|0,0:0|0:0,0:0:0:0:
408,192,46242,2,0,P|423:233|427:278,1,90,8|2,0:0|0:0,0:0:0:0:
208,224,46622,2,0,L|116:224,2,90,0|2|8,0:0|0:0|0:0,0:0:0:0:
296,176,47191,2,0,B|340:120|316:40|316:40|288:72,1,180,2|2,0:0|0:0,0:0:0:0:
212,128,47761,1,8,0:0:0:0:
328,272,47951,2,0,P|420:288|484:236,1,180,2|2,0:0|0:0,0:0:0:0:
448,112,48520,1,8,0:0:0:0:
328,272,48710,1,0,0:0:0:0:
256,344,48900,6,0,B|184:316|120:360|120:360|84:348,1,180,2|8,0:0|0:0,0:0:0:0:
48,248,49470,1,2,0:0:0:0:
48,248,49849,2,0,P|56:204|52:160,1,90,2|8,0:0|0:0,0:0:0:0:
176,24,50229,2,0,P|164:116|184:200,1,180,2|2,0:0|0:0,0:0:0:0:
272,248,50799,1,8,0:0:0:0:
360,200,50989,1,2,0:0:0:0:
360,200,51368,1,2,0:0:0:0:
184,292,51558,1,4,0:3:0:0:
360,200,51938,6,0,L|416:208,1,53.9999983520508,4|0,0:0|0:0,0:0:0:0:
248,128,52318,2,0,L|304:136,1,53.9999983520508,8|0,0:0|0:0,0:0:0:0:
168,176,52698,1,8,0:0:0:0:
88,128,52887,1,0,0:0:0:0:
176,32,53077,2,0,L|168:88,1,53.9999983520508,8|0,0:0|0:0,0:0:0:0:
52,216,53457,5,8,0:0:0:0:
64,300,53647,1,0,0:0:0:0:
140,260,53837,1,8,0:0:0:0:
200,324,54027,1,0,0:0:0:0:
228,240,54217,1,8,0:0:0:0:
316,248,54406,1,0,0:0:0:0:
424,156,54596,2,0,L|416:209,1,53.9999983520508,8|0,0:0|0:0,0:0:0:0:
400,316,54976,6,0,P|352:348|304:348,1,107.999996704102,8|8,0:0|0:0,0:0:0:0:
92,336,55546,2,0,L|200:324,1,107.999996704102
316,248,56115,2,0,P|324:216|324:196,1,53.9999983520508,8|0,0:0|0:0,0:0:0:0:
204,104,56495,6,0,P|196:136|196:156,2,53.9999983520508,8|0|8,0:0|0:0|0:0,0:0:0:0:
308,48,57065,1,0,0:0:0:0:
316,44,57160,1,0,0:0:0:0:
324,40,57255,2,0,L|380:32,1,53.9999983520508,8|0,0:0|0:0,0:0:0:0:
440,112,57634,2,0,L|496:104,1,53.9999983520508,8|0,0:0|0:0,0:0:0:0:
376,280,58014,6,0,P|352:236|356:180,1,107.999996704102,4|8,0:0|0:0,0:0:0:0:
448,212,58584,1,0,0:0:0:0:
320,352,58774,2,0,L|264:352,1,53.9999983520508,8|0,0:0|0:0,0:0:0:0:
172,288,59153,2,0,L|116:288,1,53.9999983520508,8|0,0:0|0:0,0:0:0:0:
48,204,59533,5,8,0:0:0:0:
52,112,59723,1,0,0:0:0:0:
128,64,59913,1,8,0:0:0:0:
212,104,60103,1,0,0:0:0:0:
152,208,60293,2,0,L|136:156,1,53.9999983520508,8|0,0:0|0:0,0:0:0:0:
204,16,60672,1,8,0:0:0:0:
304,128,60862,5,8,0:0:0:0:
304,128,60957,1,0,0:0:0:0:
304,128,61052,2,0,B|328:160|328:160|384:180|428:148,1,144,8|2,0:0|0:0,0:0:0:0:
464,76,61622,1,2,0:0:0:0:
252,216,62001,1,2,0:0:0:0:
464,76,62381,2,0,P|444:152|464:216,1,144,2|2,0:0|0:0,0:0:0:0:
384,276,62951,1,8,0:0:0:0:
224,200,63141,2,0,L|152:200,1,72,2|0,0:0|0:0,0:0:0:0:
368,112,63520,2,0,P|364:145|352:181,1,72,8|2,0:0|0:0,0:0:0:0:
284,272,63900,1,0,0:0:0:0:
149,146,64090,5,2,0:0:0:0:
149,146,64280,1,0,0:0:0:0:
12,191,64470,1,2,0:0:0:0:
12,191,64660,1,0,0:0:0:0:
55,328,64849,1,2,0:0:0:0:
55,328,65039,1,0,0:0:0:0:
192,284,65229,1,2,0:0:0:0:
324,184,65419,6,0,P|324:260|360:320,1,144,4|8,0:0|0:0,0:0:0:0:
440,344,65989,1,8,0:0:0:0:
480,268,66179,1,2,0:0:0:0:
256,112,66558,1,2,0:0:0:0:
96,216,67128,5,4,0:0:0:0:
12,180,67318,1,0,0:0:0:0:
168,104,67508,2,0,P|220:104|260:112,1,90,8|2,0:0|0:0,0:0:0:0:
396,204,67887,1,0,0:0:0:0:
496,88,68077,1,2,0:0:0:0:
344,60,68267,1,8,0:0:0:0:
232,212,68457,6,0,P|224:256|236:300,1,90,2|0,0:0|0:0,0:0:0:0:
320,256,68837,1,2,0:0:0:0:
252,56,69027,1,8,0:0:0:0:
100,132,69217,2,0,P|63:214|80:312,1,190,2|2,0:0|0:0,0:0:0:0:
176,356,69786,1,8,0:0:0:0:
320,256,69976,1,0,0:0:0:0:
464,264,70166,6,0,L|452:356,1,90,2|0,0:0|0:0,0:0:0:0:
384,104,70546,2,0,L|396:196,1,90,8|2,0:0|0:0,0:0:0:0:
464,264,70925,1,0,0:0:0:0:
312,340,71115,1,2,0:0:0:0:
268,212,71305,1,8,0:0:0:0:
180,260,71495,6,0,P|144:228|128:184,1,95,2|0,0:0|0:0,0:0:0:0:
254,36,71875,2,0,P|229:68|220:116,1,90,2|8,0:0|0:0,0:0:0:0:
368,364,72255,2,0,P|418:287|421:200,1,180,2|2,0:0|0:0,0:0:0:0:
384,104,72824,1,8,0:0:0:0:
180,224,73014,5,0,0:0:0:0:
296,256,73204,2,0,P|300:212|284:168,1,90,2|0,0:0|0:0,0:0:0:0:
180,224,73584,2,0,L|88:236,1,90,8|2,0:0|0:0,0:0:0:0:
256,336,73963,1,0,0:0:0:0:
184,108,74153,1,2,0:0:0:0:
368,192,74343,1,8,0:0:0:0:
460,152,74533,6,0,P|464:108|448:63,1,90,2|0,0:0|0:0,0:0:0:0:
184,108,74913,2,0,L|94:97,1,90,2|8,0:0|0:0,0:0:0:0:
288,24,75293,2,0,B|324:88|240:144|272:200,1,180,2|2,0:0|0:0,0:0:0:0:
352,344,75862,2,0,P|364:300|352:256,1,90,8|0,0:0|0:0,0:0:0:0:
176,116,76242,6,0,P|144:208|176:280,1,180,2|8,0:0|0:0,0:0:0:0:
352,344,76811,2,0,L|444:344,2,90,2|0|2,0:0|0:0|0:0,0:0:0:0:
248,360,77381,1,8,0:0:0:0:
96,228,77571,1,2,0:0:0:0:
172,120,77761,6,0,L|264:120,1,90,2|0,0:0|0:0,0:0:0:0:
352,176,78141,1,8,0:0:0:0:
464,304,78330,2,0,P|480:220|452:132,1,180,2|2,0:0|0:0,0:0:0:0:
256,192,78900,1,4,3:0:0:0:
256,192,79280,6,0,P|208:200|164:196,1,90,6|0,0:0|0:0,0:0:0:0:
88,152,79660,1,8,0:0:0:0:
8,188,79849,1,2,0:0:0:0:
24,32,80039,2,0,P|72:24|116:28,1,90,0|2,0:0|0:0,0:0:0:0:
188,80,80419,1,8,0:0:0:0:
364,156,80609,6,0,B|374:204|342:255|342:255|321:289|329:328,1,180,2|2,0:0|0:0,0:0:0:0:
416,356,81179,1,8,0:0:0:0:
236,252,81368,2,0,P|144:236|60:260,1,180,2|2,0:0|0:0,0:0:0:0:
36,344,81938,1,8,0:0:0:0:
128,192,82128,5,0,0:0:0:0:
128,192,82318,2,0,P|144:148|144:104,2,90,2|0|8,0:0|0:0|0:0,0:0:0:0:
52,132,82887,2,0,L|232:164,1,180,2|2,0:0|0:0,0:0:0:0:
312,128,83457,1,8,0:0:0:0:
440,236,83647,6,0,P|496:168|468:88,1,180,2|2,0:0|0:0,0:0:0:0:
352,208,84217,1,8,0:0:0:0:
240,80,84406,1,0,0:0:0:0:
240,80,84501,1,0,0:0:0:0:
240,80,84596,1,8,0:0:0:0:
292,272,84786,1,8,0:0:0:0:
120,240,84976,2,0,L|210:237,1,90,2|0,0:0|0:0,0:0:0:0:
44,316,85356,5,12,0:0:0:0:
16,232,85546,1,0,0:0:0:0:
48,148,85736,2,0,P|56:104|52:56,1,90,8|0,0:0|0:0,0:0:0:0:
220,136,86115,2,0,P|212:180|216:228,1,90,8|0,0:0|0:0,0:0:0:0:
292,272,86495,1,8,0:0:0:0:
380,248,86685,1,0,0:0:0:0:
464,280,86875,6,0,P|472:324|468:372,1,90,8|0,0:0|0:0,0:0:0:0:
312,188,87255,2,0,P|304:144|308:96,1,90,8|0,0:0|0:0,0:0:0:0:
196,248,87634,2,0,P|204:292|200:340,1,90,8|0,0:0|0:0,0:0:0:0:
20,312,88014,2,0,L|112:296,1,90,8|0,0:0|0:0,0:0:0:0:
196,248,88394,5,2,0:0:0:0:
305,214,88584,1,0,0:0:0:0:
307,100,88774,1,8,0:0:0:0:
199,62,88963,1,2,0:0:0:0:
130,153,89153,1,8,0:0:0:0:
305,214,89343,5,2,0:0:0:0:
199,62,89533,1,8,0:0:0:0:
305,214,89723,2,0,P|396:220|436:152,1,180,6|8,0:0|0:0,0:0:0:0:
480,16,90293,2,0,L|504:104,1,90,8|2,0:0|0:0,0:0:0:0:
328,128,90672,2,0,L|304:216,1,90,8|2,0:0|0:0,0:0:0:0:
132,264,91052,5,8,0:0:0:0:
140,284,91147,1,0,0:0:0:0:
148,304,91242,1,2,0:0:0:0:
156,324,91337,1,0,0:0:0:0:
164,344,91432,1,4,0:0:0:0:
256,192,91527,12,4,94090,0:0:0:0:
276,288,94470,6,0,B|172:308|100:228|100:228,1,190,6|8,0:0|0:0,0:0:0:0:
164,172,95039,6,0,L|164:77,1,95,2|0,0:0|0:0,0:0:0:0:
80,52,95419,2,0,L|80:147,1,95,2|8,0:0|0:0,0:0:0:0:
108,332,95799,1,2,0:0:0:0:
336,228,96179,6,0,P|392:228|436:212,1,95,0|2,0:0|0:0,0:0:0:0:
376,148,96558,2,0,P|376:92|360:48,1,95,2|0,0:0|0:0,0:0:0:0:
132,252,96938,2,0,P|132:308|148:352,1,95,8|2,0:0|0:0,0:0:0:0:
216,288,97318,5,0,0:0:0:0:
272,92,97508,1,0,0:0:0:0:
92,252,99027,5,4,0:0:0:0:
92,252,99976,5,2,3:0:0:0:
244,112,100166,1,4,3:0:0:0:
244,112,100546,6,0,B|268:196|208:196|244:288,1,180,4|8,0:0|0:0,0:0:0:0:
348,236,101115,1,2,0:0:0:0:
152,148,101305,2,0,P|140:192|136:236,1,90,0|8,0:0|0:0,0:0:0:0:
244,288,101685,1,8,0:0:0:0:
244,112,101875,6,0,P|180:52|96:68,1,180,2|10,0:0|0:0,0:0:0:0:
40,172,102444,1,10,0:0:0:0:
260,208,102634,2,0,P|324:148|408:164,1,180,8|2,3:0|0:0,0:0:0:0:
464,268,103204,1,10,0:0:0:0:
135,236,103584,6,0,P|140:191|152:148,1,90,4|0,0:0|0:0,0:0:0:0:
252,88,103963,2,0,P|263:131|268:176,1,90,8|2,0:0|0:0,0:0:0:0:
180,352,104343,1,0,0:0:0:0:
312,292,104533,2,0,L|404:296,1,90,2|8,0:0|0:0,0:0:0:0:
496,228,104913,1,0,0:0:0:0:
360,184,105103,5,0,0:0:0:0:
392,72,105293,2,0,P|431:91|460:128,1,90,0|8,0:0|0:0,0:0:0:0:
263,247,105672,2,0,P|246:160|288:88,1,152,2|8,0:0|0:0,0:0:0:0:
360,184,106242,1,10,0:0:0:0:
328,336,106432,1,0,0:0:0:0:
172,328,106622,6,0,P|152:292|140:244,1,90,2|0,0:0|0:0,0:0:0:0:
264,248,107001,1,8,0:0:0:0:
92,368,107191,2,0,P|60:296|48:200,1,152,2|2,0:0|0:0,0:0:0:0:
92,88,107761,1,8,0:0:0:0:
360,184,107951,1,4,0:0:0:0:
360,184,108330,5,2,0:0:0:0:
168,312,108520,1,8,0:0:0:0:
256,158,108710,6,0,L|264:248,1,90,2|0,3:0|0:0,0:0:0:0:
444,140,109090,2,0,P|412:108|368:92,1,90,2|4,3:0|3:0,0:0:0:0:
142,224,109660,5,4,0:0:0:0:
372,304,111179,1,4,0:0:0:0:
259,355,112128,6,0,P|248:312|252:267,1,90,4|8,3:0|3:0,0:0:0:0:
296,168,112698,6,0,B|232:160|232:160|180:176|180:176|120:168,1,180,4|8,0:0|0:0,0:0:0:0:
36,248,113267,1,4,0:0:0:0:
56,84,113457,2,0,P|96:64|144:64,1,90,8|8,0:0|0:0,0:0:0:0:
296,168,113837,1,0,0:0:0:0:
120,344,114027,6,0,B|128:280|128:280|112:228|112:228|120:168,1,180,4|8,0:0|0:0,0:0:0:0:
120,167,114596,1,8,0:0:0:0:
364,243,114786,2,0,P|280:267|208:220,1,180,8|8,3:0|3:0,0:0:0:0:
148,64,115356,1,8,0:0:0:0:
148,64,115736,6,0,P|231:39|304:80,1,152,4|8,0:0|0:0,0:0:0:0:
352,196,116305,1,2,0:0:0:0:
505,77,116495,2,0,P|464:95|420:100,1,90,0|2,0:0|0:0,0:0:0:0:
304,88,116875,1,8,0:0:0:0:
212,160,117065,6,0,L|216:252,1,90,2|0,0:0|0:0,0:0:0:0:
424,316,117444,2,0,L|427:226,1,90,0|8,0:0|0:0,0:0:0:0:
320,144,117824,2,0,L|316:328,1,180,2|2,0:0|0:0,0:0:0:0:
428,228,118394,1,8,0:0:0:0:
212,160,118584,1,2,0:0:0:0:
316,324,118774,5,4,0:0:0:0:
316,324,119153,1,8,0:0:0:0:
212,160,119343,2,0,L|120:172,1,90,2|0,0:0|0:0,0:0:0:0:
384,192,119723,2,0,P|396:148|392:104,1,90,2|8,0:0|0:0,0:0:0:0:
256,24,120103,5,4,0:0:0:0:
256,24,120482,1,2,0:0:0:0:
164,104,120672,2,0,L|168:196,1,90,8|2,0:0|3:0,0:0:0:0:
316,300,121052,5,0,0:0:0:0:
412,236,121242,1,8,0:0:0:0:
312,180,121432,1,4,0:3:0:0:
408,108,121622,1,8,0:3:0:0:
408,108,121811,6,0,B|364:24|260:52|260:52|260:108|260:108|260:172|176:236|72:152,1,475,4|0,0:0|0:0,0:0:0:0:
164,104,122951,5,0,3:0:0:0:
288,232,123141,1,0,3:0:0:0:
96,172,123330,1,0,3:0:0:0:
264,136,123520,1,0,0:0:0:0:
120,272,123710,1,0,3:0:0:0:
264,136,123900,1,0,0:0:0:0:
220,300,124090,1,0,3:0:0:0:
164,104,124280,1,0,0:0:0:0:
220,300,124470,6,0,P|264:308|308:300,1,90,0|0,0:0|0:0,0:0:0:0:
408,256,124849,2,0,P|408:160|320:160,1,180,2|0,0:0|3:0,0:0:0:0:
104,256,125419,2,0,P|104:160|192:160,1,180,0|0,0:0|3:0,0:0:0:0:
256,124,125989,2,0,L|256:214,1,90,0|0,0:0|3:0,0:0:0:0:
256,336,126368,6,0,P|340:300|376:224,1,180,2|0,0:0|3:0,0:0:0:0:
256,212,126938,1,0,3:0:0:0:
256,212,127033,1,0,0:0:0:0:
256,212,127128,1,0,3:0:0:0:
140,132,127318,1,0,0:0:0:0:
256,32,127508,1,0,3:0:0:0:
364,128,127698,1,0,0:0:0:0:
256,32,127887,6,0,L|256:216,1,180,4|0,0:0|0:0,0:0:0:0:
256,320,128457,2,0,P|340:284|356:192,1,180
324,120,129027,1,0,0:0:0:0:
236,140,129217,1,0,0:0:0:0:
196,220,129406,6,0,P|164:196|144:152,1,90,2|0,0:0|0:0,0:0:0:0:
176,56,129786,1,0,0:0:0:0:
236,140,129976,1,0,3:0:0:0:
72,76,130166,1,0,3:0:0:0:
60,84,130546,6,0,L|240:68,1,180,0|4,3:0|0:0,0:0:0:0:
239,68,131305,1,0,0:0:0:0:
436,208,131495,2,0,L|256:192,1,180,4|4,0:0|0:0,0:0:0:0:
60,332,132255,2,0,L|240:316,1,180,4|2,0:0|0:0,0:0:0:0:
348,356,132824,1,0,0:0:0:0:
256,192,133014,2,0,P|212:196|168:212,1,90
239,316,133394,1,2,3:0:0:0:
392,248,133584,2,0,P|404:204|404:160,1,90,4|0,3:0|0:0,0:0:0:0:
367,55,133963,5,4,0:0:0:0:
85,237,134153,1,0,0:0:0:0:
420,255,134343,1,0,0:0:0:0:
160,43,134533,1,8,0:0:0:0:
246,368,134723,1,8,0:0:0:0:
367,55,134913,1,8,0:0:0:0:
256,192,135103,5,2,0:0:0:0:
92,125,135293,5,4,0:0:0:0:
349,342,135482,1,0,0:0:0:0:
268,15,135672,1,12,0:0:0:0:
142,326,135862,1,8,0:0:0:0:
427,149,136052,1,8,0:0:0:0:
88,88,136432,6,0,L|108:243,1,152
116,316,137001,5,4,0:0:0:0:
24,244,137191,1,0,0:0:0:0:
200,176,137381,2,0,L|209:265,1,90,8|2,0:0|0:0,0:0:0:0:
276,364,137761,1,0,0:0:0:0:
412,288,137951,2,0,P|371:270|327:260,1,90,2|8,0:0|0:0,0:0:0:0:
116,316,138330,5,2,0:0:0:0:
200,176,138520,1,0,0:0:0:0:
84,64,138710,1,2,0:0:0:0:
120,224,138900,1,8,0:0:0:0:
268,80,139090,2,0,P|316:152|300:240,1,180,2|2,0:0|0:0,0:0:0:0:
200,300,139660,1,8,0:0:0:0:
200,176,139849,1,0,0:0:0:0:
381,237,140039,5,4,0:0:0:0:
311,334,140229,1,0,0:0:0:0:
200,175,140419,1,8,0:0:0:0:
312,142,140609,1,0,0:0:0:0:
200,300,140799,1,0,0:0:0:0:
200,175,140989,1,2,0:0:0:0:
381,237,141179,1,8,0:0:0:0:
188,256,141368,6,0,P|172:300|172:348,1,90,2|0,0:0|0:0,0:0:0:0:
234,101,141748,2,0,P|204:65|162:41,1,90,2|8,0:0|0:0,0:0:0:0:
345,218,142128,2,0,P|391:210|433:186,1,90
500,84,142508,1,2,0:0:0:0:
352,40,142698,2,0,L|360:132,1,90,8|0,0:0|0:0,0:0:0:0:
226,334,143077,6,0,P|199:299|187:256,1,90,4|0,0:0|0:0,0:0:0:0:
236,140,143457,1,8,0:0:0:0:
302,238,143647,1,0,0:0:0:0:
117,171,143837,1,0,0:0:0:0:
302,238,144027,1,2,0:0:0:0:
112,291,144217,1,8,0:0:0:0:
116,56,144406,6,0,P|159:64|197:88,1,90,2|0,0:0|0:0,0:0:0:0:
228,352,144786,2,0,P|213:309|215:265,1,90,2|8,0:0|0:0,0:0:0:0:
464,120,145166,2,0,P|435:154|396:176,1,90,2|0,0:0|0:0,0:0:0:0:
312,64,145546,5,2,0:0:0:0:
92,184,145736,1,8,0:0:0:0:
316,324,145925,1,0,0:0:0:0:
310,203,146115,2,0,P|230:237|200:320,1,180,2|8,0:0|0:0,0:0:0:0:
316,324,146685,5,2,0:0:0:0:
92,184,146875,1,0,0:0:0:0:
312,64,147065,1,2,0:0:0:0:
200,320,147255,2,0,P|160:299|131:265,1,90,8|2,0:0|0:0,0:0:0:0:
312,64,147634,5,4,0:0:0:0:
211,140,147824,2,0,P|211:185|219:229,1,90,2|8,0:0|0:0,0:0:0:0:
304,176,148204,2,0,P|340:144|464:108,1,180
464,108,148774,1,4,3:0:0:0:
312,64,148963,1,2,0:0:0:0:
460,204,149153,6,0,P|416:188|384:160,1,90,4|0,0:0|0:0,0:0:0:0:
248,12,149533,2,0,P|232:52|236:100,1,90,8|2,0:0|0:0,0:0:0:0:
288,284,149913,1,0,0:0:0:0:
176,216,150103,1,2,0:0:0:0:
352,164,150293,1,8,0:0:0:0:
176,216,150482,6,0,P|132:240|104:272,1,90,2|0,0:0|0:0,0:0:0:0:
275,110,150862,2,0,P|276:60|262:20,1,90,2|8,0:0|0:0,0:0:0:0:
316,249,151242,2,0,P|359:275|401:283,1,90,0|0,0:0|0:0,0:0:0:0:
492,212,151622,1,2,0:0:0:0:
384,104,151811,2,0,L|388:196,1,90,8|0,0:0|0:0,0:0:0:0:
244,308,152191,6,0,P|228:268|228:220,1,90,4|0,0:0|0:0,0:0:0:0:
276,112,152571,1,8,0:0:0:0:
317,249,152761,2,0,L|137:237,1,180,0|2,0:0|0:0,0:0:0:0:
172,364,153330,1,8,0:0:0:0:
317,249,153520,6,0,L|312:158,1,90,4|0,0:0|0:0,0:0:0:0:
307,41,153900,1,2,0:0:0:0:
209,106,154090,1,8,0:0:0:0:
424,97,154280,1,8,0:0:0:0:
424,97,154375,1,0,0:0:0:0:
424,97,154470,1,8,0:0:0:0:
209,106,154660,1,10,0:0:0:0:
312,159,154849,2,0,L|317:249,1,90,4|0,3:0|0:0,0:0:0:0:
384,334,155229,6,0,P|420:286|416:226,1,90,4|2,0:0|0:0,0:0:0:0:
272,88,155609,2,0,P|242:121|233:165,1,90,8|2,0:0|0:0,0:0:0:0:
312,340,155989,5,8,0:0:0:0:
233,165,156179,1,2,0:0:0:0:
396,259,156368,1,8,0:0:0:0:
207,277,156558,1,2,0:0:0:0:
348,152,156748,1,8,0:0:0:0:
312,340,156938,6,0,P|356:348|400:320,1,90,2|8,0:0|0:0,0:0:0:0:
380,80,157318,2,0,P|336:72|298:93,1,90,2|8,0:0|0:0,0:0:0:0:
207,277,157698,5,2,0:0:0:0:
348,152,157887,1,8,0:0:0:0:
312,340,158077,1,2,0:0:0:0:
93,289,158267,5,8,0:0:0:0:
234,164,158457,1,2,0:0:0:0:
45,182,158647,1,8,0:0:0:0:
207,277,158837,1,2,0:0:0:0:
129,101,159027,1,8,0:0:0:0:
93,288,159217,5,2,0:0:0:0:
93,287,159406,2,0,P|116:250|156:229,1,90,8|6,0:0|0:0,0:0:0:0:
419,285,159786,5,0,0:0:0:0:
419,285,159976,2,0,P|376:284|338:260,1,90,8|8,0:0|0:0,0:0:0:0:
255,3,160356,5,0,0:0:0:0:
255,3,160546,2,0,P|275:41|273:86,1,90,4|8,3:0|0:0,0:0:0:0:
256,380,160925,5,8,0:0:0:0:
235,341,161020,1,0,0:0:0:0:
228,296,161115,1,8,0:0:0:0:
236,252,161210,1,0,0:0:0:0:
258,213,161305,1,4,0:0:0:0:
256,192,161400,12,0,163963,0:0:0:0:
89,97,164343,6,0,P|65:149|69:201,1,95,2|0,0:0|0:0,0:0:0:0:
149,165,164723,1,8,0:0:0:0:
149,165,164913,2,0,L|129:269,1,95,2|0,0:0|0:0,0:0:0:0:
205,301,165293,2,0,L|222:207,1,95,2|8,0:0|0:0,0:0:0:0:
297,249,165672,6,0,B|317:137|245:73|245:73,1,190,2|2,0:0|0:0,0:0:0:0:
159,77,166242,1,8,0:0:0:0:
149,165,166432,2,0,B|246:106|331:150|331:150,1,190,2|2,0:0|0:0,0:0:0:0:
401,205,167001,1,8,0:0:0:0:
117,337,167381,5,2,0:0:0:0:
57,277,167571,2,0,B|101:241|157:257|157:257,1,95,0|8,0:0|0:0,0:0:0:0:
232,256,167951,2,0,B|284:268|324:244|324:244,1,95,2|0,0:0|0:0,0:0:0:0:
401,205,168330,2,0,L|453:121,2,95,2|8|2,0:0|0:0|0:0,0:0:0:0:
149,233,169090,6,0,L|113:125,1,95,2|8,0:0|0:0,0:0:0:0:
149,233,169470,2,0,B|237:169|229:57|229:57,1,190,2|2,0:0|0:0,0:0:0:0:
144,52,170039,2,0,L|36:52,1,95,8|0,0:0|0:0,0:0:0:0:
28,136,170419,6,0,B|-8:244|52:324|52:324,1,190,2|8,0:0|0:0,0:0:0:0:
136,316,170989,2,0,B|192:304|252:336|332:320,1,190,2|2,0:0|0:0,0:0:0:0:
292,144,171558,1,8,0:0:0:0:
149,233,171748,2,0,B|205:221|265:253|345:237,1,190,2|2,0:0|0:0,0:0:0:0:
385,169,172318,5,8,0:0:0:0:
337,321,172508,1,2,0:0:0:0:
49,161,172887,1,8,0:0:0:0:
136,316,173077,1,2,0:0:0:0:
149,101,173267,1,2,0:0:0:0:
209,161,173457,6,0,B|317:161|365:69|365:69,1,190,6|8,0:0|0:0,0:0:0:0:
289,29,174027,2,0,L|185:29,1,95,2|0,0:0|0:0,0:0:0:0:
109,29,174406,1,2,0:0:0:0:
109,29,174596,1,8,0:0:0:0:
99,177,174786,6,0,B|144:152|149:98|149:98,1,95,2|0,0:0|0:0,0:0:0:0:
65,97,175166,2,0,B|19:121|14:175|14:175,1,95,2|8,0:0|0:0,0:0:0:0:
45,253,175546,2,0,B|129:289|145:229|233:269,1,190,2|2,0:0|0:0,0:0:0:0:
293,209,176115,2,0,B|325:249|309:301|309:301,1,95,8|0,0:0|0:0,0:0:0:0:
240,352,176495,5,2,0:0:0:0:
200,48,176875,1,8,0:0:0:0:
200,48,177065,2,0,L|223:150,1,95,2|0,0:0|0:0,0:0:0:0:
307,115,177444,2,0,L|291:219,1,95,2|8,0:0|0:0,0:0:0:0:
213,245,177824,6,0,B|100:292|32:200|32:200,1,190,2|2,0:0|0:0,0:0:0:0:
64,128,178394,1,8,0:0:0:0:
148,168,178584,1,8,0:0:0:0:
148,168,178679,1,8,0:0:0:0:
148,168,178774,1,8,0:0:0:0:
148,76,178963,5,8,0:0:0:0:
232,240,179153,1,2,0:0:0:0:
232,240,179533,5,12,0:0:0:0:
312,212,179723,2,0,B|360:204|416:212|416:212,1,95,0|8,0:0|0:0,0:0:0:0:
360,288,180103,5,0,0:0:0:0:
408,132,180293,2,0,B|360:124|304:132|304:132,1,95,8|0,0:0|0:0,0:0:0:0:
228,136,180672,5,8,0:0:0:0:
56,104,180862,2,0,B|104:96|160:104|160:104,1,95,0|8,0:0|0:0,0:0:0:0:
228,136,181242,5,0,0:0:0:0:
228,316,181432,2,0,B|220:268|228:212|228:212,1,95,8|0,0:0|0:0,0:0:0:0:
316,76,181811,6,0,B|324:124|316:180|316:180,1,95,8|0,0:0|0:0,0:0:0:0:
96,364,182191,2,0,B|88:316|96:260|96:260,1,95,8|0,0:0|0:0,0:0:0:0:
228,136,182571,5,8,0:0:0:0:
136,176,182761,1,0,0:0:0:0:
136,176,182951,1,8,0:0:0:0:
260,144,183141,5,0,0:0:0:0:
212,268,183330,1,8,0:0:0:0:
212,268,183520,1,0,0:0:0:0:
296,140,183710,5,2,0:0:0:0:
336,308,183900,1,0,0:0:0:0:
336,308,184090,1,6,0:0:0:0:
124,320,184280,6,0,P|108:275|110:228,1,95,8|8,0:0|0:0,0:0:0:0:
268,64,184660,1,8,0:0:0:0:
396,252,184849,1,8,0:0:0:0:
396,252,185039,1,8,0:0:0:0:
124,320,185229,1,8,0:0:0:0:
124,320,185324,1,8,0:0:0:0:
124,320,185419,1,8,0:0:0:0:
124,320,185514,1,8,0:0:0:0:
124,320,185609,2,0,B|54:245|66:145|66:145,1,190,6|8,0:0|0:0,0:0:0:0:
140,96,186179,6,0,P|100:63|49:52,1,95,2|0,0:0|0:0,0:0:0:0:
66,144,186558,1,2,0:0:0:0:
66,144,186748,1,8,0:0:0:0:
144,180,186938,2,0,B|192:188|244:176|244:176,1,95,2|0,0:0|0:0,0:0:0:0:
323,167,187318,2,0,P|324:218|308:270,1,95,2|8,0:0|0:0,0:0:0:0:
242,308,187698,5,2,0:0:0:0:
320,64,188077,1,2,0:0:0:0:
320,64,188267,1,8,0:0:0:0:
152,340,188647,6,0,B|240:368|340:332|340:332,1,190,6|2,0:0|0:0,0:0:0:0:
336,248,189217,2,0,B|248:220|148:256|148:256,1,190,2|2,0:0|0:0,0:0:0:0:
76,300,189786,2,0,P|54:262|39:214,1,95,2|4,0:0|0:0,0:0:0:0:
192,192,191495,2,0,L|184:152,4,23.75,0|0|0|0|2,0:0|0:0|0:0|0:0|0:0,0:0:0:0:
116,108,206875,6,0,L|124:200,1,76
200,156,207255,2,0,L|208:248,1,76
284,196,207634,2,0,L|292:288,1,76
252,348,208014,1,0,0:0:0:0:
252,348,208204,2,0,B|177:355|87:327|87:327,1,152
64,256,208774,1,0,0:0:0:0:
64,256,208963,2,0,L|49:96,1,152
49,104,209533,1,0,0:0:0:0:
208,80,209913,6,0,P|256:72|284:56,1,76
376,56,210293,1,0,0:0:0:0:
376,56,210482,2,0,L|304:204,1,152
267,265,211052,1,0,0:0:0:0:
200,316,211242,2,0,B|120:312|80:232|80:232,1,152
184,72,212001,2,0,B|216:144|176:224|176:224,1,152
40,132,212571,1,0,0:0:0:0:
324,312,212951,5,6,0:0:0:0:
120,300,213330,1,2,0:0:0:0:
392,264,213710,5,2,0:0:0:0:
244,324,213900,1,0,0:0:0:0:
280,168,214090,1,2,0:0:0:0:
212,220,214280,6,0,P|198:187|198:133,1,76,0|2,0:0|0:0,0:0:0:0:
112,128,214660,2,0,P|114:92|138:43,1,76,0|2,0:0|0:0,0:0:0:0:
212,68,215039,2,0,L|316:84,1,76,0|2,0:0|0:0,0:0:0:0:
372,88,215419,1,0,0:0:0:0:
436,144,215609,2,0,P|453:108|452:72,2,76,2|0|8,0:0|0:0|0:0,0:0:0:0:
280,168,216179,5,8,0:0:0:0:
280,168,216368,1,8,0:0:0:0:
192,304,216558,1,8,0:0:0:0:
192,304,216748,1,8,0:0:0:0:
276,316,216938,5,8,0:0:0:0:
160,176,217128,1,8,0:0:0:0:
104,348,217318,2,0,P|76:280|86:199,1,152,12|8,0:0|0:0,0:0:0:0:
301,213,217887,1,8,0:0:0:0:
301,213,217982,1,8,0:0:0:0:
301,213,218077,2,0,P|229:213|157:173,1,152,12|8,0:0|0:0,0:0:0:0:
124,32,218647,1,2,0:0:0:0:
50,105,219027,5,4,0:0:0:0:
239,221,219216,1,0,0:0:0:0:
54,316,219406,1,8,0:0:0:0:
179,153,219596,5,2,0:0:0:0:
288,295,219786,2,0,L|279:408,1,90,0|2,0:0|0:0,0:0:0:0:
445,214,220166,1,8,0:0:0:0:
312,130,220356,6,0,P|295:89|311:36,1,90,2|0,0:0|0:0,0:0:0:0:
357,246,220735,2,0,P|330:281|287:294,1,90,2|8,0:0|0:0,0:0:0:0:
436,132,221115,2,0,P|479:137|512:167,1,90,2|0,0:0|0:0,0:0:0:0:
282,213,221495,1,2,0:0:0:0:
452,303,221685,2,0,L|445:214,1,90,8|0,0:0|0:0,0:0:0:0:
312,130,222064,5,2,0:0:0:0:
282,334,222254,1,0,0:0:0:0:
120,206,222444,1,8,0:0:0:0:
366,241,222634,5,2,0:0:0:0:
172,304,222824,1,0,0:0:0:0:
214,104,223014,1,2,0:0:0:0:
282,334,223204,1,8,0:0:0:0:
48,277,223394,6,0,L|56:389,1,90,2|0,0:0|0:0,0:0:0:0:
123,116,223773,2,0,L|22:66,1,90,2|8,0:0|0:0,0:0:0:0:
224,261,224153,2,0,L|316:198,1,90,2|0,0:0|0:0,0:0:0:0:
454,103,224533,5,2,0:0:0:0:
256,107,224723,1,8,0:0:0:0:
359,276,224913,1,0,0:0:0:0:
263,24,225102,6,0,P|218:34|182:68,1,90,2|0,0:0|0:0,0:0:0:0:
224,261,225482,1,8,0:0:0:0:
383,148,225672,1,2,0:0:0:0:
155,196,225862,5,0,0:0:0:0:
294,324,226052,1,2,0:0:0:0:
305,134,226242,1,8,0:0:0:0:
134,288,226432,6,0,L|142:396,1,90,2|0,0:0|0:0,0:0:0:0:
51,140,226811,2,0,L|43:248,1,90,2|8,0:0|0:0,0:0:0:0:
224,261,227191,2,0,L|299:232,1,90,2|0,0:0|0:0,0:0:0:0:
155,196,227571,5,2,0:0:0:0:
398,262,227761,1,8,0:0:0:0:
241,128,227951,1,0,0:0:0:0:
370,349,228140,6,0,P|454:331|486:247,1,180,2|8,0:0|0:0,0:0:0:0:
337,83,228710,1,2,0:0:0:0:
300,282,228900,1,0,0:0:0:0:
420,122,229090,5,2,0:0:0:0:
370,349,229280,1,8,0:0:0:0:
251,123,229470,1,2,0:0:0:0:
486,251,229659,5,6,0:0:0:0:
214,298,229849,1,2,0:0:0:0:
309,38,230039,1,8,0:0:0:0:
286,345,230229,6,0,L|73:334,1,180,6|2,0:0|0:0,0:0:0:0:
311,196,230799,1,8,0:3:0:0:
367,350,230989,1,2,0:0:0:0:
449,155,231178,6,0,L|432:40,1,90,6|0,0:0|0:0,0:0:0:0:
334,271,231558,1,8,0:0:0:0:
476,339,231748,1,2,0:0:0:0:
235,271,231938,5,0,0:0:0:0:
449,155,232128,1,2,0:0:0:0:
368,377,232318,1,8,0:0:0:0:
284,195,232508,6,0,L|307:80,1,90,2|0,0:0|0:0,0:0:0:0:
330,3,232887,1,2,0:0:0:0:
374,227,233077,1,8,0:0:0:0:
197,134,233267,6,0,P|126:127|94:143,1,90,2|0,0:0|0:0,0:0:0:0:
60,290,233647,1,2,0:0:0:0:
0,158,233837,2,0,L|14:41,1,90,8|0,0:0|0:0,0:0:0:0:
220,128,234216,5,2,0:0:0:0:
65,214,234406,1,0,0:0:0:0:
145,31,234596,1,8,0:0:0:0:
315,161,234786,2,0,P|250:222|160:209,1,180,2|2,0:0|0:0,0:0:0:0:
263,71,235356,1,8,0:0:0:0:
327,282,235545,6,0,L|417:290,1,90,2|0,0:0|0:0,0:0:0:0:
498,244,235925,1,2,0:0:0:0:
270,358,236115,1,8,0:0:0:0:
343,156,236305,5,2,0:0:0:0:
343,156,236400,1,8,0:0:0:0:
343,156,236495,1,8,0:0:0:0:
448,368,236685,1,8,0:0:0:0:
475,161,236875,2,0,L|482:56,1,90,8|0,0:3|0:0,0:0:0:0:
412,276,237254,5,12,0:0:0:0:
378,19,237444,1,2,0:0:0:0:
337,312,237634,5,8,0:0:0:0:
431,86,237824,1,2,0:0:0:0:
408,359,238014,5,8,0:0:0:0:
349,97,238204,1,2,0:0:0:0:
267,358,238394,5,8,0:0:0:0:
268,92,238583,1,2,0:0:0:0:
137,325,238773,5,8,0:0:0:0:
187,69,238963,1,2,0:0:0:0:
213,370,239153,5,8,0:0:0:0:
185,51,239343,1,2,0:0:0:0:
130,346,239533,5,8,0:0:0:0:
183,33,239723,1,2,0:0:0:0:
219,384,239913,5,8,0:0:0:0:
181,15,240102,1,2,0:0:0:0:
412,311,240292,5,8,0:0:0:0:
44,204,240482,1,2,0:0:0:0:
439,127,240672,5,8,0:0:0:0:
24,208,240862,1,2,0:0:0:0:
435,319,241052,5,8,0:0:0:0:
4,212,241242,1,2,0:0:0:0:
275,19,241432,5,8,0:0:0:0:
216,343,241621,2,0,P|174:355|132:342,1,90,6|0,0:0|0:0,0:0:0:0:
61,69,242001,5,2,0:0:0:0:
405,187,242191,1,8,0:0:0:0:
57,294,242381,1,2,0:0:0:0:
276,3,242571,1,8,0:0:0:0:
270,366,242761,1,2,0:0:0:0:
154,87,242951,6,0,L|143:9,1,45,8|8,0:0|0:0,0:0:0:0:
229,248,243140,2,0,L|222:292,1,45,8|8,0:0|0:0,0:0:0:0:
353,63,243330,5,4,0:0:0:0:
256,192,243425,12,0,246368,0:0:0:0:
108,292,246748,6,0,B|77:250|96:196|96:196,1,95,8|2,0:0|0:0,0:0:0:0:
176,240,247128,1,0,0:0:0:0:
232,176,247318,1,2,0:0:0:0:
200,96,247508,1,8,0:0:0:0:
200,96,247697,2,0,B|296:56|392:112|392:112,1,190,2|2,0:0|0:0,0:0:0:0:
328,176,248267,1,8,0:0:0:0:
328,176,248457,2,0,B|288:272|344:368|344:368,1,190,2|2,0:0|0:0,0:0:0:0:
256,368,249027,2,0,B|192:384|128:352|128:352|64:352,1,190,8|2,0:0|0:0,0:0:0:0:
48,272,249596,5,0,0:0:0:0:
48,272,249786,1,8,0:0:0:0:
72,192,249976,2,0,B|172:168|256:224|256:224,1,190,2|2,0:0|0:0,0:0:0:0:
304,296,250545,1,8,0:0:0:0:
304,296,250735,2,0,B|280:196|336:112|336:112,1,190,2|2,0:0|0:0,0:0:0:0:
372,36,251305,1,8,0:0:0:0:
423,130,251495,6,0,L|219:90,1,190,2|2,0:0|0:0,0:0:0:0:
152,80,252064,1,8,0:0:0:0:
152,80,252254,2,0,B|120:120|136:176|136:176,1,95,0|2,0:0|0:0,0:0:0:0:
176,244,252634,5,0,0:0:0:0:
176,244,252824,1,8,0:0:0:0:
48,199,253014,2,0,B|84:159|136:171|136:171,1,95,2|0,0:0|0:0,0:0:0:0:
263,272,253394,2,0,B|227:232|175:244|175:244,1,95,2|8,0:0|0:0,0:0:0:0:
68,324,253773,6,0,B|-4:260|28:144|28:144,1,190,2|2,0:0|0:0,0:0:0:0:
100,108,254343,1,8,0:0:0:0:
100,108,254533,2,0,B|188:156|188:76|284:120,1,190,2|8,0:0|0:0,0:0:0:0:
384,324,255102,6,0,B|336:328|276:312|276:312,1,95,2|2,0:0|0:0,0:0:0:0:
33,48,255482,5,4,0:0:0:0:
180,113,255672,1,0,0:0:0:0:
92,211,255862,1,8,0:0:0:0:
246,282,256052,2,0,P|256:325|245:371,1,90,2|0,0:0|0:0,0:0:0:0:
180,199,256432,2,0,P|170:156|181:110,1,90,2|8,0:0|0:0,0:0:0:0:
335,280,256811,6,0,L|245:282,1,90,2|0,0:0|0:0,0:0:0:0:
422,138,257191,2,0,L|512:140,1,90,2|8,0:0|0:0,0:0:0:0:
241,62,257571,2,0,L|151:60,1,90,2|0,0:0|0:0,0:0:0:0:
351,21,257951,1,2,0:0:0:0:
336,244,258140,2,0,L|330:333,1,90,8|0,0:0|0:0,0:0:0:0:
411,118,258520,5,2,0:0:0:0:
238,246,258710,1,0,0:0:0:0:
428,205,258900,1,8,0:0:0:0:
206,163,259090,2,0,P|167:193|151:238,1,90,2|0,0:0|0:0,0:0:0:0:
411,118,259470,2,0,P|404:69|373:32,1,90,2|8,0:0|0:0,0:0:0:0:
348,317,259849,6,0,P|393:335|440:327,1,90,2|0,0:0|0:0,0:0:0:0:
289,174,260229,1,2,0:0:0:0:
230,372,260419,1,8,0:0:0:0:
99,221,260609,5,2,0:0:0:0:
99,221,260704,1,8,0:0:0:0:
99,221,260799,1,8,0:0:0:0:
314,168,260989,5,8,0:0:0:0:
122,101,261178,2,0,L|2:111,1,90,8|0,0:3|0:0,0:0:0:0:
96,251,261558,5,12,0:0:0:0:
51,25,261748,1,2,0:0:0:0:
177,215,261938,5,8,0:0:0:0:
188,16,262128,1,2,0:0:0:0:
258,251,262318,5,8,0:0:0:0:
326,39,262508,1,2,0:0:0:0:
324,307,262697,5,8,0:0:0:0:
437,116,262887,1,2,0:0:0:0:
177,215,263077,5,8,0:0:0:0:
501,216,263267,1,2,0:0:0:0:
196,304,263457,5,8,0:0:0:0:
492,340,263647,1,2,0:0:0:0:
134,363,263837,5,8,0:0:0:0:
434,273,264027,1,2,0:0:0:0:
122,243,264216,5,8,0:0:0:0:
432,185,264406,1,2,0:0:0:0:
50,202,264596,5,8,0:0:0:0:
504,226,264786,1,2,0:0:0:0:
137,325,264976,5,8,0:0:0:0:
384,54,265166,1,2,0:0:0:0:
224,298,265356,5,8,0:0:0:0:
294,80,265545,1,2,0:0:0:0:
309,334,265735,5,8,0:0:0:0:
217,133,265925,2,0,L|109:152,1,90,6|0,0:0|0:0,0:0:0:0:
324,236,266305,5,2,0:0:0:0:
168,14,266495,1,8,0:0:0:0:
146,277,266685,1,2,0:0:0:0:
317,81,266875,1,8,0:0:0:0:
63,150,267064,1,2,0:0:0:0:
287,315,267254,5,8,0:0:0:0:
287,315,267349,1,8,0:0:0:0:
287,315,267444,2,0,L|297:255,1,45,8|0,0:0|0:0,0:0:0:0:
317,81,267634,6,0,P|361:92|416:74,1,90,4|0,0:0|0:0,0:0:0:0:
492,23,268014,1,8,0:0:0:0:
482,198,268204,2,0,L|477:298,1,90,8|0,0:3|0:0,0:0:0:0:
235,171,268583,1,8,0:0:0:0:
405,272,268773,1,2,0:0:0:0:
239,370,268963,1,2,0:0:0:0:
293,71,269343,5,8,0:0:0:0:
297,270,269533,1,8,0:0:0:0:
210,24,269723,1,4,0:0:0:0:
210,24,270102,5,8,0:0:0:0:
147,171,270292,2,0,L|142:81,1,90,4|0,3:0|0:0,0:0:0:0:
226,210,270672,5,2,0:0:0:0:
