osu file format v14

[General]
AudioFilename: audio.mp3
AudioLeadIn: 0
PreviewTime: 121659
Countdown: 0
SampleSet: Drum
StackLeniency: 0.5
Mode: 0
LetterboxInBreaks: 0
WidescreenStoryboard: 1

[Editor]
DistanceSpacing: 2.2
BeatDivisor: 4
GridSize: 8
TimelineZoom: 2.999999

[Metadata]
Title:Solitary Industrial Revolution
TitleUnicode:ひとりぼっち産業革命
Artist:Shannon feat. RIME
ArtistUnicode:シャノン feat. 裏命
Creator:Ryuusei Aika
Version:MarioKartya's Insane
Source:
Tags:Nachmark MarioKartya Reiji Maigo Mariko Sakuragi CoLouRed GlaZeE Calvaria Corsace CO23 CO2023 Knockout Elimination Stage KO1C HD2 Japanese Pop J-Pop JPop Hitori Bocchi Sangyou Kakumei Minecraft マインクラフト マイクラ Vocaloid ボーカロイド ボカロ CeVIO AI 音楽的同位体 諏訪桂輔 キケン 獏井 一 みひらめ mihiPixelmoji
BeatmapID:4325300
BeatmapSetID:2048022

[Difficulty]
HPDrainRate:5
CircleSize:4.2
OverallDifficulty:8.5
ApproachRate:9
SliderMultiplier:1.6
SliderTickRate:1

[Events]
//Background and Video events
0,0,"BG.jpg",0,0
Video,-125,"video.mp4"
//Break Periods
2,16655,24309
2,85382,93037
2,155200,163128
//Storyboard Layer 0 (Background)
//Storyboard Layer 1 (Fail)
//Storyboard Layer 2 (Pass)
//Storyboard Layer 3 (Foreground)
//Storyboard Layer 4 (Overlay)
//Storyboard Sound Samples

[TimingPoints]
-3181,272.727272727273,4,3,1,40,1,0
1182,-133.333333333333,4,3,1,40,0,0
9023,-133.333333333333,4,2,1,5,0,0
9091,-133.333333333333,4,3,1,40,0,0
9295,-133.333333333333,4,2,1,5,0,0
9364,-133.333333333333,4,3,1,40,0,0
11204,-133.333333333333,4,2,1,5,0,0
11273,-133.333333333333,4,3,1,40,0,0
12023,-133.333333333333,4,2,1,5,0,0
12091,-133.333333333333,4,3,1,40,0,0
13386,-133.333333333333,4,2,1,5,0,0
13455,-133.333333333333,4,3,1,40,0,0
16386,-133.333333333333,4,2,1,5,0,0
16455,-133.333333333333,4,3,1,40,0,0
24637,-133.333333333333,4,3,1,45,0,0
24841,-133.333333333333,4,2,1,5,0,0
24909,-250,4,3,1,55,0,0
25113,-250,4,2,1,5,0,0
25182,-125,4,3,1,70,0,0
26477,-125,4,2,1,5,0,0
26546,-125,4,3,1,70,0,0
27295,-125,4,2,1,5,0,0
27364,-125,4,3,1,70,0,0
28932,-125,4,2,1,5,0,0
29000,-125,4,3,1,70,0,0
31113,-125,4,2,1,5,0,0
31182,-125,4,3,1,70,0,0
31932,-125,4,2,1,5,0,0
32000,-125,4,3,1,70,0,0
33023,-125,4,2,1,5,0,0
33091,-125,4,3,1,70,0,0
33841,-125,4,2,1,5,0,0
33909,-125,4,3,1,45,0,0
34182,-133.333333333333,4,3,1,45,0,0
38204,-133.333333333333,4,2,1,5,0,0
38273,-133.333333333333,4,3,1,45,0,0
42568,-133.333333333333,4,2,1,5,0,0
42637,-133.333333333333,4,3,1,45,0,0
43386,-133.333333333333,4,2,1,5,0,0
43455,-133.333333333333,4,3,1,45,0,0
46931,-133.333333333333,4,2,1,5,0,0
47000,-133.333333333333,4,3,1,45,0,0
51364,-200,4,3,1,50,0,0
51637,-200,4,3,1,55,0,0
66637,-133.333333333333,4,3,1,65,0,0
68273,-133.333333333333,4,3,1,70,0,0
68477,-133.333333333333,4,2,1,5,0,0
68546,-133.333333333333,4,3,1,70,0,0
68819,-100,4,3,1,75,0,1
69023,-100,4,2,1,5,0,1
69091,-100,4,3,1,75,0,1
70113,-100,4,2,1,5,0,1
70182,-100,4,3,1,75,0,1
73386,-100,4,2,1,5,0,1
73455,-100,4,3,1,75,0,1
74477,-100,4,2,1,5,0,1
74546,-100,4,3,1,75,0,1
77750,-100,4,2,1,5,0,1
77819,-100,4,3,1,75,0,1
78841,-100,4,2,1,5,0,1
78909,-100,4,3,1,75,0,1
79386,-100,4,2,1,5,0,1
79455,-100,4,3,1,75,0,1
79659,-100,4,2,1,5,0,1
79728,-100,4,3,1,75,0,1
80204,-100,4,2,1,5,0,1
80273,-100,4,3,1,75,0,1
81909,-100,4,3,1,30,0,0
85182,-100,4,3,1,55,0,0
93637,-200,4,3,1,55,0,0
93909,-133.333333333333,4,3,1,45,0,0
102637,-200,4,3,1,55,0,0
112932,-200,4,2,1,5,0,0
113000,-200,4,3,1,55,0,0
113477,-200,4,2,1,5,0,0
113546,-200,4,3,1,55,0,0
117909,-133.333333333333,4,3,1,65,0,0
118728,-133.333333333333,4,3,1,65,0,0
118932,-133.333333333333,4,2,1,5,0,0
119000,-133.333333333333,4,3,1,65,0,0
120091,-133.333333333333,4,3,1,70,0,0
121932,-133.333333333333,4,2,1,5,0,0
122000,-200,4,3,1,70,0,0
122273,-100,4,3,1,75,0,1
122477,-100,4,2,1,5,0,1
122546,-100,4,3,1,75,0,1
127932,-100,4,2,1,5,0,1
128001,-100,4,3,1,75,0,1
131205,-100,4,2,1,5,0,1
131273,-100,4,3,1,75,0,1
132296,-100,4,2,1,5,0,1
132364,-100,4,3,1,75,0,1
132841,-100,4,2,1,5,0,1
132910,-100,4,3,1,75,0,1
133659,-100,4,2,1,5,0,1
133728,-100,4,3,1,75,0,1
136728,-90.9090909090909,4,3,1,75,0,1
137546,-100,4,3,1,75,0,0
137750,-100,4,2,1,5,0,0
137819,-100,4,3,1,75,0,0
138841,-100,4,2,1,5,0,0
138910,-100,4,3,1,75,0,0
139932,-100,4,3,1,75,0,0
140001,-100,4,3,1,75,0,0
141023,-100,4,2,1,5,0,0
141091,-100,4,3,1,75,0,0
142523,-100,4,2,1,5,0,0
142592,-100,4,3,1,75,0,0
145387,-100,4,2,1,5,0,0
145455,-100,4,3,1,75,0,0
146205,-100,4,2,1,5,0,0
146273,-100,4,3,1,75,0,0
146477,-100,4,2,1,5,0,0
146546,-100,4,3,1,75,0,0
153909,-100,4,3,1,80,0,0
155000,-100,4,3,1,55,0,0
163659,-100,4,2,1,5,0,0
163728,-200,4,3,1,55,0,0
164477,-200,4,2,1,5,0,0
164546,-200,4,3,1,55,0,0
165295,-200,4,2,1,5,0,0
165364,-200,4,3,1,55,0,0
170273,-200,4,3,1,50,0,0
172455,-133.333333333333,4,3,1,60,0,0
174909,-133.333333333333,4,3,1,65,0,0
175659,-133.333333333333,4,2,1,5,0,0
175728,-111.111111111111,4,3,1,100,0,0
180091,-111.111111111111,4,3,1,75,0,0
180704,-111.111111111111,4,2,1,5,0,0
180773,-111.111111111111,4,3,1,75,0,0
181659,-111.111111111111,4,2,1,5,0,0
181728,-111.111111111111,4,3,1,75,0,0
184455,-100,4,3,1,75,0,1
184659,-100,4,2,1,5,0,1
184728,-100,4,3,1,75,0,1
186023,-100,4,2,1,5,0,1
186091,-100,4,3,1,75,0,1
187113,-100,4,2,1,5,0,1
187182,-100,4,3,1,75,0,1
190182,-90.9090909090909,4,3,1,75,0,0
191000,-100,4,3,1,75,0,0
191204,-100,4,2,1,5,0,0
191273,-100,4,3,1,75,0,0
192295,-100,4,2,1,5,0,0
192364,-100,4,3,1,75,0,0
193386,-100,4,2,1,5,0,0
193455,-100,4,3,1,75,0,0
195977,-100,4,2,1,5,0,0
196046,-100,4,3,1,75,0,0
197068,-100,4,2,1,5,0,0
197137,-100,4,3,1,75,0,0
200341,-100,4,2,1,5,0,0
200409,-100,4,3,1,75,0,0
202113,-100,4,2,1,5,0,0
202182,-100,4,3,1,75,0,0
209546,-100,4,3,1,85,0,0
210091,-100,4,3,1,100,0,0
210637,-133.333333333333,4,3,1,55,0,0
214386,-133.333333333333,4,2,1,5,0,0
214455,-133.333333333333,4,3,1,55,0,0
215204,-133.333333333333,4,2,1,5,0,0
215273,-133.333333333333,4,3,1,50,0,0
217182,-133.333333333333,4,3,1,45,0,0
219909,-333.333333333333,4,3,1,30,0,0
220728,-333.333333333333,4,3,1,40,0,0
221000,-133.333333333333,4,3,1,40,0,0
221546,-133.333333333333,4,3,1,50,0,0
230000,-133.333333333333,4,3,1,40,0,0
230204,-133.333333333333,4,2,1,5,0,0
230273,-133.333333333333,4,3,1,40,0,0
234637,-133.333333333333,4,3,1,30,0,0

[Colours]
Combo1 : 128,128,0
Combo2 : 128,0,0
Combo3 : 128,64,0
Combo4 : 0,128,64

[HitObjects]
26,75,1182,6,0,P|11:125|-2:206,2,120.000004577637,0|10|0,1:0|0:2|1:0,0:0:0:0:
109,17,1864,1,0,1:0:0:0:
109,17,2000,2,0,P|136:22|157:49,1,60.0000022888184,10|0,0:2|0:0,0:0:0:0:
125,155,2273,6,0,P|169:134|230:125,1,90.0000034332277,0|0,1:0|0:0,0:0:0:0:
230,123,2546,2,0,P|255:95|252:66,1,60.0000022888184,10|0,0:2|0:0,0:0:0:0:
155,46,2819,1,0,1:0:0:0:
155,46,2955,1,0,1:0:0:0:
245,0,3091,2,0,P|284:7|319:18,1,60.0000022888184,10|0,0:2|0:0,0:0:0:0:
415,89,3364,1,0,1:0:0:0:
414,89,3637,6,0,P|422:60|436:33,1,60.0000022888184,10|0,0:2|0:0,0:0:0:0:
349,126,3909,2,0,P|320:134|290:136,1,60.0000022888184,0|0,1:0|1:0,0:0:0:0:
430,160,4182,2,0,P|452:182|468:207,1,60.0000022888184,10|0,0:2|0:0,0:0:0:0:
340,261,4455,6,0,B|339:234|363:231|361:205,3,60.0000022888184,0|0|10|0,1:0|0:0|0:2|0:0,0:0:0:0:
290,136,5000,1,0,1:0:0:0:
290,136,5137,1,0,1:0:0:0:
362,75,5273,2,0,P|329:63|254:48,1,90.0000034332277,10|0,0:2|0:0,0:0:0:0:
247,43,5546,6,0,P|193:35|176:102,1,120.000004577637,0|10,1:0|0:2,0:0:0:0:
349,270,6091,2,0,P|340:305|333:346,1,60.0000022888184,0|0,1:0|1:0,0:0:0:0:
260,167,6364,2,0,P|282:186|303:207,1,60.0000022888184,10|0,0:2|0:0,0:0:0:0:
392,351,6637,6,0,P|336:329|273:320,1,120.000004577637,0|10,1:0|0:2,0:0:0:0:
181,366,7046,1,0,0:0:0:0:
181,366,7182,2,0,P|175:336|167:307,1,60.0000022888184,0|0,1:0|1:0,0:0:0:0:
102,269,7455,2,0,P|112:215|126:162,1,90.0000034332277,10|0,0:2|0:0,0:0:0:0:
129,153,7728,6,0,P|106:138|73:140,1,60.0000022888184,0|0,1:0|0:0,0:0:0:0:
50,67,8000,2,0,P|22:70|-1:93,1,60.0000022888184,10|0,0:2|0:0,0:0:0:0:
138,9,8273,6,0,P|130:43|127:73,1,60.0000022888184,0|0,1:0|1:0,0:0:0:0:
204,141,8546,2,0,P|207:111|214:82,1,60.0000022888184,10|0,0:2|0:0,0:0:0:0:
392,8,8819,6,0,B|319:12|349:54|279:65,2,120.000004577637,0|10|0,1:0|0:2|1:0,0:0:0:0:
460,76,9500,1,0,1:0:0:0:
460,76,9637,2,0,P|452:105|450:134,1,60.0000022888184,10|0,0:2|0:0,0:0:0:0:
419,253,9909,6,0,P|454:208|526:216,2,120.000004577637,0|10|0,1:0|0:2|1:0,0:0:0:0:
312,258,10591,1,0,1:0:0:0:
312,258,10728,2,0,P|278:244|242:237,1,60.0000022888184,10|0,0:2|0:0,0:0:0:0:
155,283,11000,6,0,B|157:346|205:317|207:384,1,120.000004577637,0|10,1:0|0:2,0:0:0:0:
86,368,11409,1,0,0:0:0:0:
86,368,11546,2,0,P|54:355|22:349,1,60.0000022888184,0|0,1:0|1:0,0:0:0:0:
142,224,11819,2,0,P|146:258|157:288,1,60.0000022888184,10|0,0:2|0:0,0:0:0:0:
20,217,12091,6,0,P|37:162|55:82,1,120.000004577637,0|10,1:0|0:2,0:0:0:0:
242,15,12636,1,0,1:0:0:0:
184,80,12773,1,0,1:0:0:0:
184,80,12909,2,0,P|147:70|115:65,1,60.0000022888184,10|0,0:2|0:0,0:0:0:0:
0,0,13182,6,0,B|2:63|50:34|52:101,1,120.000004577637,0|10,1:0|0:2,0:0:0:0:
245,262,13728,1,0,1:0:0:0:
325,207,13864,1,0,1:0:0:0:
235,96,14000,6,0,B|243:140|247:190,1,90.0000034332277,14|0,0:2|0:0,0:0:0:0:
246,185,14273,5,0,1:0:0:0:
255,384,15364,5,2,0:2:0:0:
220,274,16319,5,0,0:0:0:0:
294,293,16455,5,6,2:0:0:0:
489,178,24909,6,2,P|496:168|487:178,1,48,2|0,1:1|0:0,0:1:0:0:
512,243,25182,6,0,P|464:214|386:199,1,128,0|10,1:0|0:2,0:0:0:0:
263,259,25591,1,0,0:0:0:0:
219,320,25728,2,0,P|234:358|238:385,1,64,0|0,1:0|1:0,0:0:0:0:
348,294,26000,2,0,P|341:262|329:233,1,64,10|0,0:2|0:0,0:0:0:0:
180,185,26273,6,0,P|123:193|108:259,2,128,0|10|0,1:0|0:2|1:0,0:0:0:0:
271,124,26955,1,0,1:0:0:0:
271,124,27091,2,0,P|264:92|252:63,1,64,10|0,0:2|0:0,0:0:0:0:
120,19,27364,6,0,P|150:29|181:33,1,64,0|0,1:0|0:0,0:0:0:0:
328,78,27637,2,0,P|359:74|389:63,1,64,10|0,0:2|0:0,0:0:0:0:
512,0,27909,2,0,P|499:29|493:60,1,64,0|0,1:0|1:0,0:0:0:0:
420,175,28182,2,0,P|417:152|406:126,2,42.6666666666667,10|2|2,0:2|0:0|0:0,0:0:0:0:
485,217,28455,6,0,P|444:214|406:254,1,96,0|0,1:0|0:0,0:0:0:0:
404,274,28728,2,0,L|475:286,1,64,10|0,0:2|0:0,0:0:0:0:
316,354,29000,2,0,L|379:343,1,64,0|0,1:0|1:0,0:0:0:0:
241,321,29273,2,0,L|312:333,1,64,10|0,0:2|0:0,0:0:0:0:
404,274,29546,6,0,B|399:199|354:235|347:162,1,128,0|10,1:0|0:2,0:0:0:0:
448,46,29955,1,0,0:0:0:0:
497,104,30091,2,0,B|486:138|480:174,1,64,0|0,1:0|1:0,0:0:0:0:
367,78,30364,2,0,B|371:49|382:15,1,64,10|0,0:2|0:0,0:0:0:0:
270,131,30637,6,0,P|221:111|164:100,1,96,0|0,1:0|0:0,0:0:0:0:
152,97,30909,2,0,P|151:59|186:47,1,64,10|0,0:2|0:0,0:0:0:0:
309,4,31182,2,0,P|276:12|238:15,1,64,0|0,1:0|1:0,0:0:0:0:
429,88,31455,2,0,P|397:84|366:77,1,64,10|0,0:2|0:0,0:0:0:0:
257,186,31728,6,0,P|280:147|331:146,1,96,0|0,1:0|0:0,0:0:0:0:
345,156,32000,2,0,P|348:187|355:218,1,64,10|0,0:2|0:0,0:0:0:0:
477,308,32273,2,0,P|447:294|417:286,1,64,0|0,1:0|1:0,0:0:0:0:
247,258,32546,2,0,B|176:274|215:301|139:330,1,128,10|0,0:2|1:0,0:0:0:0:
23,290,33091,6,0,P|3:273|1:241,2,32,10|2|2,0:2|0:0|0:0,0:0:0:0:
81,343,33364,2,0,L|151:326,1,64,0|0,1:0|1:0,0:0:0:0:
231,195,33637,2,0,L|246:257,1,64,10|0,0:2|0:0,0:0:0:0:
319,371,33909,5,2,1:2:0:0:
319,371,34046,1,2,1:2:0:0:
319,371,34182,2,0,P|317:348|311:368,1,60.0000022888184
253,270,34455,6,0,L|177:251,1,60.0000022888184,4|4,3:0|3:0,0:0:0:0:
144,184,34728,2,0,L|85:198,1,60.0000022888184,0|0,1:3|0:0,0:0:0:0:
2,256,35000,2,0,P|12:204|18:110,2,120.000004577637,4|0|4,3:0|1:3|3:0,0:0:0:0:
90,186,35682,1,0,0:0:0:0:
0,96,35819,2,0,P|39:103|110:108,1,90.0000034332277,0|0,1:3|0:0,0:0:0:0:
153,67,36091,5,2,1:2:0:0:
153,67,36228,1,0,0:0:0:0:
153,67,36364,2,0,P|151:44|145:64,1,60.0000022888184,0|0,1:3|0:0,0:0:0:0:
232,0,36637,6,0,P|255:78|188:149,1,180.000006866455,4|0,3:0|0:0,0:0:0:0:
121,178,37182,6,0,P|158:143|208:156,1,90.0000034332277,4|0,3:0|0:0,0:0:0:0:
216,158,37455,2,0,P|207:195|204:222,1,60.0000022888184,2|0,1:3|0:0,0:0:0:0:
89,285,37728,1,4,3:0:0:0:
89,285,37864,1,4,3:0:0:0:
89,285,38000,2,0,P|125:274|150:263,1,60.0000022888184,0|0,1:3|0:0,0:0:0:0:
254,371,38273,5,2,1:2:0:0:
254,371,38410,1,2,1:2:0:0:
254,371,38546,2,0,P|252:348|246:368,1,60.0000022888184
341,326,38819,6,0,P|330:289|319:264,1,60.0000022888184,4|4,3:0|3:0,0:0:0:0:
216,158,39091,2,0,P|227:185|235:214,1,60.0000022888184,0|0,1:3|0:0,0:0:0:0:
355,330,39364,6,0,P|387:298|448:315,1,90.0000034332277,4|0,3:0|0:0,0:0:0:0:
447,314,39637,2,0,P|458:341|466:370,1,60.0000022888184,0|0,1:3|0:0,0:0:0:0:
512,197,39909,2,0,P|501:224|493:253,1,60.0000022888184,4|0,3:0|0:0,0:0:0:0:
402,140,40182,2,0,P|430:136|459:128,1,60.0000022888184,0|0,1:3|0:0,0:0:0:0:
343,221,40455,5,2,1:2:0:0:
343,221,40592,1,0,0:0:0:0:
343,221,40728,2,0,P|341:198|335:218,1,60.0000022888184,0|0,1:3|0:0,0:0:0:0:
275,150,41000,6,0,P|252:228|319:299,1,180.000006866455,4|0,3:0|0:0,0:0:0:0:
384,328,41546,6,0,P|347:293|297:306,1,90.0000034332277,4|0,3:0|0:0,0:0:0:0:
285,313,41819,2,0,P|261:313|210:318,1,60.0000022888184,2|0,1:3|0:0,0:0:0:0:
106,372,42091,1,4,3:0:0:0:
106,372,42228,1,4,3:0:0:0:
106,372,42364,2,0,P|76:369|46:369,1,60.0000022888184,0|0,1:3|0:0,0:0:0:0:
143,284,42637,5,2,1:2:0:0:
143,284,42773,1,2,1:2:0:0:
143,284,42909,2,0,P|141:261|135:281,1,60.0000022888184
66,212,43182,6,0,P|72:147|89:84,1,120.000004577637,4|0,3:0|1:3,0:0:0:0:
207,40,43591,1,0,0:0:0:0:
207,40,43728,6,0,P|180:7|125:12,1,90.0000034332277,4|0,3:0|0:0,0:0:0:0:
109,21,44000,2,0,P|72:7|46:1,1,60.0000022888184,0|0,1:3|0:0,0:0:0:0:
107,144,44273,2,0,P|137:118|155:99,1,60.0000022888184,4|0,3:0|0:0,0:0:0:0:
0,92,44546,2,0,P|12:142|17:195,1,90.0000034332277,0|0,1:3|0:0,0:0:0:0:
72,240,44819,5,2,1:2:0:0:
72,240,44956,1,0,0:0:0:0:
72,240,45092,2,0,P|95:238|75:232,1,60.0000022888184
0,288,45364,6,0,P|53:268|181:241,1,180.000006866455,4|0,3:0|0:0,0:0:0:0:
238,203,45909,6,0,P|197:203|175:258,1,90.0000034332277,4|0,3:0|0:0,0:0:0:0:
175,265,46182,2,0,P|183:293|187:328,1,60.0000022888184,2|0,1:3|0:0,0:0:0:0:
302,374,46455,1,4,3:0:0:0:
302,374,46591,1,4,3:0:0:0:
302,374,46728,2,0,P|298:344|290:315,1,60.0000022888184,0|0,1:3|0:0,0:0:0:0:
369,244,47000,5,2,1:2:0:0:
369,244,47136,1,2,1:2:0:0:
369,244,47272,2,0,P|367:221|361:241,1,60.0000022888184
361,140,47546,6,0,P|419:145|450:218,2,120.000004577637,4|0|4,3:0|1:3|3:0,0:0:0:0:
305,62,48364,2,0,P|273:51|236:47,1,60.0000022888184,0|0,1:3|0:0,0:0:0:0:
429,134,48637,1,4,3:0:0:0:
429,134,48773,1,0,0:0:0:0:
429,134,48909,2,0,P|454:111|476:81,1,60.0000022888184,0|0,1:3|0:0,0:0:0:0:
276,181,49182,5,2,1:2:0:0:
276,181,49318,1,0,0:0:0:0:
276,181,49454,2,0,P|253:183|273:189,1,60.0000022888184,0|0,1:3|0:0,0:0:0:0:
359,98,49728,2,0,P|347:187|341:299,1,180.000006866455,4|0,3:0|0:0,0:0:0:0:
447,294,50273,6,0,B|381:314|431:345|343:360,2,120.000004577637,4|0|4,3:0|1:3|3:0,0:0:0:0:
510,200,50955,1,4,3:0:0:0:
510,200,51091,2,0,P|468:207|420:224,1,90.0000034332277,4|0,1:3|0:0,0:0:0:0:
359,182,51364,5,4,0:2:0:0:
429,112,51637,2,0,L|437:60,1,40,2|0,0:0|0:0,0:0:0:0:
426,41,52182,2,0,L|419:80,1,40,2|0,0:0|0:0,0:0:0:0:
306,130,52455,2,0,L|225:108,3,80,0|2|0|2,0:0|0:0|0:0|0:0,0:0:0:0:
98,36,53546,5,2,0:2:0:0:
28,106,53819,2,0,L|20:158,1,40,2|0,0:0|0:0,0:0:0:0:
31,177,54364,2,0,L|37:137,1,40,2|0,0:0|0:0,0:0:0:0:
151,88,54637,2,0,L|232:110,1,80,0|2,0:0|0:0,0:0:0:0:
227,106,55182,6,0,P|216:127|217:152,1,40
290,162,55455,2,0,P|301:141|300:116,1,40,2|0,0:0|0:0,0:0:0:0:
319,55,55728,6,0,P|331:89|369:109,2,80,2|2|0,0:2|0:0|0:0,0:0:0:0:
481,27,56546,1,2,0:0:0:0:
368,108,56819,6,0,L|376:19,1,80,0|2,0:0|0:0,0:0:0:0:
478,139,57228,1,0,0:0:0:0:
486,219,57364,2,0,L|478:130,1,80,0|2,0:0|0:0,0:0:0:0:
296,183,57773,1,0,0:0:0:0:
362,215,57909,5,2,0:2:0:0:
492,295,58182,2,0,L|496:349,1,40,2|0,0:0|0:0,0:0:0:0:
415,379,58455,5,0,0:0:0:0:
486,219,58728,2,0,L|482:179,1,40,2|0,0:0|0:0,0:0:0:0:
427,123,59000,5,0,0:0:0:0:
512,20,59273,2,0,L|436:43,2,80,2|0|4,0:0|0:0|0:2,0:0:0:0:
362,94,60091,6,0,P|348:77|342:42,1,40,4|0,0:0|0:0,0:0:0:0:
427,123,60364,2,0,P|419:143|391:166,1,40,8|0,0:0|0:0,0:0:0:0:
347,201,60637,1,0,0:0:0:0:
439,261,60909,2,0,P|432:291|428:334,1,60,8|0,0:0|0:0,0:0:0:0:
427,336,61182,6,0,L|481:322,1,40,4|4,0:0|0:0,0:0:0:0:
512,264,61455,1,8,0:0:0:0:
375,229,61728,6,0,L|335:189,1,40,4|4,0:0|0:0,0:0:0:0:
270,192,62001,1,8,0:0:0:0:
218,238,62273,6,0,P|254:228|268:205,1,60,4|0,0:0|0:0,0:0:0:0:
270,192,62546,2,0,P|262:150|256:99,2,80,8|2|8,0:0|0:0|0:0,0:0:0:0:
317,269,63228,2,0,P|311:308|304:347,1,80,2|2,0:0|0:0,0:0:0:0:
394,384,63637,2,0,P|400:349|405:314,1,60,8|0,0:0|0:0,0:0:0:0:
408,299,63909,1,2,0:0:0:0:
498,150,64182,5,8,0:0:0:0:
498,150,64319,1,0,0:0:0:0:
498,150,64455,2,0,P|491:115|486:63,1,80,4|8,0:0|0:0,0:0:0:0:
346,0,65000,2,0,P|379:11|427:33,1,80,4|8,0:0|0:0,0:0:0:0:
218,87,65546,2,0,B|256:80|256:80|292:57,1,80,4|8,0:0|0:0,0:0:0:0:
161,62,66091,2,0,L|202:75,1,40,4|0,0:0|0:0,0:0:0:0:
252,157,66364,2,0,L|290:144,1,40,4|0,0:2|0:0,0:0:0:0:
411,102,66637,5,2,0:0:0:0:
411,102,66773,1,0,0:0:0:0:
411,102,66909,2,0,L|405:132,1,30.0000011444092
343,197,67046,2,0,L|332:256,1,60.0000022888184
454,235,67319,1,0,0:0:0:0:
454,235,67455,2,0,L|514:222,1,60.0000022888184,2|0,0:0|0:0,0:0:0:0:
413,303,67728,5,2,0:0:0:0:
263,217,68000,5,2,0:0:0:0:
103,384,68273,6,2,L|119:287,1,90.0000034332277,4|0,0:2|0:0,0:2:0:0:
115,274,68546,2,0,P|97:262|107:283,1,60.0000022888184,2|0,2:1|0:0,0:0:0:0:
193,288,68819,6,0,P|169:208|85:193,1,160,4|10,1:0|0:2,0:0:0:0:
24,137,69228,1,10,0:2:0:0:
24,137,69296,1,10,0:2:0:0:
24,137,69364,2,0,P|33:93|38:51,1,80,0|0,1:0|1:0,0:0:0:0:
131,0,69637,2,0,P|125:39|117:78,1,80,10|10,0:2|0:2,0:0:0:0:
118,111,69841,1,10,0:2:0:0:
118,111,69909,6,0,P|148:85|189:95,1,80,0|0,1:0|0:0,0:0:0:0:
290,200,70182,2,0,P|252:187|240:146,1,80,10|0,0:2|0:0,0:0:0:0:
293,14,70455,2,0,P|300:52|271:83,1,80,0|0,1:0|1:0,0:0:0:0:
159,158,70728,2,0,P|170:243|187:328,1,160,10|0,0:2|1:0,0:0:0:0:
346,132,71273,6,0,P|356:75|363:19,1,80,10|8,0:2|0:0,0:0:0:0:
257,67,71546,2,0,P|217:73|178:81,1,80,0|0,1:0|1:0,0:0:0:0:
282,183,71819,2,0,P|274:222|267:261,1,80,10|8,0:2|0:0,0:0:0:0:
268,298,72023,1,0,0:0:0:0:
268,298,72091,6,0,P|307:291|346:283,1,80,0|8,1:0|0:0,0:0:0:0:
477,182,72364,2,0,P|437:189|398:196,1,80,10|10,0:2|0:2,0:0:0:0:
423,351,72637,2,0,P|429:311|437:272,1,80,0|0,1:0|1:0,0:0:0:0:
344,142,72909,2,0,P|337:102|329:63,1,80,10|10,0:2|0:2,0:0:0:0:
327,40,73114,1,10,0:2:0:0:
327,40,73182,6,0,B|236:55|280:95|192:123,1,160,0|10,1:0|0:2,0:0:0:0:
87,56,73591,2,0,P|84:-8|149:28,1,160,10|0,0:2|1:0,0:0:0:0:
273,138,74000,2,0,P|224:123|190:123,1,80,10|0,0:2|0:0,0:0:0:0:
82,167,74273,2,0,P|93:208|107:316,1,120,0|0,1:0|0:0,0:0:0:0:
104,305,74546,6,0,P|67:303|33:273,1,80,10|0,0:2|0:0,0:0:0:0:
0,210,74819,2,0,P|6:248|34:276,1,80,0|0,1:0|1:0,0:0:0:0:
132,218,75091,2,0,P|169:208|227:201,1,80,10|8,0:2|0:0,0:0:0:0:
367,85,75364,5,0,1:0:0:0:
461,139,75500,1,0,1:0:0:0:
367,193,75637,1,10,0:2:0:0:
273,138,75773,2,0,P|234:127|194:121,1,80,8|0,0:0|1:0,0:0:0:0:
367,76,76046,5,0,1:0:0:0:
429,37,76182,1,10,0:2:0:0:
362,2,76319,1,8,0:0:0:0:
461,119,76455,6,0,P|443:185|430:285,2,160,0|10|0,1:0|0:2|1:0,0:0:0:0:
511,40,77137,2,0,L|499:-8,5,40,0|0|14|0|8|0,1:0|0:0|0:2|0:0|0:0|0:0,0:0:0:0:
390,43,77546,6,0,B|296:71|349:100|247:131,1,160,4|10,1:0|0:2,0:0:0:0:
182,77,77955,1,0,0:0:0:0:
182,77,78023,1,0,0:0:0:0:
182,77,78091,2,0,P|158:45|183:15,1,80,0|0,1:0|1:0,0:0:0:0:
246,125,78364,2,0,P|235:162|230:219,1,80,10|0,0:2|1:0,0:0:0:0:
243,224,78569,1,0,0:0:0:0:
243,224,78637,6,0,P|232:261|227:318,1,80,0|0,1:0|0:0,0:0:0:0:
385,283,78909,1,10,0:2:0:0:
468,330,79046,1,2,0:0:0:0:
385,378,79182,2,0,P|347:369|306:363,1,80,0|0,1:0|0:0,0:0:0:0:
149,272,79455,2,0,P|109:277|70:286,1,80,10|0,0:2|0:0,0:0:0:0:
227,384,79728,6,0,B|256:317|204:329|238:248,1,120,0|0,1:0|0:0,0:0:0:0:
247,254,80000,2,0,P|270:222|255:182,1,80,10|0,0:2|0:0,0:0:0:0:
179,124,80273,1,0,1:0:0:0:
259,67,80409,1,0,1:0:0:0:
337,123,80546,1,10,0:2:0:0:
261,58,80682,2,0,L|272:13,1,40,8|8,0:2|0:2,0:0:0:0:
179,3,80819,6,0,B|78:21|140:55|37:88,1,160,0|10,1:0|0:2,0:0:0:0:
83,285,81364,1,0,1:0:0:0:
3,232,81500,1,0,1:0:0:0:
127,204,81637,5,10,0:2:0:0:
136,205,81705,1,0,0:0:0:0:
146,207,81773,1,4,0:2:0:0:
156,209,81841,1,0,0:0:0:0:
166,210,81909,5,4,1:0:0:0:
317,258,83000,5,2,0:0:0:0:
210,371,83955,5,0,0:0:0:0:
187,296,84091,5,0,0:0:0:0:
259,175,84364,6,0,L|255:218,7,40,2|2|2|2|2|2|2|0,0:0|0:0|0:0|0:0|0:0|0:2|0:2|0:0,0:0:0:0:
259,175,85182,5,4,0:2:0:0:
259,175,93637,6,0,B|273:142|250:147|268:102,1,60,2|0,0:0|0:0,0:0:0:0:
267,41,93909,5,2,1:2:0:0:
267,41,94046,1,2,1:2:0:0:
267,41,94182,2,0,P|267:19|260:39,1,60.0000022888184,0|0,1:3|0:0,0:0:0:0:
341,80,94455,2,0,P|382:62|426:58,1,90.0000034332277,4|0,3:0|0:0,0:0:0:0:
448,62,94728,2,0,P|438:95|436:131,1,60.0000022888184,0|0,1:3|0:0,0:0:0:0:
506,245,95000,6,0,P|466:242|435:197,1,90.0000034332277,4|0,3:0|0:0,0:0:0:0:
445,196,95273,2,0,P|416:205|386:208,1,60.0000022888184,0|0,1:3|0:0,0:0:0:0:
309,312,95546,2,0,P|315:282|327:255,1,60.0000022888184,4|4,3:0|3:0,0:0:0:0:
271,136,95819,2,0,P|293:156|310:180,1,60.0000022888184,0|0,1:3|0:0,0:0:0:0:
234,239,96091,5,2,1:2:0:0:
234,239,96228,1,2,1:2:0:0:
234,239,96364,2,0,P|234:261|241:241,1,60.0000022888184,0|0,1:3|0:0,0:0:0:0:
211,343,96637,6,0,P|149:300|161:198,1,180.000006866455,4|0,3:0|0:0,0:0:0:0:
271,136,97182,2,0,P|241:136|214:107,1,60.0000022888184,4|0,3:0|0:0,0:0:0:0:
89,162,97455,2,0,P|121:138|133:83,1,90.0000034332277,0|0,1:3|0:0,0:0:0:0:
88,36,97728,1,4,3:0:0:0:
153,0,97864,1,4,3:0:0:0:
216,45,98000,2,0,P|251:51|285:60,1,60.0000022888184,0|0,1:3|0:0,0:0:0:0:
347,116,98273,5,2,1:2:0:0:
347,116,98410,1,2,1:2:0:0:
347,116,98546,2,0,P|369:116|349:109,1,60.0000022888184,0|0,1:3|0:0,0:0:0:0:
408,2,98819,6,0,B|405:85|442:25|445:124,2,120.000004577637,4|0|4,3:0|1:3|3:0,0:0:0:0:
479,172,99637,2,0,P|504:152|511:112,1,60.0000022888184,0|0,1:3|0:0,0:0:0:0:
399,173,99909,2,0,P|403:204|434:230,1,60.0000022888184,4|4,3:0|3:0,0:0:0:0:
512,317,100182,2,0,P|467:302|399:296,1,90.0000034332277,0|0,1:3|0:0,0:0:0:0:
394,366,100455,5,2,1:2:0:0:
394,366,100592,1,2,1:2:0:0:
394,366,100728,2,0,P|372:366|392:373,1,60.0000022888184,0|0,1:3|0:0,0:0:0:0:
422,224,101000,6,0,B|325:243|377:287|267:314,1,180.000006866455,4|0,3:0|0:0,0:0:0:0:
148,368,101546,2,0,P|100:346|104:268,2,120.000004577637,4|0|4,3:0|1:3|3:0,0:0:0:0:
204,277,102228,1,4,3:0:0:0:
204,277,102364,2,0,P|207:243|216:218,1,60.0000022888184,0|0,1:3|0:0,0:0:0:0:
126,163,102637,6,0,L|45:177,2,80,4|2|2,0:2|0:0|0:2,0:0:0:0:
221,75,103455,1,2,0:2:0:0:
221,75,103728,2,0,L|142:88,1,80,2|2,0:0|0:0,0:0:0:0:
19,71,104273,2,0,P|43:37|84:32,1,80,2|2,0:2|0:2,0:0:0:0:
221,75,104819,6,0,B|204:115|236:110|224:152,2,80,2|2|0,0:0|0:0|0:0,0:0:0:0:
311,19,105637,1,2,0:0:0:0:
371,146,105909,5,0,0:0:0:0:
311,19,106182,1,2,0:0:0:0:
409,73,106455,6,0,L|362:65,1,40,2|2,0:2|0:2,0:0:0:0:
467,58,106728,2,0,L|427:64,1,40,2|2,0:0|0:2,0:0:0:0:
512,0,107000,5,2,0:0:0:0:
509,128,107273,2,0,L|501:180,1,40,2|0,0:0|0:0,0:0:0:0:
481,209,107819,2,0,L|487:169,1,40,2|0,0:0|0:0,0:0:0:0:
428,116,108091,6,0,P|389:110|353:134,1,80,2|2,0:2|0:0,0:0:0:0:
283,192,108500,1,2,0:0:0:0:
283,192,108637,2,0,P|293:226|302:278,1,80,2|2,0:0|0:2,0:0:0:0:
376,333,109046,1,2,0:2:0:0:
376,333,109182,5,2,0:2:0:0:
495,278,109455,2,0,L|450:288,1,40,2|0,0:0|0:0,0:0:0:0:
446,364,109728,5,2,0:2:0:0:
383,261,110000,2,0,L|374:221,1,40,2|0,0:0|0:0,0:0:0:0:
424,165,110273,5,2,0:2:0:0:
505,63,110546,2,0,L|494:144,2,80,2|2|4,0:0|0:2|0:2,0:0:0:0:
325,34,111364,6,0,P|306:21|301:1,1,40,4|0,0:0|0:0,0:0:0:0:
402,46,111637,2,0,P|400:68|385:83,1,40,8|0,0:0|0:0,0:0:0:0:
315,136,111909,1,2,0:0:0:0:
415,216,112182,2,0,P|441:214|466:190,1,60,8|0,0:0|0:0,0:0:0:0:
478,173,112455,6,0,L|472:129,1,40,4|0,0:0|0:0,0:0:0:0:
505,65,112728,1,8,0:0:0:0:
310,2,113000,6,0,L|351:18,1,40,4|0,0:0|0:0,0:0:0:0:
389,80,113273,1,8,0:0:0:0:
248,134,113546,6,0,P|253:172|256:225,1,80,4|8,0:0|0:0,0:0:0:0:
242,304,113955,1,8,0:0:0:0:
242,304,114091,2,0,P|239:323|238:349,1,40,4|4,0:0|0:0,0:0:0:0:
321,384,114364,2,0,P|348:374|386:370,1,60,8|0,0:0|0:0,0:0:0:0:
404,363,114637,6,0,P|416:345|411:322,1,40,4|0,0:0|0:0,0:0:0:0:
352,277,114909,1,8,0:0:0:0:
507,167,115182,1,0,0:0:0:0:
507,167,115319,1,4,0:0:0:0:
434,141,115455,2,0,L|389:127,1,40,12|8,0:0|0:0,0:0:0:0:
336,54,115728,5,4,0:0:0:0:
311,179,116000,1,8,0:0:0:0:
167,144,116273,1,2,0:0:0:0:
192,19,116546,1,8,0:0:0:0:
250,111,116819,6,0,P|239:162|225:240,1,120,4|0,0:0|0:0,0:0:0:0:
136,282,117364,2,0,P|169:234|227:228,1,120,8|0,0:0|0:0,0:0:0:0:
328,346,117909,5,2,0:0:0:0:
255,319,118046,1,0,0:0:0:0:
328,346,118182,2,0,L|357:337,1,30.0000011444092,2|0,0:0|0:0,0:0:0:0:
406,280,118319,2,0,L|395:219,1,60.0000022888184
247,180,118728,1,2,0:0:0:0:
314,258,119000,6,0,P|324:198|337:140,1,120,2|2,0:0|0:0,0:0:0:0:
442,56,119409,1,0,0:0:0:0:
442,56,119478,1,2,0:0:0:0:
442,56,119546,2,0,P|412:66|382:76,1,60.0000022888184,2|0,0:0|0:0,0:0:0:0:
276,92,119819,2,0,P|252:68|260:42,1,60.0000022888184,2|0,0:0|0:0,0:0:0:0:
284,34,120023,1,0,0:0:0:0:
284,34,120091,6,0,B|205:48|242:77|164:100,1,120.000004577637,8|2,0:0|0:0,0:0:0:0:
61,0,120501,1,0,0:0:0:0:
61,0,120569,1,2,0:0:0:0:
61,0,120637,6,0,P|72:51|81:103,1,90.0000034332277,8|0,0:0|0:0,0:0:0:0:
81,108,120909,2,0,P|57:122|20:109,1,60.0000022888184,8|2,0:0|0:0,0:0:0:0:
145,221,121182,5,2,0:0:0:0:
146,206,121250,1,8,0:0:0:0:
147,190,121319,2,0,L|151:150,5,30.0000011444092,8|0|2|8|8|0,0:0|0:0|0:0|0:0|0:0|0:0,0:0:0:0:
149,89,121728,6,0,P|172:125|224:134,1,90.0000034332277,4|0,0:2|0:0,0:0:0:0:
279,99,122000,6,0,P|292:78|275:94,1,60,2|0,2:1|0:0,0:0:0:0:
289,5,122273,6,0,P|231:58|215:135,1,160,4|10,1:0|0:2,0:0:0:0:
397,251,122682,1,10,0:2:0:0:
349,196,122819,2,0,P|311:191|267:180,1,80,0|0,1:0|1:0,0:0:0:0:
206,252,123091,2,0,P|244:261|284:266,1,80,10|10,0:2|0:2,0:0:0:0:
423,174,123364,6,0,P|459:150|452:104,1,80,0|0,1:0|0:0,0:0:0:0:
289,5,123637,2,0,B|302:42|307:93,1,80,10|0,0:2|0:0,0:0:0:0:
433,247,123909,2,0,B|429:205|416:168,1,80,0|0,1:0|1:0,0:0:0:0:
215,135,124182,2,0,B|117:162|186:191|80:231,1,160,10|0,0:2|1:0,0:0:0:0:
400,317,124728,6,0,P|361:327|325:345,1,80,10|8,0:2|0:0,0:0:0:0:
371,196,125000,2,0,P|399:223|432:246,1,80,0|0,1:0|1:0,0:0:0:0:
268,288,125273,2,0,P|278:249|280:209,1,80,10|8,0:2|0:0,0:0:0:0:
236,155,125478,1,0,0:0:0:0:
236,155,125546,6,0,P|225:116|223:76,1,80,0|8,1:0|0:0,0:0:0:0:
314,15,125819,2,0,P|311:54|300:93,1,80,10|10,0:2|0:2,0:0:0:0:
149,121,126091,1,0,1:0:0:0:
91,74,126228,1,0,1:0:0:0:
33,121,126364,1,10,0:2:0:0:
88,59,126500,2,0,L|80:12,1,40,10|10,0:2|0:2,0:0:0:0:
166,20,126637,6,0,B|252:26|211:92|308:93,1,160,0|10,1:0|0:2,0:0:0:0:
452,47,127046,2,0,B|478:14|478:14|444:134,1,160,10|0,0:2|1:0,0:0:0:0:
312,189,127455,2,0,P|337:154|382:158,1,80,10|0,0:2|0:0,0:0:0:0:
508,252,127728,6,0,P|443:231|384:222,1,120,0|0,1:0|0:0,0:0:0:0:
374,220,128000,2,0,P|385:267|389:308,1,80,10|0,0:2|0:0,0:0:0:0:
512,384,128273,2,0,P|465:370|428:352,1,80,0|0,1:0|1:0,0:0:0:0:
313,325,128546,2,0,P|359:311|396:293,1,80,10|8,0:2|0:0,0:0:0:0:
118,264,128819,5,0,1:0:0:0:
24,210,128955,1,0,1:0:0:0:
118,156,129092,1,10,0:2:0:0:
212,211,129228,2,0,P|251:222|291:228,1,80,8|0,0:0|1:0,0:0:0:0:
118,273,129501,5,0,1:0:0:0:
56,312,129637,1,10,0:2:0:0:
123,347,129774,1,8,0:0:0:0:
238,368,129909,6,0,P|231:305|208:197,2,160,0|10|0,1:0|0:2|1:0,0:0:0:0:
355,326,130591,2,0,L|313:315,5,40,0|0|14|0|8|0,1:0|0:0|0:2|0:0|0:0|0:0,0:0:0:0:
447,352,131000,6,0,P|398:337|421:225,1,160,4|10,1:0|0:2,0:0:0:0:
479,197,131409,1,0,0:0:0:0:
479,197,131478,1,2,0:0:0:0:
479,197,131546,2,0,P|483:152|490:105,1,80,0|0,1:0|1:0,0:0:0:0:
404,2,131819,2,0,P|409:41|412:81,1,80,10|0,0:2|0:0,0:0:0:0:
402,104,132023,1,0,0:0:0:0:
402,104,132091,6,0,P|362:109|322:112,1,80,0|0,1:0|0:0,0:0:0:0:
236,249,132364,1,10,0:2:0:0:
156,285,132500,1,2,0:0:0:0:
236,249,132637,2,0,P|241:209|244:169,1,80,0|0,1:0|0:0,0:0:0:0:
179,0,132909,2,0,P|182:39|187:79,1,80,10|0,0:2|0:0,0:0:0:0:
31,168,133182,6,0,B|81:154|163:147,1,120,0|0,1:0|0:0,0:0:0:0:
169,146,133455,2,0,P|195:115|184:74,1,80,10|0,0:2|0:0,0:0:0:0:
29,0,133728,1,0,1:0:0:0:
103,55,133864,1,0,1:0:0:0:
179,0,134000,1,10,0:2:0:0:
261,64,134137,2,0,L|301:70,1,40,8|0,0:2|0:0,0:0:0:0:
373,31,134273,6,0,B|408:3|408:3|359:131,1,160,0|10,1:0|0:2,0:0:0:0:
481,369,134819,2,0,P|488:322|506:283,1,80,0|0,1:0|1:0,0:0:0:0:
443,217,135091,2,0,L|397:226,3,40,10|0|4|0,0:2|0:0|0:2|0:0,0:0:0:0:
354,291,135364,6,0,P|314:269|321:196,1,120,4|0,1:0|0:0,0:0:0:0:
327,192,135637,1,8,0:0:0:0:
366,110,135773,1,2,0:0:0:0:
271,138,135909,2,0,P|213:118|152:112,1,120,8|0,0:0|0:0,0:0:0:0:
137,110,136182,1,8,0:0:0:0:
224,201,136319,1,2,0:0:0:0:
90,237,136455,6,0,P|106:207|148:199,1,80,8|8,0:0|0:0,0:0:0:0:
24,157,136728,6,0,P|76:167|171:213,1,132.00000402832,4|0,1:2|0:0,0:0:0:0:
224,201,137000,6,0,P|155:209|119:268,1,132.00000402832,4|0,1:2|0:0,0:0:0:0:
170,315,137273,6,0,B|221:329|221:329|233:361|233:361|299:374,1,132.00000402832,12|0,0:2|0:0,0:0:0:0:
351,378,137546,6,0,P|339:301|317:208,2,160,4|8|0,1:0|0:2|1:0,0:0:0:0:
504,371,138228,1,0,0:0:0:0:
412,259,138364,1,8,0:2:0:0:
459,203,138500,1,0,0:0:0:0:
443,323,138637,6,0,P|432:257|414:178,1,120,0|0,1:0|0:0,0:0:0:0:
421,205,138909,1,8,0:2:0:0:
306,153,139046,6,0,P|295:87|277:8,1,120,0|0,1:0|0:0,0:0:0:0:
284,35,139318,1,0,1:0:0:0:
401,0,139455,2,0,P|402:42|369:68,1,80,8|0,0:2|1:0,0:0:0:0:
218,92,139728,6,0,P|166:70|93:54,1,120,0|0,1:0|0:0,0:0:0:0:
86,50,140000,1,8,0:2:0:0:
107,170,140137,2,0,L|97:125,2,40,2|2|0,0:0|0:0|1:0,0:0:0:0:
125,238,140409,1,0,1:0:0:0:
161,384,140546,2,0,L|139:287,1,80,8|0,0:2|1:0,0:0:0:0:
7,260,140819,6,0,P|70:244|138:237,1,120,0|0,1:0|0:0,0:0:0:0:
125,238,141091,1,8,0:2:0:0:
221,297,141228,6,0,P|284:281|352:274,1,120,0|0,1:0|0:0,0:0:0:0:
338,274,141500,2,0,L|328:226,1,40,0|2,1:0|0:0,0:0:0:0:
313,165,141637,1,8,0:2:0:0:
387,110,141773,1,8,0:2:0:0:
464,208,141909,6,0,P|422:194|384:190,1,80,0|0,1:0|1:0,0:0:0:0:
266,112,142182,1,8,0:2:0:0:
266,112,142319,2,0,P|209:94|220:-1,1,160,0|0,1:0|1:0,0:0:0:0:
359,22,142728,2,0,P|319:26|281:39,1,80,8|2,0:2|0:0,0:0:0:0:
266,112,142932,1,0,0:0:0:0:
266,112,143000,6,0,P|198:118|133:140,1,120,0|2,1:0|0:0,0:0:0:0:
148,133,143273,1,8,0:2:0:0:
48,116,143409,2,0,B|55:223|112:157|122:265,1,160,0|0,0:0|1:0,0:0:0:0:
52,286,143819,2,0,L|10:273,3,40,8|2|2|2,0:2|0:0|0:0|0:0,0:0:0:0:
120,250,144091,6,0,L|234:225,1,80,0|0,1:0|1:0,0:0:0:0:
297,212,144364,1,8,0:2:0:0:
221,161,144500,2,0,L|216:118,2,40,2|2|0,0:0|0:0|1:0,0:0:0:0:
198,232,144773,1,0,1:0:0:0:
262,294,144909,2,0,L|183:311,1,80,8|8,0:2|0:2,0:0:0:0:
297,212,145182,6,0,P|345:218|367:321,2,160,0|8|0,1:0|0:2|1:0,0:0:0:0:
375,148,145864,1,0,1:0:0:0:
297,212,146000,2,0,L|218:194,1,80,12|0,0:2|0:0,0:0:0:0:
94,71,146273,6,0,B|57:81|57:81|184:120,2,160,4|8|0,1:0|0:2|1:0,0:0:0:0:
194,0,146955,1,0,1:0:0:0:
282,34,147091,2,0,L|264:112,1,80,8|0,0:2|0:0,0:0:0:0:
218,194,147364,2,0,L|184:346,1,120,0|0,1:0|0:0,0:0:0:0:
186,339,147637,1,8,0:2:0:0:
296,384,147773,2,0,L|329:231,1,120,8|0,0:2|0:0,0:0:0:0:
328,240,148046,1,0,1:0:0:0:
264,112,148182,6,0,P|280:150|322:164,1,80,8|8,0:2|0:2,0:0:0:0:
381,77,148455,2,0,P|438:60|497:51,1,120,0|0,1:0|0:0,0:0:0:0:
509,39,148728,1,8,0:2:0:0:
457,128,148864,2,0,L|463:167,2,40,0|2|0,0:0|0:0|1:0,0:0:0:0:
435,26,149137,1,0,1:0:0:0:
360,80,149273,2,0,L|270:93,1,80,8|0,0:2|1:0,0:0:0:0:
173,39,149546,6,0,P|219:49|228:156,2,160,0|8|0,1:0|0:2|1:0,0:0:0:0:
51,79,150228,1,0,1:0:0:0:
51,79,150364,2,0,P|64:38|68:-7,1,80,8|0,0:2|1:0,0:0:0:0:
150,119,150637,6,0,B|59:136|106:182|4:199,1,160,4|8,1:0|0:2,0:0:0:0:
119,307,151046,1,2,0:0:0:0:
119,307,151114,1,0,0:0:0:0:
119,307,151182,2,0,P|132:266|136:221,1,80,0|0,1:0|1:0,0:0:0:0:
236,147,151455,2,0,P|289:156|378:180,1,120,8|0,0:2|0:0,0:0:0:0:
383,180,151728,5,0,1:0:0:0:
449,246,151864,1,0,1:0:0:0:
360,281,152000,2,0,P|314:269|267:261,1,80,8|8,0:2|0:2,0:0:0:0:
136,229,152273,2,0,P|86:204|118:127,1,120,0|0,1:0|0:0,0:0:0:0:
102,129,152546,2,0,P|109:89|119:51,1,80,8|0,0:2|0:0,0:0:0:0:
311,32,152819,6,0,B|252:21|252:21|210:67,1,120,0|0,1:0|0:0,0:0:0:0:
205,83,153091,1,8,0:2:0:0:
276,188,153228,2,0,P|293:98|316:10,1,160,8|0,0:2|1:0,0:0:0:0:
404,12,153637,1,8,0:2:0:0:
499,43,153773,1,2,0:0:0:0:
499,43,153841,1,2,0:0:0:0:
499,43,153909,6,0,P|481:111|468:180,1,120,0|0,1:0|0:0,0:0:0:0:
405,182,154182,6,0,P|463:181|498:228,1,120,8|0,0:2|0:0,0:0:0:0:
512,298,154455,6,0,B|469:310|469:310|459:339|459:339|412:353,1,120,0|0,1:0|0:0,0:0:0:0:
345,315,154728,6,0,B|319:289|319:289|350:375,1,120,12|0,0:2|0:0,0:0:0:0:
347,367,155000,5,6,0:2:0:0:
347,367,163728,6,0,L|293:355,1,40,8|0,0:0|0:0,0:0:0:0:
247,284,164000,2,0,L|264:205,2,80,2|8|2,0:0|0:0|0:0,0:0:0:0:
137,373,164819,6,0,L|191:361,1,40,8|0,0:0|0:0,0:0:0:0:
247,284,165091,1,2,0:0:0:0:
203,153,165364,6,0,L|186:205,1,40,8|0,0:0|0:0,0:0:0:0:
247,284,165636,1,2,0:0:0:0:
247,284,165909,6,0,P|281:273|328:269,2,80,8|0|8,0:0|0:0|0:0,0:0:0:0:
126,237,166728,1,2,0:0:0:0:
126,237,166864,2,0,P|89:220|91:178,1,80,8|8,0:0|0:0,0:0:0:0:
161,119,167273,2,0,L|155:71,1,40,2|0,0:0|0:0,0:0:0:0:
91,35,167546,2,0,P|59:46|54:80,2,60,8|0|2,0:0|0:0|0:0,0:0:0:0:
156,79,168091,6,0,P|191:67|239:60,1,80,8|2,0:0|0:0,0:0:0:0:
363,104,168637,2,0,P|323:109|285:122,1,80,8|0,0:0|0:0,0:0:0:0:
253,263,169182,2,0,P|240:225|234:185,1,80,8|2,0:0|0:0,0:0:0:0:
323,28,169728,1,10,0:2:0:0:
285,122,170000,1,2,0:0:0:0:
208,104,170273,5,4,0:2:0:0:
256,192,170341,12,0,172182,0:0:0:0:
256,192,172455,6,0,L|269:81,1,90.0000034332277,8|2,0:0|0:0,0:0:0:0:
253,51,172728,2,0,L|242:140,1,90.0000034332277,2|2,0:0|0:0,0:0:0:0:
180,178,173000,6,0,L|69:165,1,90.0000034332277,2|2,0:0|0:0,0:0:0:0:
39,181,173273,2,0,L|128:191,1,90.0000034332277,2|2,0:0|0:0,0:0:0:0:
177,254,173546,6,0,P|190:295|169:342,1,90.0000034332277,2|2,0:0|0:0,0:0:0:0:
114,356,173819,2,0,P|155:339|197:352,1,90.0000034332277,2|2,0:0|0:0,0:0:0:0:
264,384,174091,6,0,L|365:366,1,90.0000034332277,2|2,0:0|0:0,0:0:0:0:
406,317,174364,2,0,L|507:299,1,90.0000034332277,2|2,0:0|0:0,0:0:0:0:
512,231,174637,5,2,2:2:0:0:
508,75,175728,6,0,L|357:97,1,143.999995605469,4|4,1:0|1:2,1:0:0:0:
157,40,176273,2,0,L|299:19,1,143.999995605469,4|4,1:2|1:2,1:0:0:0:
365,95,176682,1,2,0:2:0:0:
365,95,176750,1,0,0:0:0:0:
365,95,176819,6,0,P|396:144|388:235,1,143.999995605469,4|4,1:2|1:2,0:0:0:0:
220,383,177364,2,0,P|189:334|197:243,1,143.999995605469,4|4,1:2|1:2,0:0:0:0:
286,197,177773,1,2,0:2:0:0:
286,197,177841,1,0,0:0:0:0:
286,197,177909,6,0,B|206:204|246:132|143:139,1,143.999995605469,4|4,1:2|1:2,0:0:0:0:
0,69,178455,2,0,B|80:76|40:4|143:11,1,143.999995605469,4|4,1:2|1:2,0:0:0:0:
208,62,178864,1,2,0:2:0:0:
208,62,178932,1,0,0:0:0:0:
208,62,179000,6,0,B|274:32|274:32|326:82,1,143.999995605469,4|4,1:2|1:2,0:0:0:0:
380,161,179546,2,0,B|314:191|314:191|262:141,1,143.999995605469,4|4,1:2|1:2,0:0:0:0:
249,62,179955,1,8,0:0:0:0:
249,62,180023,1,0,2:0:0:0:
249,62,180091,6,0,B|223:39|223:39|266:153,1,143.999995605469,10|12,0:0|0:2,0:0:0:0:
301,197,180500,2,0,P|271:145|181:163,1,143.999995605469,4|8,1:0|0:0,0:0:0:0:
94,239,180909,2,0,P|128:227|182:221,1,71.9999978027344,8|8,0:2|0:2,0:0:0:0:
304,182,181182,6,0,B|359:188|336:224|404:235,1,107.999996704102,0|0,1:0|0:0,0:0:0:0:
413,234,181455,2,0,P|440:206|433:170,1,71.9999978027344,10|0,0:2|0:0,0:0:0:0:
459,116,181728,2,0,P|432:144|439:180,1,71.9999978027344,0|0,1:0|1:0,0:0:0:0:
504,248,182000,2,0,P|489:302|482:369,1,107.999996704102,10|0,0:2|0:0,0:0:0:0:
478,375,182273,5,0,1:0:0:0:
384,352,182409,1,0,1:0:0:0:
290,329,182546,1,10,0:2:0:0:
313,235,182682,2,0,L|332:156,1,71.9999978027344,8|0,0:0|1:0,0:0:0:0:
287,341,182955,5,0,1:0:0:0:
216,358,183092,1,10,0:2:0:0:
145,375,183228,1,8,0:0:0:0:
40,324,183364,6,0,P|100:308|113:217,2,143.999995605469,0|10|0,1:0|0:2|1:0,0:0:0:0:
0,264,184046,2,0,L|4:228,5,35.9999989013672,0|0|14|0|8|0,1:0|0:0|0:2|0:0|0:0|0:0,0:0:0:0:
40,324,184455,6,0,B|124:319|84:274|188:258,1,160,4|10,1:0|0:2,0:0:0:0:
276,315,184864,1,0,0:0:0:0:
276,315,184932,1,0,0:0:0:0:
276,315,185000,2,0,P|279:237|301:131,1,160,0|10,1:0|0:2,0:0:0:0:
269,4,185409,1,0,0:0:0:0:
269,4,185478,1,0,0:0:0:0:
269,4,185546,6,0,P|264:42|331:91,1,120,0|0,1:0|0:0,0:0:0:0:
336,89,185819,2,0,P|370:78|418:71,1,80,10|0,0:2|0:0,0:0:0:0:
511,193,186091,2,0,P|477:182|429:175,1,80,0|0,1:0|0:0,0:0:0:0:
314,211,186364,2,0,P|234:224|158:249,1,160,10|0,0:2|1:0,0:0:0:0:
159,248,186909,6,0,B|186:189|136:200|170:125,1,120,10|0,0:2|0:0,0:0:0:0:
178,116,187182,1,0,1:0:0:0:
53,3,187319,1,0,1:0:0:0:
53,3,187455,2,0,P|62:42|69:85,1,80,10|8,0:2|0:2,0:0:0:0:
0,99,187659,1,8,0:2:0:0:
0,99,187728,6,0,P|73:104|73:176,1,160,0|10,1:0|0:2,0:0:0:0:
277,270,188273,1,0,1:0:0:0:
202,225,188409,1,0,1:0:0:0:
299,155,188546,2,0,L|257:165,3,40,10|0|4|0,0:2|0:0|0:2|0:0,0:0:0:0:
317,150,188819,6,0,L|326:56,1,80,4|2,1:0|0:0,0:0:0:0:
334,1,189023,1,0,0:0:0:0:
334,1,189091,1,8,0:0:0:0:
466,167,189228,6,0,L|372:158,1,80,2|8,0:0|0:0,0:0:0:0:
317,150,189432,1,8,0:0:0:0:
317,150,189500,1,2,0:0:0:0:
483,8,189637,6,0,L|475:88,1,80,8|8,0:0|0:0,0:0:0:0:
466,167,189841,1,8,0:0:0:0:
466,167,189909,6,0,L|457:253,1,80,8|8,0:0|0:0,0:0:0:0:
504,299,190182,6,0,B|475:265|441:280|441:280|417:251|373:262,1,132.00000402832,4|0,1:2|0:0,0:0:0:0:
344,189,190455,6,0,B|308:153|263:159|263:159|251:181|263:206,1,132.00000402832,4|0,1:2|0:0,0:0:0:0:
303,266,190728,6,0,B|230:276|260:309|170:333,1,132.00000402832,12|0,0:2|0:0,0:0:0:0:
141,380,191000,6,0,P|150:314|173:199,2,160,4|8|2,1:0|0:2|0:0,0:0:0:0:
35,323,191682,1,0,0:0:0:0:
9,188,191819,1,8,0:2:0:0:
66,233,191955,1,2,0:0:0:0:
112,169,192091,6,0,P|118:121|135:37,1,120,0|0,1:0|0:0,0:0:0:0:
137,29,192364,1,8,0:2:0:0:
259,0,192500,6,0,P|252:47|235:131,1,120,0|0,1:0|1:0,0:0:0:0:
234,140,192773,1,0,1:0:0:0:
300,200,192909,2,0,P|343:186|387:181,1,80,8|0,0:2|0:0,0:0:0:0:
460,266,193182,2,0,P|411:225|372:173,1,120,0|0,1:0|0:0,0:0:0:0:
372,161,193455,1,8,0:2:0:0:
439,103,193591,2,0,L|453:60,2,40,8|0|0,0:2|0:0|1:0,0:0:0:0:
366,76,193864,1,0,1:2:0:0:
293,49,194000,2,0,L|201:12,1,80,8|8,0:2|0:2,0:0:0:0:
79,146,194273,6,0,P|127:146|154:75,1,120,0|0,1:0|0:0,0:0:0:0:
159,63,194546,1,8,0:2:0:0:
80,0,194682,6,0,P|32:0|5:71,1,120,0|2,1:0|0:0,0:0:0:0:
1,85,194955,2,0,L|10:137,1,40,0|0,1:0|0:0,0:0:0:0:
21,197,195091,1,8,0:2:0:0:
109,249,195228,1,0,0:0:0:0:
189,188,195364,6,0,L|277:206,1,80,4|0,1:2|1:0,0:0:0:0:
380,141,195637,1,8,0:2:0:0:
380,141,195773,2,0,L|341:327,1,160,0|0,1:0|1:0,0:0:0:0:
240,354,196182,2,0,L|161:337,1,80,8|8,0:2|0:2,0:0:0:0:
347,297,196455,6,0,L|425:313,1,80,0|0,1:0|0:0,0:0:0:0:
451,323,196659,1,2,0:0:0:0:
451,323,196728,1,8,0:2:0:0:
481,218,196864,2,0,P|451:144|373:144,1,160,0|0,1:0|1:0,0:0:0:0:
251,175,197273,2,0,L|210:162,3,40,8|2|2|2,0:2|0:0|0:0|0:0,0:0:0:0:
275,175,197546,6,0,P|274:128|267:92,1,80,0|0,1:0|0:0,0:0:0:0:
252,20,197819,1,8,0:2:0:0:
153,79,197955,2,0,L|191:66,2,40,4|2|0,0:2|0:0|1:0,0:0:0:0:
253,9,198228,1,0,1:0:0:0:
344,119,198364,2,0,L|254:90,1,80,8|0,0:2|1:0,0:0:0:0:
144,1,198637,6,0,P|88:28|82:123,2,160,0|8|0,1:0|0:2|1:0,0:0:0:0:
191,66,199319,1,0,1:0:0:0:
142,152,199455,2,0,P|156:203|160:234,1,80,12|0,0:2|1:0,0:0:0:0:
175,302,199728,5,8,0:0:0:0:
177,312,199796,1,8,0:0:0:0:
179,322,199864,1,8,0:0:0:0:
181,332,199932,1,8,0:0:0:0:
184,342,200000,1,8,0:2:0:0:
59,384,200137,6,0,P|117:379|176:276,1,160,4|0,1:0|1:0,0:0:0:0:
268,185,200546,1,8,0:2:0:0:
174,211,200682,1,0,0:0:0:0:
174,211,200750,1,2,0:0:0:0:
174,211,200819,6,0,P|126:206|78:122,1,120,0|0,1:0|0:0,0:0:0:0:
80,131,201091,1,8,0:2:0:0:
199,110,201228,6,0,P|246:105|294:21,1,120,8|0,0:2|0:0,0:0:0:0:
293,30,201500,1,0,1:0:0:0:
139,13,201637,1,8,0:2:0:0:
184,106,201773,1,0,0:0:0:0:
240,222,201909,6,0,L|358:179,1,120,0|0,1:0|0:0,0:0:0:0:
375,174,202182,1,8,0:2:0:0:
433,102,202319,2,0,L|418:63,2,40,2|2|0,0:0|0:0|1:0,0:0:0:0:
511,150,202591,1,0,1:0:0:0:
511,150,202728,2,0,L|503:235,1,80,8|8,0:2|0:2,0:0:0:0:
505,334,203000,6,0,P|462:292|391:300,1,120,0|0,1:0|0:0,0:0:0:0:
379,314,203273,2,0,P|342:302|284:295,1,80,8|0,0:2|0:0,0:0:0:0:
186,171,203546,1,0,1:0:0:0:
240,222,203682,1,0,1:0:0:0:
180,273,203819,1,8,0:2:0:0:
232,359,203955,1,0,0:0:0:0:
232,359,204091,6,0,P|246:292|284:197,1,160,4|8,1:2|0:2,0:0:0:0:
186,171,204500,2,0,P|172:104|134:9,1,160,2|0,0:0|1:0,0:0:0:0:
234,45,204909,2,0,P|270:59|342:68,1,80,8|8,0:2|0:2,0:0:0:0:
394,23,205182,5,0,1:0:0:0:
456,101,205319,2,0,P|468:106|480:109,3,26.6666666666667,0|0|0|8,1:0|0:0|0:2|0:2,0:0:0:0:
369,149,205591,1,8,0:2:0:0:
438,217,205728,2,0,P|421:272|407:342,1,120,0|0,1:0|0:0,0:0:0:0:
407,356,206000,2,0,P|442:357|485:333,1,80,8|0,0:2|0:0,0:0:0:0:
339,220,206273,6,0,B|247:237|307:273|209:304,1,160,4|8,1:2|0:2,0:0:0:0:
51,270,206682,2,0,P|59:199|136:200,1,160,0|0,0:0|1:0,0:0:0:0:
125,346,207091,2,0,P|132:301|155:253,1,80,8|2,0:2|0:0,0:0:0:0:
210,224,207296,1,2,0:0:0:0:
210,224,207364,2,0,P|204:184|189:147,1,80,0|10,1:0|0:2,0:0:0:0:
0,75,207637,6,0,P|59:97|134:110,1,120,8|0,0:2|0:0,0:0:0:0:
134,93,207909,2,0,P|139:53|154:16,1,80,0|0,1:0|1:0,0:0:0:0:
266,0,208182,2,0,P|251:37|245:76,1,80,8|10,0:2|0:2,0:0:0:0:
265,99,208387,1,0,0:0:0:0:
265,99,208455,6,0,B|353:109|323:50|417:52,1,160,4|8,1:0|0:2,0:0:0:0:
512,174,208864,2,0,P|477:156|436:150,1,80,8|0,0:0|1:0,0:0:0:0:
367,172,209137,1,0,1:0:0:0:
484,93,209273,2,0,L|462:237,1,120,8|8,0:2|0:0,0:0:0:0:
470,233,209546,6,0,L|496:271,3,40,4|0|0|0,1:2|0:0|1:0|0:0,0:0:0:0:
446,324,209819,2,0,L|441:369,3,40,8|0|4|0,0:2|0:0|1:0|0:0,0:0:0:0:
368,357,210091,2,0,L|335:389,3,40,4|0|0|0,1:2|0:0|1:2|0:0,0:0:0:0:
269,357,210364,5,12,0:2:0:0:
254,353,210432,1,0,0:0:0:0:
240,350,210500,1,0,1:2:0:0:
225,347,210568,1,0,1:0:0:0:
209,345,210637,6,0,L|232:217,2,120.000004577637,0|10|0,1:0|0:2|1:0,0:0:0:0:
118,377,211319,1,0,1:0:0:0:
118,377,211455,2,0,L|47:358,1,60.0000022888184,10|0,0:2|0:0,0:0:0:0:
165,277,211728,6,0,P|209:263|227:198,1,90.0000034332277,0|0,1:0|0:0,0:0:0:0:
219,202,212000,2,0,L|228:123,1,60.0000022888184,10|0,0:2|0:0,0:0:0:0:
165,19,212273,2,0,L|171:78,1,60.0000022888184,0|0,1:0|1:0,0:0:0:0:
317,142,212546,2,0,L|273:75,1,60.0000022888184,10|0,0:2|0:0,0:0:0:0:
84,183,212819,2,0,L|150:139,1,60.0000022888184,0|0,1:0|0:0,0:0:0:0:
291,0,213091,2,0,L|240:33,1,60.0000022888184,10|0,0:2|0:0,0:0:0:0:
90,242,213364,2,0,L|83:182,1,60.0000022888184,0|0,1:0|1:0,0:0:0:0:
0,0,213637,2,0,L|10:88,1,60.0000022888184,10|0,0:2|0:0,0:0:0:0:
16,137,213909,5,0,1:0:0:0:
16,137,214182,6,0,P|46:141|72:177,1,60.0000022888184,10|0,0:2|0:0,0:0:0:0:
131,115,214455,2,0,P|151:137|148:181,1,60.0000022888184,0|0,1:0|1:0,0:0:0:0:
226,169,214728,2,0,P|227:199|196:231,1,60.0000022888184,10|0,0:2|0:0,0:0:0:0:
187,301,215000,6,0,P|220:259|292:251,1,120.000004577637,0|10,1:0|0:2,0:0:0:0:
364,311,215409,1,0,0:0:0:0:
364,311,215546,2,0,P|411:294|500:276,1,120.000004577637,0|10,1:0|0:2,0:0:0:0:
512,95,216091,6,0,P|453:107|396:127,1,120.000004577637,0|10,1:0|0:2,0:0:0:0:
245,5,216637,1,0,1:0:0:0:
297,51,216773,1,0,1:0:0:0:
238,98,216909,2,0,L|251:164,1,60.0000022888184,10|0,0:2|0:0,0:0:0:0:
271,234,217182,5,2,0:0:0:0:
512,384,218273,5,2,0:0:0:0:
271,234,219228,5,0,0:0:0:0:
240,303,219365,5,2,0:0:0:0:
239,168,219909,6,0,L|263:18,1,143.999995605469,2|0,0:0|0:0,0:0:0:0:
262,25,221000,6,0,L|230:38,7,30.0000011444092,2|0|2|0|2|0|2|0,0:0|0:0|0:0|0:0|0:2|0:0|0:2|0:0,0:0:0:0:
331,0,221546,5,4,0:2:0:0:
