osu file format v14

[General]
AudioFilename: audio.mp3
AudioLeadIn: 0
PreviewTime: 24452
Countdown: 0
SampleSet: Soft
StackLeniency: 1
Mode: 0
LetterboxInBreaks: 0
WidescreenStoryboard: 0

[Editor]
DistanceSpacing: 1.2
BeatDivisor: 16
GridSize: 4
TimelineZoom: 2.4

[Metadata]
Title:The Last War of Us
TitleUnicode:僕らの最終戦争
Artist:Shannon feat. GUMI & Hatsune Miku
ArtistUnicode:シャノン feat. GUMI & 初音ミク
Creator:Ryuusei Aika
Version:Reload
Source:
Tags:Vocaloid ボーカロイド Japanese Pop J-Pop JPop Bokura no Saishuu Sensou sorairokarasu Setu Shiratamamywife dahkjdas Calvaria LimeTwist 遼遼
BeatmapID:3590222
BeatmapSetID:1754382

[Difficulty]
HPDrainRate:6
CircleSize:4
OverallDifficulty:8.5
ApproachRate:9
SliderMultiplier:2.7
SliderTickRate:1

[Events]
//Background and Video events
0,0,"bg.jpg",0,0
Video,0,"video.mp4"
//Break Periods
2,143252,144336
//Storyboard Layer 0 (Background)
//Storyboard Layer 1 (Fail)
//Storyboard Layer 2 (Pass)
//Storyboard Layer 3 (Foreground)
//Storyboard Layer 4 (Overlay)
//Storyboard Sound Samples

[TimingPoints]
1015,500,4,2,1,45,1,0
1015,-200,4,2,1,45,0,0
8265,-100,4,2,1,45,0,0
8765,-200,4,2,1,45,0,0
9015,-133.333333333333,4,2,1,60,0,0
17015,-200,4,2,1,45,0,0
22765,-133.333333333333,4,2,1,45,0,0
23015,-100,4,2,1,60,0,0
24515,-100,4,2,1,55,0,0
25015,-100,4,2,1,65,0,0
28015,-200,4,2,1,65,0,0
28265,-66.6666666666667,4,2,1,65,0,0
28515,-100,4,2,1,65,0,0
32015,-66.6666666666667,4,2,1,65,0,0
32515,-100,4,2,1,65,0,0
33015,-100,4,2,2,65,0,0
37514,-200,4,2,2,65,0,0
37765,-66.6666666666667,4,2,2,65,0,0
38015,-100,4,2,2,65,0,0
40265,-66.6666666666667,4,2,2,65,0,0
40515,-100,4,2,2,65,0,0
41015,-100,4,2,2,75,0,1
45015,-100,4,2,2,60,0,0
47015,-100,4,2,2,75,0,1
49515,-100,4,2,2,75,0,0
49640,-100,4,2,2,50,0,0
50515,-200,4,2,2,50,0,0
51515,500,4,2,1,55,1,0
51515,-133.333333333333,4,2,1,55,0,0
59515,-133.333333333333,4,2,1,50,0,0
67515,-133.333333333333,4,2,1,60,0,0
75515,-200,4,2,1,45,0,0
81515,-100,4,2,1,50,0,0
81640,-100,4,2,1,10,0,0
81765,-100,4,2,1,50,0,0
81890,-100,4,2,1,10,0,0
82015,-100,4,2,1,50,0,0
82140,-100,4,2,1,10,0,0
82265,-100,4,2,1,50,0,0
82390,-100,4,2,1,10,0,0
82515,-100,4,2,1,50,0,0
82640,-100,4,2,1,10,0,0
82765,-100,4,2,1,50,0,0
82890,-100,4,2,1,50,0,0
83015,-100,4,2,1,55,0,0
83390,-100,4,2,1,65,0,0
83515,-100,4,2,1,65,0,0
90515,-66.6666666666667,4,2,1,65,0,0
91015,-100,4,2,1,65,0,0
91515,-100,4,2,2,65,0,0
98765,-66.6666666666667,4,2,2,65,0,0
99515,-100,4,2,2,75,0,1
103515,-100,4,2,2,60,0,0
105515,-100,4,2,2,75,0,1
108140,-100,4,2,2,50,0,1
108515,500,4,2,1,45,1,0
108515,-200,4,2,1,45,0,0
112515,-133.333333333333,4,2,1,50,0,0
120515,-100,4,2,1,55,0,0
124515,-200,4,2,1,55,0,0
124765,-200,4,2,1,45,0,0
128140,-133.333333333333,4,2,1,45,0,0
128515,-100,4,2,1,65,0,1
128640,-100,4,2,1,65,0,0
130515,-100,4,2,1,65,0,1
130640,-100,4,2,1,65,0,0
132515,-100,4,2,1,65,0,1
132640,-100,4,2,1,65,0,0
134515,-100,4,2,1,65,0,1
134640,-100,4,2,1,65,0,0
136515,491.803278688525,4,2,1,67,1,1
136515,-100,4,2,1,67,0,1
136637,-100,4,2,1,67,0,0
136760,-100,4,2,1,67,0,1
136883,-100,4,2,1,67,0,0
137006,461.538461538462,4,2,1,67,1,1
137006,-100,4,2,1,67,0,1
137121,-100,4,2,1,67,0,0
137236,-100,4,2,1,67,0,1
137352,-100,4,2,1,67,0,0
137467,444.444444444444,4,2,1,70,1,1
137467,-100,4,2,1,70,0,1
137578,-100,4,2,1,70,0,0
137689,-100,4,2,1,70,0,1
137800,-100,4,2,1,70,0,0
137911,428.571428571429,4,2,1,70,1,1
137911,-100,4,2,1,70,0,1
138018,-100,4,2,1,70,0,0
138125,-100,4,2,1,70,0,1
138232,-100,4,2,1,70,0,0
138339,413.793103448276,4,2,1,74,1,1
138339,-100,4,2,1,74,0,1
138442,-100,4,2,1,74,0,0
138545,-100,4,2,1,74,0,1
138649,-100,4,2,1,74,0,0
138752,400,4,2,1,74,1,1
138752,-100,4,2,1,74,0,1
138852,-100,4,2,1,74,0,0
138952,-100,4,2,1,74,0,1
139052,-100,4,2,1,74,0,0
139152,-100,4,2,1,79,0,1
139252,-100,4,2,1,79,0,0
139352,-100,4,2,1,79,0,1
139452,-100,4,2,1,79,0,0
139552,-100,4,2,1,79,0,1
139652,-100,4,2,1,79,0,0
139752,-100,4,2,1,79,0,1
139852,-100,4,2,1,79,0,0
139952,400,4,2,1,85,1,1
139952,-100,4,2,1,85,0,1
140052,-100,4,2,1,85,0,0
140152,-100,4,2,1,85,0,1
140252,-100,4,2,1,85,0,0
140352,-100,4,2,1,85,0,1
140452,-100,4,2,1,85,0,0
140552,-100,4,2,1,85,0,1
140652,-100,4,2,1,85,0,0
140752,-100,4,2,1,91,0,1
140852,-100,4,2,1,91,0,0
140952,-100,4,2,1,91,0,1
141052,-100,4,2,1,91,0,0
141152,-100,4,2,1,91,0,1
141252,-100,4,2,1,91,0,0
141352,-100,4,2,1,91,0,1
141452,-100,4,2,1,91,0,0
141552,-100,4,2,1,97,0,1
141652,-100,4,2,1,97,0,0
141752,-100,4,2,1,97,0,1
141852,-100,4,2,1,97,0,0
141952,-100,4,2,1,97,0,1
142052,-100,4,2,1,97,0,0
142152,-100,4,2,1,97,0,1
142252,-100,4,2,1,97,0,0
142352,-80,4,2,1,100,0,1
142452,-100,4,2,1,100,0,0
142552,-80,4,2,1,100,0,1
142652,-100,4,2,1,100,0,0
142752,-66.6666666666667,4,2,1,100,0,1
142852,-100,4,2,1,100,0,0
142952,-57.1428571428571,4,2,1,100,0,1
143052,-100,4,2,1,100,0,0
144686,500,4,2,1,45,1,0
145186,500,4,2,1,45,1,0
145186,-200,4,2,1,45,0,0
152186,-100,4,2,1,60,0,0
152686,-100,4,2,1,60,0,0
153186,-100,4,2,1,60,0,1
154061,-100,4,2,1,80,0,1
154186,-100,4,2,1,60,0,1
154561,-100,4,2,1,80,0,1
154686,-100,4,2,1,60,0,1
155811,-100,4,2,1,80,0,1
155936,-100,4,2,1,60,0,1
156061,-100,4,2,1,80,0,1
156186,-200,4,2,1,60,0,1
156311,-200,4,2,1,80,0,1
156436,-66.6666666666667,4,2,1,60,0,1
156561,-66.6666666666667,4,2,1,80,0,1
156686,-100,4,2,1,60,0,1
157811,-100,4,2,1,80,0,1
157936,-100,4,2,1,60,0,1
158061,-100,4,2,1,80,0,1
158186,-100,4,2,1,60,0,1
158561,-100,4,2,1,80,0,1
158686,-100,4,2,1,60,0,1
159811,-100,4,2,1,80,0,1
159936,-100,4,2,1,60,0,1
160061,-100,4,2,1,80,0,1
160186,-100,4,2,1,60,0,1
160311,-100,4,2,1,80,0,1
160436,-100,4,2,1,60,0,1
160561,-100,4,2,1,80,0,1
160686,-100,4,2,1,60,0,1
161186,-100,4,2,2,80,0,1
168561,-66.6666666666667,4,2,2,80,0,1
169186,-100,4,2,2,80,0,1
173186,-100,4,2,2,65,0,0
175186,-100,4,2,2,80,0,1
178186,-100,4,2,2,90,0,1
179811,-200,4,2,2,40,0,0
180311,-200,4,2,2,40,0,0

[Colours]
Combo1 : 128,128,0
Combo2 : 128,0,0
Combo3 : 128,64,0
Combo4 : 0,128,64

[HitObjects]
256,192,1015,6,0,L|264:125,2,67.5,6|2|14,3:0|0:0|0:3,0:0:0:0:
334,180,1640,1,0,0:0:0:0:
350,177,1765,1,2,0:0:0:0:
193,234,2015,2,0,L|126:225,1,67.5,6|0,3:0|3:0,0:0:0:0:
284,291,2515,2,0,L|350:299,1,67.5,12|2,0:3|0:0,0:0:0:0:
179,352,2890,1,2,0:0:0:0:
182,322,3015,6,0,L|191:255,1,67.5,6|2,3:0|0:0,0:0:0:0:
308,143,3515,1,14,0:3:0:0:
308,143,3640,1,2,0:0:0:0:
308,143,3765,2,0,L|299:210,1,67.5,2|6,0:0|3:0,0:0:0:0:
220,380,4265,5,2,3:2:0:0:
242,372,4390,1,2,0:0:0:0:
196,304,4515,5,12,0:3:0:0:
210,286,4640,1,2,0:0:0:0:
136,250,4765,5,2,0:0:0:0:
140,228,4890,1,2,0:0:0:0:
57,233,5015,5,6,3:0:0:0:
179,102,5265,1,0,0:0:0:0:
179,102,5390,1,0,0:0:0:0:
179,102,5515,2,0,L|231:96,1,33.75,14|0,0:3|0:0,0:0:0:0:
255,38,5765,2,0,L|296:70,1,33.75,2|0,0:0|0:0,0:0:0:0:
353,46,6015,2,0,L|360:114,1,67.5,4|0,3:0|0:0,0:0:0:0:
286,303,6515,2,0,L|278:234,1,67.5,12|2,0:3|0:0,0:0:0:0:
267,157,6890,1,2,0:0:0:0:
346,105,7015,6,0,L|349:139,1,33.75,6|0,3:0|0:0,0:0:0:0:
433,187,7265,2,0,L|436:221,1,33.75,2|0,0:0|0:0,0:0:0:0:
512,325,7515,1,14,0:3:0:0:
510,302,7640,1,2,0:0:0:0:
439,240,7765,6,0,P|408:223|361:232,1,67.5,2|6,0:0|3:0,0:0:0:0:
231,209,8140,1,0,0:0:0:0:
266,277,8265,6,0,P|323:310|390:308,1,135,0|12,0:0|0:3,0:0:0:0:
209,379,8640,1,0,0:0:0:0:
162,320,8765,2,0,P|145:320|104:338,1,33.75,2|0,0:0|0:0,0:0:0:0:
46,371,9015,6,0,L|26:246,1,101.250003862381,6|2,3:2|0:0,0:0:0:0:
124,194,9390,1,0,0:0:0:0:
124,194,9515,2,0,L|131:243,1,50.6250019311906,14|0,0:3|0:0,0:0:0:0:
169,112,9765,1,2,0:0:0:0:
184,85,9890,1,2,0:0:0:0:
208,232,10015,6,0,L|307:216,1,101.250003862381,6|2,3:0|3:0,0:0:0:0:
403,201,10390,1,2,0:0:0:0:
273,191,10515,2,0,L|322:183,1,50.6250019311906,14|0,0:3|0:0,0:0:0:0:
440,195,10765,2,0,B|461:171|461:171|442:74,1,101.250003862381,2|4,0:0|3:0,0:0:0:0:
273,299,11265,6,0,L|224:307,1,50.6250019311906,2|2,0:0|0:0,0:0:0:0:
192,313,11515,1,14,0:3:0:0:
344,292,11640,2,0,P|331:340|284:370,1,101.250003862381,2|0,0:0|0:0,0:0:0:0:
86,372,12015,6,0,L|135:364,1,50.6250019311906,6|2,3:0|0:0,0:0:0:0:
218,346,12265,1,2,3:0:0:0:
131,354,12390,2,0,L|82:362,1,50.6250019311906,2|14,0:0|0:3,0:0:0:0:
22,268,12640,1,2,0:0:0:0:
32,194,12765,1,2,0:0:0:0:
42,120,12890,1,2,0:0:0:0:
52,46,13015,6,0,P|132:42|167:106,1,151.875005793572,6|0,3:0|0:0,0:0:0:0:
90,154,13515,2,0,L|96:104,1,50.6250019311906,12|0,0:3|0:0,0:0:0:0:
227,188,13765,2,0,L|232:137,1,50.6250019311906,2|0,0:0|0:0,0:0:0:0:
358,272,14015,1,6,3:0:0:0:
363,221,14140,1,2,0:0:0:0:
368,170,14265,1,2,3:0:0:0:
373,119,14390,6,0,B|458:104|458:104|446:133,1,101.250003862381
365,195,14765,1,2,0:0:0:0:
291,207,14890,1,0,0:0:0:0:
217,219,15015,6,0,B|201:245|201:245|218:328,1,101.250003862381,6|2,3:0|0:0,0:0:0:0:
312,336,15390,1,0,0:0:0:0:
291,207,15515,2,0,L|280:157,1,50.6250019311906,14|0,0:3|0:0,0:0:0:0:
186,295,15765,2,0,L|196:344,1,50.6250019311906,2|0,0:0|0:0,0:0:0:0:
356,252,16015,6,0,B|401:241|401:241|460:265,1,101.250003862381,6|0,3:0|3:0,0:0:0:0:
173,213,16515,2,0,B|134:225|114:260|114:260|84:243|30:257,1,151.875005793572,12|0,0:3|0:0,0:0:0:0:
75,325,17015,5,6,3:2:0:0:
214,292,17515,1,8,0:0:0:0:
353,259,17931,5,0,3:0:0:0:
353,259,18015,5,0,3:0:0:0:
405,314,18265,1,0,3:0:0:0:
457,369,18515,1,8,0:0:0:0:
437,59,19015,5,0,3:0:0:0:
298,92,19515,1,8,0:0:0:0:
159,125,19931,5,0,3:0:0:0:
159,125,20015,5,0,3:0:0:0:
107,70,20265,1,0,3:0:0:0:
55,15,20515,1,8,0:0:0:0:
0,166,21015,5,0,3:0:0:0:
139,199,21515,1,8,0:0:0:0:
278,232,21931,5,0,3:0:0:0:
274,265,22015,5,0,3:0:0:0:
417,265,22265,1,0,3:0:0:0:
265,339,22515,1,8,0:0:0:0:
234,352,22640,1,0,0:0:0:0:
336,309,22765,6,0,L|347:252,1,50.6250019311906,2|0,0:0|0:0,0:0:0:0:
159,343,23015,5,2,3:0:0:0:
212,1,23265,1,2,3:0:0:0:
484,216,23515,1,8,0:0:0:0:
409,30,23765,5,0,3:0:0:0:
359,373,24015,1,0,3:0:0:0:
86,155,24265,1,0,3:0:0:0:
413,179,24515,5,10,0:0:0:0:
413,179,24640,1,2,0:0:0:0:
413,179,24765,1,2,0:0:0:0:
413,179,24890,1,2,0:0:0:0:
416,97,25015,5,6,3:2:0:0:
420,85,25140,1,2,0:0:0:0:
410,261,25265,5,2,3:0:0:0:
413,274,25390,1,2,0:0:0:0:
404,72,25515,6,1,L|388:7,1,67.5,2|2,3:0|0:0,0:0:0:0:
408,296,25765,2,1,L|428:368,1,67.5,2|0,3:0|0:0,0:0:0:0:
235,219,26015,6,0,P|302:230|351:186,1,135,2|0,3:0|3:0,0:0:0:0:
202,121,26390,1,0,0:0:0:0:
289,89,26515,6,0,L|282:157,1,67.5,2|2,3:0|0:0,0:0:0:0:
106,144,26765,2,0,L|99:212,1,67.5,2|2,3:0|0:0,0:0:0:0:
212,22,27015,2,0,L|205:90,1,67.5,2|2,3:0|0:0,0:0:0:0:
29,77,27265,2,0,L|22:145,1,67.5,2|2,3:0|0:0,0:0:0:0:
106,359,27515,5,2,3:0:0:0:
110,367,27640,1,2,0:0:0:0:
106,233,27765,5,2,3:0:0:0:
110,225,27890,1,2,0:0:0:0:
232,296,28015,6,0,P|245:281|246:261,1,33.75,2|0,3:0|0:0,0:0:0:0:
191,195,28265,6,0,P|240:197|286:165,1,101.250003862381,0|0,3:0|0:0,0:0:0:0:
380,91,28515,21,10,0:0:0:0:
372,83,28640,1,2,3:0:0:0:
264,131,28765,5,10,0:0:0:0:
240,123,28890,1,2,0:0:0:0:
164,199,29015,5,2,3:0:0:0:
132,203,29140,1,2,0:0:0:0:
104,306,29265,5,2,3:0:0:0:
75,328,29390,1,2,0:0:0:0:
176,278,29515,6,0,P|180:316|163:354,1,67.5,2|0,3:0|0:0,0:0:0:0:
32,332,29765,2,0,P|28:294|45:256,1,67.5,2|0,3:0|0:0,0:0:0:0:
72,116,30015,6,0,B|86:204|86:204|110:220|120:267,2,135,2|0|2,3:0|3:0|3:0,0:0:0:0:
191,206,30640,1,2,0:0:0:0:
52,281,30765,2,0,L|62:199,1,67.5,2|0,3:0|0:0,0:0:0:0:
50,37,31015,6,0,B|102:30|129:60|129:60|187:67,1,135,2|2,3:0|3:0,0:0:0:0:
306,142,31390,1,2,0:0:0:0:
247,32,31515,2,0,B|265:127|214:85|239:186,1,135,2|2,3:0|3:0,0:0:0:0:
311,321,31890,1,0,0:0:0:0:
174,275,32015,6,0,L|272:297,1,101.250003862381,2|0,3:0|0:0,0:0:0:0:
481,255,32265,2,0,L|383:233,1,101.250003862381,0|0,3:0|0:0,0:0:0:0:
308,226,32515,5,2,3:0:0:0:
308,226,32640,1,2,1:0:0:0:
308,226,32765,1,2,3:0:0:0:
308,226,32890,1,2,1:0:0:0:
286,144,33015,5,6,3:2:0:0:
282,129,33140,1,2,0:0:0:0:
329,308,33265,5,10,0:0:0:0:
333,323,33390,1,2,0:0:0:0:
152,264,33515,6,0,L|144:331,1,67.5,2|0,3:0|0:0,0:0:0:0:
325,293,33765,2,0,L|333:226,1,67.5,10|0,0:0|0:0,0:0:0:0:
171,125,34015,6,0,B|151:136|151:136|139:247,1,135,2|8,3:0|0:0,0:0:0:0:
187,367,34390,1,0,0:0:0:0:
254,303,34515,37,2,3:0:0:0:
246,311,34640,1,2,0:0:0:0:
138,263,34765,5,10,0:0:0:0:
114,271,34890,1,2,0:0:0:0:
38,195,35015,5,2,3:0:0:0:
6,191,35140,1,2,0:0:0:0:
74,63,35265,5,10,0:0:0:0:
39,36,35390,1,2,0:0:0:0:
180,0,35515,6,0,P|249:10|225:58,1,135,2|10,3:0|0:0,0:0:0:0:
109,90,35890,1,0,0:0:0:0:
206,82,36015,2,0,L|277:99,1,67.5,2|0,3:0|0:0,0:0:0:0:
436,225,36265,2,0,L|370:209,1,67.5,8|0,0:0|0:0,0:0:0:0:
202,292,36515,5,2,3:0:0:0:
185,302,36640,1,2,3:0:0:0:
318,191,36765,5,10,0:0:0:0:
336,202,36890,1,2,0:0:0:0:
174,209,37015,5,2,3:0:0:0:
156,220,37140,1,2,0:0:0:0:
289,108,37265,5,10,0:0:0:0:
307,119,37390,1,2,0:0:0:0:
154,108,37514,6,1,P|140:93|144:55,1,33.75,2|2,3:0|0:0,0:0:0:0:
142,64,37765,6,1,L|245:50,1,101.250003862381,10|0,0:0|0:0,0:0:0:0:
512,92,38015,6,1,L|371:111,2,135,2|8|2,3:0|0:0|3:0,0:0:0:0:
255,126,38640,1,2,0:0:0:0:
268,212,38765,2,1,L|258:145,1,67.5,10|2,0:0|0:0,0:0:0:0:
87,293,39015,6,0,B|100:254|68:202|68:202|81:159,1,135,2|10,3:0|0:0,0:0:0:0:
175,82,39390,1,2,0:0:0:0:
59,65,39515,1,2,3:0:0:0:
43,181,39640,1,2,0:0:0:0:
158,197,39765,2,0,L|224:205,1,67.5,10|2,0:0|0:0,0:0:0:0:
122,24,40015,5,0,3:0:0:0:
147,102,40140,1,2,0:0:0:0:
171,180,40265,2,0,L|290:194,1,101.250003862381,10|0,0:0|0:0,0:0:0:0:
387,356,40515,6,0,L|271:342,1,101.25,2|0,3:0|3:0,0:0:0:0:
286,343,40765,2,0,L|218:334,1,67.5,10|2,0:0|0:0,0:0:0:0:
378,253,41015,6,0,P|420:213|394:110,1,135,6|10,3:2|0:0,0:0:0:0:
357,91,41390,1,0,0:0:0:0:
362,228,41515,2,0,L|442:219,1,67.5,2|0,3:0|0:0,0:0:0:0:
505,213,41765,1,10,0:0:0:0:
343,80,41890,2,0,L|189:93,1,135,2|2,0:0|0:0,0:0:0:0:
419,139,42265,2,0,L|499:130,1,67.5,10|0,0:0|0:0,0:0:0:0:
200,108,42515,2,0,L|334:96,1,135,2|8,3:0|0:0,0:0:0:0:
405,59,42890,5,2,0:0:0:0:
276,192,43015,2,0,B|259:242|259:242|301:280|316:336|277:390,1,202.5,2|2,3:0|0:0,0:0:0:0:
222,321,43515,2,0,P|292:297|357:327,1,135,2|10,3:0|0:0,0:0:0:0:
173,381,43890,2,0,P|152:355|144:323,1,67.5,2|2,0:0|3:0,0:0:0:0:
135,154,44140,1,2,0:0:0:0:
213,156,44265,2,0,P|207:186|171:220,1,67.5,10|0,0:0|0:0,0:0:0:0:
38,290,44515,5,0,3:0:0:0:
38,290,44640,1,2,0:0:0:0:
23,215,44765,1,10,0:0:0:0:
8,140,44890,1,2,0:0:0:0:
122,39,45015,6,0,B|154:63|154:63|133:195,1,135,6|10,3:2|0:0,0:0:0:0:
120,259,45390,1,10,0:0:0:0:
215,171,45515,2,0,B|281:181,1,67.5,2|2,3:0|3:0,0:0:0:0:
453,89,45765,2,0,B|387:79,1,67.5,10|2,0:0|0:0,0:0:0:0:
238,146,46015,5,2,3:0:0:0:
264,150,46140,1,2,0:0:0:0:
442,252,46265,5,10,0:0:0:0:
432,227,46390,1,2,0:0:0:0:
368,166,46515,6,0,B|347:299,1,135,2|10,3:0|0:0,0:0:0:0:
405,361,46890,1,2,0:0:0:0:
319,306,47015,6,0,B|329:239,1,67.5,10|0,0:0|0:0,0:0:0:0:
86,302,47265,2,0,B|142:340|142:340|227:325,1,135,10|10,0:0|0:0,0:0:0:0:
292,313,47640,1,2,0:0:0:0:
185,245,47765,2,0,B|129:207,1,67.5,10|2,0:0|0:0,0:0:0:0:
34,54,48015,6,0,B|90:92,1,67.5,10|2,0:0|0:0,0:0:0:0:
150,0,48265,2,0,B|179:55,1,67.5,10|0,0:0|0:0,0:0:0:0:
279,2,48515,2,0,B|274:69,1,67.5,10|0,0:0|0:0,0:0:0:0:
377,86,48765,5,8,0:0:0:0:
349,128,48890,1,8,0:0:0:0:
444,187,49015,5,8,0:0:0:0:
383,215,49140,1,0,3:0:0:0:
452,317,49265,5,8,0:0:0:0:
367,310,49390,1,0,3:0:0:0:
505,159,49515,5,4,3:2:0:0:
256,192,50515,2,0,L|252:221,5,22.5
256,192,51515,6,0,B|267:256|267:256|282:266|299:316,1,101.250003862381,4|2,3:2|0:0,0:0:0:0:
324,355,51890,1,2,0:0:0:0:
239,336,52015,2,0,L|250:287,1,50.6250019311906,14|0,0:3|0:0,0:0:0:0:
151,310,52265,2,0,L|140:359,1,50.6250019311906,2|0,0:0|0:0,0:0:0:0:
41,382,52515,2,0,L|52:333,1,50.6250019311906,6|0,3:0|0:0,0:0:0:0:
0,254,52765,5,2,0:0:0:0:
15,178,52890,1,2,0:0:0:0:
30,102,53015,1,14,0:3:0:0:
183,211,53265,5,2,0:0:0:0:
194,154,53390,1,2,0:0:0:0:
205,97,53515,1,6,3:0:0:0:
80,243,53765,6,0,L|69:188,1,50.6250019311906,2|0,0:0|0:0,0:0:0:0:
129,44,54015,2,0,B|103:87|103:87|126:141,1,101.250003862381,14|2,0:3|0:0,0:0:0:0:
223,161,54390,1,0,0:0:0:0:
299,147,54515,2,0,L|349:138,1,50.6250019311906,6|0,3:0|0:0,0:0:0:0:
478,115,54765,5,2,0:0:0:0:
511,127,54890,1,2,0:0:0:0:
454,191,55015,5,14,0:3:0:0:
476,217,55140,1,2,0:0:0:0:
394,245,55265,6,0,L|405:308,1,50.6250019311906,2|0,0:0|0:0,0:0:0:0:
315,262,55515,5,4,3:0:0:0:
226,110,55765,5,2,0:0:0:0:
207,185,55890,1,2,0:0:0:0:
188,260,56015,2,0,B|116:270|116:270|88:260,1,101.250003862381,14|2,0:3|0:0,0:0:0:0:
247,352,56390,1,0,0:0:0:0:
284,345,56515,2,0,B|356:335|356:335|382:344,1,101.250003862381,6|2,3:0|0:0,0:0:0:0:
400,171,56890,1,2,0:0:0:0:
331,209,57015,2,0,B|259:219,1,50.6250019311906,14|0,0:3|0:0,0:0:0:0:
474,265,57265,5,2,0:0:0:0:
485,188,57390,1,2,0:0:0:0:
496,112,57515,1,6,3:0:0:0:
316,287,57765,1,2,0:0:0:0:
381,48,58015,2,0,P|374:73|389:99,1,50.6250019311906,14|0,0:3|0:0,0:0:0:0:
385,246,58265,2,0,P|392:221|377:195,1,50.6250019311906,2|0,0:0|0:0,0:0:0:0:
307,159,58515,6,0,P|285:204|295:253,1,101.250003862381,6|0,3:0|0:0,0:0:0:0:
334,316,58890,1,0,0:0:0:0:
210,252,59015,2,0,B|149:257|149:257|129:277|129:277|62:283,1,151.875005793572,12|0,0:3|0:0,0:0:0:0:
24,346,59515,6,0,P|-5:304|1:243,1,101.250003862381,6|2,3:2|0:0,0:0:0:0:
27,136,59890,1,0,0:0:0:0:
100,109,60015,2,0,P|100:158|71:199,1,101.250003862381,14|2,0:3|0:0,0:0:0:0:
27,136,60390,1,0,0:0:0:0:
91,31,60515,2,0,P|126:34|145:46,1,50.6250019311906,6|0,3:0|0:0,0:0:0:0:
266,43,60765,2,0,L|122:64,1,101.250003862381,0|12,3:0|0:3,0:0:0:0:
324,187,61265,5,2,0:0:0:0:
345,173,61390,1,2,0:0:0:0:
366,159,61515,2,0,L|355:259,1,101.250003862381,6|2,3:0|0:0,0:0:0:0:
346,337,61890,1,0,0:0:0:0:
279,274,62015,2,0,L|273:324,1,50.6250019311906,14|0,0:3|0:0,0:0:0:0:
179,359,62265,2,0,L|184:308,1,50.6250019311906,2|0,0:0|0:0,0:0:0:0:
194,216,62515,1,6,3:0:0:0:
190,104,62765,5,0,3:0:0:0:
212,112,62890,1,2,0:0:0:0:
166,180,63015,5,12,0:3:0:0:
180,198,63140,1,2,0:0:0:0:
106,234,63265,5,2,0:0:0:0:
110,256,63390,1,2,0:0:0:0:
27,251,63515,6,0,B|3:206|3:206|18:148,1,101.250003862381,6|2,3:0|0:0,0:0:0:0:
75,51,63890,1,0,0:0:0:0:
57,123,64015,2,0,L|44:171,1,50.6250019311906,14|2,0:3|0:0,0:0:0:0:
142,95,64265,2,0,L|155:47,1,50.6250019311906,2|0,0:0|0:0,0:0:0:0:
232,95,64515,5,4,3:0:0:0:
232,95,64640,2,0,L|288:79,1,50.6250019311906,0|0,0:0|3:0,0:0:0:0:
310,49,64890,1,0,0:0:0:0:
382,69,65015,2,0,L|438:83,1,50.6250019311906,12|0,0:3|0:0,0:0:0:0:
323,149,65265,1,2,0:0:0:0:
301,163,65390,1,2,0:0:0:0:
395,169,65515,6,0,L|451:183,1,50.6250019311906,6|0,3:0|0:0,0:0:0:0:
279,180,65765,2,0,B|258:197|258:197|274:288,1,101.250003862381,2|14,0:0|0:3,0:0:0:0:
316,384,66140,1,2,0:0:0:0:
338,312,66265,2,0,P|301:346|252:349,1,101.250003862381,2|6,0:0|3:0,0:0:0:0:
91,261,66640,1,0,0:0:0:0:
151,346,66765,6,0,L|157:289,1,50.6250019311906,0|0,3:0|0:0,0:0:0:0:
95,243,67015,2,0,L|133:200,1,50.6250019311906,12|0,0:3|0:0,0:0:0:0:
110,126,67265,1,2,0:0:0:0:
146,117,67390,1,2,0:0:0:0:
254,90,67515,6,0,P|289:94|339:152,1,101.250003862381,6|2,3:2|0:0,0:0:0:0:
259,217,67890,1,2,0:0:0:0:
259,217,68015,2,0,L|263:167,1,50.6250019311906,12|0,0:3|0:0,0:0:0:0:
399,184,68265,2,0,L|395:234,1,50.6250019311906,2|2,0:0|0:0,0:0:0:0:
389,316,68515,1,6,3:0:0:0:
462,279,68640,1,2,0:0:0:0:
451,184,68765,6,0,B|444:166|430:154|430:154|419:90,1,101.250003862381,2|14,3:0|0:3,0:0:0:0:
403,5,69140,1,2,0:0:0:0:
347,112,69265,2,0,B|300:122|300:122|252:99,1,101.250003862381,2|4,0:0|3:0,0:0:0:0:
121,123,69640,2,0,B|217:169,1,101.250003862381,2|0,0:0|0:0,0:0:0:0:
342,280,70015,2,0,B|390:303,1,50.6250019311906,14|0,0:3|0:0,0:0:0:0:
331,203,70265,1,2,0:0:0:0:
365,186,70390,1,2,0:0:0:0:
249,247,70515,6,0,B|157:290,1,101.250003862381,6|2,3:0|3:0,0:0:0:0:
63,333,70890,1,2,0:0:0:0:
150,328,71015,2,0,B|195:306,1,50.6250019311906,14|2,0:3|0:0,0:0:0:0:
84,195,71265,2,0,B|73:218|73:218|83:242,1,50.6250019311906,2|0,0:0|0:0,0:0:0:0:
201,127,71515,6,0,B|136:137|136:137|100:108|53:124,1,151.875005793572,6|0,3:0|0:0,0:0:0:0:
189,215,72015,2,0,L|248:227,1,50.6250019311906,12|0,0:3|0:0,0:0:0:0:
216,55,72265,1,2,0:0:0:0:
287,70,72390,1,0,0:0:0:0:
358,85,72515,2,0,L|417:97,1,50.6250019311906,6|0,3:3|0:0,0:0:0:0:
456,186,72765,1,2,3:0:0:0:
426,120,72890,6,0,P|392:152|387:208,1,101.250003862381
452,315,73265,1,2,0:0:0:0:
471,345,73390,1,2,0:0:0:0:
378,284,73515,6,0,P|332:286|293:324,1,101.250003862381,6|2,3:0|0:0,0:0:0:0:
360,358,73890,1,2,0:0:0:0:
283,283,74015,2,0,P|261:294|248:319,1,50.6250019311906,14|2,0:3|0:0,0:0:0:0:
143,384,74265,2,0,P|165:373|178:348,1,50.6250019311906,2|0,0:0|0:0,0:0:0:0:
134,193,74515,2,0,B|112:212|112:212|128:299,2,101.250003862381,6|0|12,3:0|3:0|0:3,0:0:0:0:
512,0,75515,5,6,3:2:0:0:
487,140,76015,1,8,0:0:0:0:
462,280,76431,5,0,3:0:0:0:
462,280,76515,5,0,3:0:0:0:
448,357,76765,1,0,3:0:0:0:
389,307,77015,1,8,0:0:0:0:
0,384,77515,5,0,3:0:0:0:
25,244,78015,1,8,0:0:0:0:
50,104,78431,5,0,3:0:0:0:
50,104,78515,5,0,3:0:0:0:
64,27,78765,1,0,3:0:0:0:
123,77,79015,1,8,0:0:0:0:
256,384,79515,5,0,3:0:0:0:
199,253,80015,1,8,0:0:0:0:
251,120,80431,5,0,3:0:0:0:
229,93,80515,5,0,3:0:0:0:
362,115,80765,1,0,3:0:0:0:
207,66,81015,1,8,0:0:0:0:
314,196,81265,2,0,L|347:189,1,33.75
369,95,81515,6,0,L|395:18,1,67.5,4|0,3:2|0:0,0:0:0:0:
224,188,81765,2,0,L|250:264,1,67.5,0|0,3:0|0:0,0:0:0:0:
231,61,82015,6,0,L|300:43,1,67.5,8|0,0:0|0:0,0:0:0:0:
86,222,82265,2,0,L|155:240,1,67.5,0|0,3:0|0:0,0:0:0:0:
42,67,82515,6,0,P|73:76|90:105,1,67.5,0|0,3:0|0:0,0:0:0:0:
41,330,82765,2,0,P|72:328|97:306,1,67.5,0|2,3:0|0:0,0:0:0:0:
182,104,83015,5,10,0:0:0:0:
182,104,83140,1,2,0:0:0:0:
182,104,83265,1,2,0:0:0:0:
182,104,83390,1,2,0:0:0:0:
260,128,83515,5,6,3:2:0:0:
272,108,83640,1,2,0:0:0:0:
128,168,83765,5,2,3:0:0:0:
140,188,83890,1,2,0:0:0:0:
284,88,84015,6,1,L|316:25,1,67.5,2|2,3:0|0:0,0:0:0:0:
152,216,84265,2,1,L|184:279,1,67.5,2|0,3:0|0:0,0:0:0:0:
326,120,84515,6,1,L|386:0,1,135,2|0,3:0|3:0,0:0:0:0:
186,109,84890,1,0,0:0:0:0:
216,180,85015,6,1,L|283:214,1,67.5,2|2,3:0|0:0,0:0:0:0:
12,244,85265,2,1,L|72:275,1,67.5,2|2,3:0|0:0,0:0:0:0:
370,202,85515,2,1,L|437:236,1,67.5,2|2,3:0|0:0,0:0:0:0:
166,266,85765,2,1,L|226:297,1,67.5,2|2,3:0|0:0,0:0:0:0:
352,354,86015,5,2,3:0:0:0:
364,369,86140,1,2,0:0:0:0:
378,185,86265,5,2,3:0:0:0:
386,168,86390,1,2,0:0:0:0:
474,267,86515,6,0,L|405:279,1,67.5,2|0,3:0|0:0,0:0:0:0:
235,213,86765,2,0,L|301:201,1,67.5,0|0,3:0|0:0,0:0:0:0:
393,132,87015,21,10,0:0:0:0:
377,156,87140,1,2,3:0:0:0:
289,144,87265,5,10,0:0:0:0:
295,172,87390,1,2,0:0:0:0:
177,284,87515,5,2,3:0:0:0:
161,260,87640,1,2,0:0:0:0:
73,272,87765,5,2,3:0:0:0:
79,244,87890,1,2,0:0:0:0:
206,265,88015,6,0,L|272:248,1,67.5,2|0,3:0|0:0,0:0:0:0:
413,198,88265,2,0,L|347:215,1,67.5,2|0,3:0|0:0,0:0:0:0:
196,343,88515,6,0,B|336:307,1,135,2|0,3:0|3:0,0:0:0:0:
479,238,88890,1,0,0:0:0:0:
403,353,89015,1,2,3:0:0:0:
341,230,89140,2,0,L|407:213,1,67.5,2|2,0:0|3:0,0:0:0:0:
512,137,89390,1,2,0:0:0:0:
359,92,89515,6,0,B|369:146|369:146|404:164|406:212,1,135,2|2,3:0|3:0,0:0:0:0:
328,211,89890,1,2,0:0:0:0:
271,120,90015,2,0,P|267:86|283:53,1,67.5,2|0,3:0|0:0,0:0:0:0:
441,72,90265,2,0,P|445:106|429:139,1,67.5,2|0,3:0|0:0,0:0:0:0:
388,257,90515,6,0,P|346:288|290:279,1,101.250003862381,0|0,3:0|0:0,0:0:0:0:
190,348,90765,2,0,L|160:252,1,101.250003862381,2|0,3:0|0:0,0:0:0:0:
130,139,91015,5,2,3:0:0:0:
130,139,91140,1,2,1:0:0:0:
130,139,91265,1,2,3:0:0:0:
130,139,91390,1,2,1:0:0:0:
216,141,91515,5,6,3:2:0:0:
248,137,91640,1,2,0:0:0:0:
116,49,91765,5,10,0:0:0:0:
73,43,91890,1,2,0:0:0:0:
202,61,92015,5,2,3:0:0:0:
280,133,92140,1,2,0:0:0:0:
208,211,92265,1,10,0:0:0:0:
130,139,92390,1,2,0:0:0:0:
212,243,92515,6,0,P|275:274|351:259,1,135,2|8,3:0|0:0,0:0:0:0:
470,205,92890,1,0,0:0:0:0:
487,306,93015,5,2,3:0:0:0:
483,283,93140,1,2,0:0:0:0:
453,104,93265,5,10,0:0:0:0:
457,127,93390,1,2,0:0:0:0:
385,304,93515,5,2,3:0:0:0:
381,281,93640,1,2,0:0:0:0:
357,141,93765,5,10,0:0:0:0:
361,164,93890,1,2,0:0:0:0:
389,327,94015,5,2,3:0:0:0:
345,258,94140,1,2,0:0:0:0:
265,245,94265,1,10,0:0:0:0:
193,283,94390,1,2,0:0:0:0:
156,355,94515,6,0,B|113:361|62:333|62:333|19:345,1,135,2|8,3:0|0:0,0:0:0:0:
188,365,94890,1,0,0:0:0:0:
277,241,95015,5,2,3:0:0:0:
289,237,95140,1,2,3:0:0:0:
172,252,95265,5,10,0:0:0:0:
160,248,95390,1,2,0:0:0:0:
304,245,95515,5,2,3:0:0:0:
316,241,95640,1,2,0:0:0:0:
135,250,95765,5,10,0:0:0:0:
122,247,95890,1,2,0:0:0:0:
328,285,96015,6,1,L|393:301,1,67.5,2|0,3:0|0:0,0:0:0:0:
93,229,96265,2,1,L|23:211,1,67.5,10|0,0:0|0:0,0:0:0:0:
49,314,96515,6,1,B|85:315|85:315|112:335|145:331|145:331|182:347,1,135,2|8,3:0|0:0,0:0:0:0:
256,374,96890,1,0,0:0:0:0:
346,277,97015,1,2,3:0:0:0:
234,203,97140,2,0,L|243:281,1,67.5,2|10,0:0|0:0,0:0:0:0:
341,306,97390,1,2,0:0:0:0:
284,135,97515,6,0,P|221:121|152:186,1,135,2|10,3:0|0:0,0:0:0:0:
148,257,97890,1,2,0:0:0:0:
88,138,98015,5,2,3:0:0:0:
181,79,98140,1,2,0:0:0:0:
245,168,98265,1,10,0:0:0:0:
225,262,98390,5,2,0:0:0:0:
142,290,98515,1,2,3:0:0:0:
75,233,98640,1,2,0:0:0:0:
136,323,98765,6,0,L|241:350,1,101.250003862381,10|0,0:0|0:0,0:0:0:0:
373,317,99015,5,2,3:0:0:0:
365,329,99140,1,2,0:0:0:0:
375,106,99265,5,10,0:0:0:0:
362,98,99390,1,2,0:0:0:0:
194,235,99515,6,1,L|328:226,1,135,6|10,3:2|0:0,0:0:0:0:
408,222,99890,1,0,0:0:0:0:
277,127,100015,2,0,B|258:155|258:155|271:199,1,67.5,2|0,3:0|0:0,0:0:0:0:
368,223,100265,1,10,0:0:0:0:
349,90,100390,6,0,P|309:51|216:72,1,135,2|2,0:0|0:0,0:0:0:0:
403,31,100765,2,0,P|434:14|473:24,1,67.5,10|0,0:0|0:0,0:0:0:0:
277,127,101015,2,0,L|145:64,1,135,2|8,3:0|0:0,0:0:0:0:
377,202,101390,1,0,0:0:0:0:
284,153,101515,6,0,B|223:123|223:123|165:173,1,135,2|8,3:0|0:0,0:0:0:0:
405,130,101890,1,2,0:0:0:0:
349,274,102015,2,0,L|282:282,1,67.5,2|0,3:0|0:0,0:0:0:0:
95,305,102265,1,10,0:0:0:0:
61,231,102390,2,0,P|125:229|174:294,1,135,2|2,0:0|0:0,0:0:0:0:
155,351,102765,1,10,0:0:0:0:
145,384,102890,1,2,0:0:0:0:
187,256,103015,2,0,P|167:226|127:205,1,67.5,0|2,3:0|0:0,0:0:0:0:
9,215,103265,5,10,0:0:0:0:
19,141,103390,1,2,0:0:0:0:
29,67,103515,2,0,B|90:37|90:37|161:65,1,135,6|10,3:2|0:0,0:0:0:0:
288,119,103890,1,10,0:0:0:0:
172,98,104015,2,0,L|109:73,1,67.5,2|2,3:0|3:0,0:0:0:0:
275,30,104265,2,0,L|337:54,1,67.5,10|2,0:0|0:0,0:0:0:0:
239,184,104515,5,2,3:0:0:0:
214,216,104640,1,2,0:0:0:0:
360,162,104765,5,10,0:0:0:0:
385,130,104890,1,0,0:0:0:0:
190,249,105015,6,0,B|172:274|172:274|214:381,1,135,2|10,3:0|0:0,0:0:0:0:
360,348,105390,1,2,0:0:0:0:
285,359,105515,6,0,B|250:271,1,67.5,10|0,0:0|3:0,0:0:0:0:
324,74,105765,5,10,0:0:0:0:
351,144,105890,1,2,3:0:0:0:
378,214,106015,1,10,0:0:0:0:
454,200,106140,5,2,3:0:0:0:
486,132,106265,1,14,0:0:0:0:
450,66,106390,1,2,3:0:0:0:
385,235,106515,6,0,L|373:301,1,67.5,10|2,0:0|3:0,0:0:0:0:
273,184,106765,2,0,L|229:235,1,67.5,10|2,0:0|3:0,0:0:0:0:
201,83,107015,2,0,L|137:106,1,67.5,10|0,0:0|3:0,0:0:0:0:
20,182,107265,5,8,0:0:0:0:
28,132,107390,1,0,3:0:0:0:
116,240,107515,5,8,0:0:0:0:
159,187,107640,1,0,3:0:0:0:
170,338,107765,5,8,0:0:0:0:
248,306,107890,1,0,3:0:0:0:
73,293,108015,5,8,0:0:0:0:
256,192,108515,5,2,3:0:0:0:
274,190,108640,2,0,L|328:183,1,33.75
381,176,108890,1,2,0:0:0:0:
258,210,109140,6,0,L|265:264,1,33.75,0|0,3:0|0:0,0:0:0:0:
272,317,109390,1,2,0:0:0:0:
238,194,109640,6,0,L|184:201,1,33.75,0|0,0:0|3:0,0:0:0:0:
131,208,109890,1,2,0:0:0:0:
254,174,110140,6,0,L|247:120,1,33.75,0|0,3:0|3:0,0:0:0:0:
240,67,110390,1,2,0:0:0:0:
240,67,110515,1,0,3:0:0:0:
280,195,110640,6,0,L|300:144,1,33.75
321,95,110890,1,2,0:0:0:0:
292,226,111140,6,0,L|335:192,1,33.75,0|0,3:0|0:0,0:0:0:0:
377,160,111390,1,2,0:0:0:0:
286,258,111640,6,0,L|340:251,1,33.75,0|0,0:0|3:0,0:0:0:0:
393,244,111890,1,2,0:0:0:0:
264,282,112140,6,0,L|314:302,1,33.75,0|0,3:0|3:0,0:0:0:0:
364,324,112390,1,2,0:0:0:0:
257,367,112515,6,0,P|233:377|198:369,1,50.6250019311906,4|0,3:2|0:0,0:0:0:0:
70,206,112765,2,0,P|57:233|61:258,1,50.6250019311906,2|0,0:0|0:0,0:0:0:0:
139,298,113015,2,0,L|131:243,2,50.6250019311906,2|0|0,3:0|3:0|0:0,0:0:0:0:
144,319,113390,5,2,0:0:0:0:
224,265,113515,2,0,L|235:164,1,101.250003862381,2|2,3:0|3:0,0:0:0:0:
156,85,113890,2,0,P|205:90|246:63,2,101.250003862381,2|2|2,0:0|3:0|0:0,0:0:0:0:
251,42,114515,2,0,L|301:47,1,50.6250019311906,2|0,3:0|0:0,0:0:0:0:
318,127,114765,5,2,0:0:0:0:
275,204,114890,1,2,0:0:0:0:
198,161,115015,1,2,3:0:0:0:
241,84,115140,5,2,3:0:0:0:
269,125,115265,1,2,0:0:0:0:
297,166,115390,2,0,L|397:155,1,101.250003862381,2|2,0:0|0:0,0:0:0:0:
493,141,115765,5,2,3:0:0:0:
506,148,115890,1,2,0:0:0:0:
495,221,116015,5,2,0:0:0:0:
509,228,116140,1,0,3:0:0:0:
498,301,116265,5,0,3:0:0:0:
512,308,116390,1,2,0:0:0:0:
501,381,116515,5,0,3:0:0:0:
331,313,116765,6,0,L|386:307,1,50.6250019311906,2|0,0:0|0:0,0:0:0:0:
276,375,117015,2,0,P|241:340|192:342,1,101.250003862381,2|0,3:0|0:0,0:0:0:0:
123,376,117390,1,2,0:0:0:0:
127,258,117515,2,0,B|104:280|104:280|121:371,1,101.250003862381,2|2,3:0|3:0,0:0:0:0:
183,194,117890,1,0,0:0:0:0:
174,226,118015,2,0,L|161:275,1,50.6250019311906,2|2,0:0|3:0,0:0:0:0:
38,177,118265,2,0,L|43:227,1,50.6250019311906,2|0,3:0|0:0,0:0:0:0:
19,96,118515,6,0,P|74:103|111:142,1,101.250003862381,2|2,3:0|0:0,0:0:0:0:
168,272,118890,1,2,0:0:0:0:
86,286,119015,1,2,3:0:0:0:
72,204,119140,1,2,3:0:0:0:
154,190,119265,5,2,0:0:0:0:
145,239,119390,1,2,0:0:0:0:
137,288,119515,2,0,L|128:337,1,50.6250019311906,2|2,3:0|0:0,0:0:0:0:
240,244,119765,2,0,L|278:276,1,50.6250019311906,2|2,3:0|0:0,0:0:0:0:
253,132,120015,1,2,0:0:0:0:
286,120,120140,2,0,L|333:102,1,50.6250019311906,0|0,3:0|3:0,0:0:0:0:
512,361,120515,6,0,L|448:384,1,67.5,4|0,3:2|0:0,0:0:0:0:
298,153,120765,2,0,P|333:155|369:180,1,67.5,2|0,3:0|0:0,0:0:0:0:
347,311,121015,2,0,P|377:259|355:159,1,135,2|0,3:0|3:0,0:0:0:0:
439,314,121390,1,2,0:0:0:0:
456,234,121515,2,0,L|470:168,1,67.5,2|0,3:0|0:0,0:0:0:0:
332,0,121765,2,0,L|346:65,1,67.5,2|0,3:0|0:0,0:0:0:0:
449,176,122015,5,2,3:0:0:0:
454,151,122140,1,2,0:0:0:0:
294,65,122265,2,0,L|339:115,1,67.5,2|0,3:0|0:0,0:0:0:0:
491,71,122515,6,0,B|425:55|425:55|369:93,1,135,2|2,3:0|3:0,0:0:0:0:
273,158,122890,1,2,0:0:0:0:
338,254,123015,5,2,3:0:0:0:
324,216,123140,1,2,0:0:0:0:
201,202,123265,5,2,3:0:0:0:
170,177,123390,1,2,0:0:0:0:
258,295,123515,6,0,L|216:356,1,67.5,2|0,3:0|0:0,0:0:0:0:
165,221,123765,2,0,L|98:252,1,67.5,2|0,3:0|0:0,0:0:0:0:
140,354,124015,5,0,3:0:0:0:
119,371,124140,1,2,0:0:0:0:
57,312,124265,5,0,3:0:0:0:
30,316,124390,1,2,0:0:0:0:
0,250,124515,5,4,0:0:0:0:
64,118,124765,6,0,P|74:131|76:148,1,33.75,6|0,0:3|0:0,0:0:0:0:
105,158,125015,2,0,L|198:185,1,67.5,6|4,0:3|0:3,0:0:0:0:
319,219,125390,1,2,0:0:0:0:
269,164,125515,2,0,P|243:196|252:237,1,67.5,6|6,0:3|0:3,0:0:0:0:
284,306,125890,1,2,0:0:0:0:
304,310,126015,6,0,L|356:320,1,33.75,6|0,0:3|0:0,0:0:0:0:
380,301,126265,2,0,L|420:335,1,33.75,6|0,0:3|0:0,0:0:0:0:
443,363,126515,6,0,L|460:312,1,33.75,6|2,0:3|0:0,0:0:0:0:
495,311,126765,2,0,L|484:258,1,33.75,6|2,0:3|0:0,0:0:0:0:
440,219,127015,5,6,0:3:0:0:
426,215,127140,1,2,0:0:0:0:
402,219,127265,5,6,0:3:0:0:
394,206,127390,1,2,0:0:0:0:
386,193,127515,6,0,L|394:149,4,33.75,6|0|6|0|4,0:3|0:0|0:3|0:0|0:3,0:0:0:0:
281,188,128140,2,0,L|230:195,1,50.6250019311906,2|6,0:0|0:3,0:0:0:0:
149,209,128390,1,2,0:0:0:0:
125,212,128515,5,6,3:2:0:0:
386,171,128765,1,2,3:0:0:0:
148,114,129015,1,2,3:0:0:0:
363,269,129265,1,2,3:0:0:0:
235,61,129515,1,2,3:0:0:0:
276,322,129765,1,2,3:0:0:0:
333,84,130015,1,0,3:0:0:0:
178,299,130265,1,2,3:0:0:0:
142,107,130515,5,2,3:0:0:0:
369,273,130765,1,2,3:0:0:0:
233,50,131015,1,2,3:0:0:0:
278,330,131265,1,2,3:0:0:0:
338,76,131515,1,2,3:0:0:0:
173,304,131765,1,2,3:0:0:0:
396,167,132015,1,0,3:0:0:0:
115,213,132265,1,2,3:0:0:0:
234,43,132515,5,2,3:0:0:0:
280,339,132765,1,2,3:0:0:0:
345,69,133015,1,2,3:0:0:0:
169,313,133265,1,2,3:0:0:0:
405,168,133515,1,2,3:0:0:0:
109,214,133765,1,2,3:0:0:0:
379,279,134015,1,0,3:0:0:0:
135,103,134265,1,2,3:0:0:0:
351,62,134515,5,2,3:0:0:0:
163,321,134765,1,2,3:0:0:0:
415,166,135015,1,2,3:0:0:0:
99,217,135265,1,2,3:0:0:0:
386,286,135515,1,2,3:0:0:0:
128,97,135765,1,2,3:0:0:0:
282,350,136015,1,0,3:0:0:0:
231,33,136265,1,0,3:0:0:0:
425,165,136515,5,0,3:0:0:0:
88,219,136760,1,0,3:0:0:0:
393,291,137006,2,0,L|338:252,1,67.5,0|0,3:0|0:0,0:0:0:0:
118,92,137236,1,0,3:0:0:0:
283,360,137467,1,0,3:0:0:0:
231,23,137689,1,0,3:0:0:0:
156,330,137911,2,0,L|216:248,1,67.5,0|0,3:0|0:0,0:0:0:0:
357,53,138125,1,0,3:0:0:0:
403,299,138339,5,0,3:0:0:0:
109,86,138545,1,0,3:0:0:0:
285,372,138752,2,0,L|274:305,1,67.5,0|0,3:0|0:0,0:0:0:0:
227,13,138952,1,0,3:0:0:0:
149,339,139152,1,0,3:0:0:0:
363,46,139352,1,0,3:0:0:0:
76,221,139552,2,0,L|142:210,1,67.5,0|0,3:0|0:0,0:0:0:0:
436,163,139752,1,0,3:0:0:0:
284,378,139952,5,0,3:0:0:0:
224,5,140152,1,0,3:0:0:0:
143,345,140352,2,0,L|187:284,1,67.5,0|0,3:0|0:0,0:0:0:0:
365,38,140552,1,0,3:0:0:0:
68,221,140752,1,0,3:0:0:0:
441,163,140952,1,0,3:0:0:0:
101,80,141152,2,0,L|161:123,1,67.5,0|0,3:0|0:0,0:0:0:0:
408,303,141352,1,0,3:0:0:0:
141,347,141552,5,0,3:0:0:0:
368,34,141752,1,0,3:0:0:0:
63,221,141952,2,0,L|139:209,1,67.5,0|0,3:0|0:0,0:0:0:0:
446,160,142152,1,0,3:0:0:0:
99,77,142352,6,0,L|209:158,1,84.375,4|0,3:2|0:0,0:0:0:0:
413,307,142552,6,0,L|331:246,1,84.375,4|0,3:2|0:0,0:0:0:0:
224,0,142752,6,0,L|241:116,1,101.250003862381,4|0,3:2|0:0,0:0:0:0:
285,382,142952,6,0,L|264:248,1,118.125001126528,4|0,3:2|0:0,0:0:0:0:
256,192,144936,5,2,0:0:0:0:
256,192,145061,1,2,0:0:0:0:
256,192,145186,6,0,L|248:125,2,67.5,6|2|14,3:1|0:0|0:3,0:0:0:0:
178,180,145811,1,0,0:0:0:0:
139,173,145936,2,0,P|118:178|102:207,1,33.75,2|0,0:0|0:0,0:0:0:0:
68,248,146186,2,0,P|39:206|42:165,2,67.5,6|0|12,3:0|3:0|0:3,0:0:0:0:
156,357,146936,1,2,0:0:0:0:
193,342,147061,1,2,0:0:0:0:
230,327,147186,6,0,P|249:296|240:243,1,67.5,6|2,3:0|0:0,0:0:0:0:
200,210,147561,1,0,0:0:0:0:
176,220,147686,2,0,L|181:172,1,33.75,14|2,0:3|0:0,0:0:0:0:
182,52,147936,2,0,L|195:82,1,33.75,2|0,0:0|0:0,0:0:0:0:
219,125,148186,1,4,3:0:0:0:
317,289,148436,5,0,3:0:0:0:
283,277,148561,1,2,0:0:0:0:
363,221,148686,5,12,0:3:0:0:
342,194,148811,1,2,0:0:0:0:
423,167,148936,5,2,0:0:0:0:
417,133,149061,1,2,0:0:0:0:
502,150,149186,6,0,B|520:178|520:178|506:232,1,67.5,6|2,3:0|0:0,0:0:0:0:
384,248,149561,1,0,0:0:0:0:
430,307,149686,2,0,L|463:310,1,33.75,14|2,0:3|0:0,0:0:0:0:
339,365,149936,2,0,L|306:362,1,33.75,2|0,0:0|0:0,0:0:0:0:
193,285,150186,2,0,L|260:291,1,67.5,4|0,3:0|3:0,0:0:0:0:
0,128,150686,6,0,L|67:134,1,67.5,12|2,0:3|0:0,0:0:0:0:
153,152,151061,1,2,0:0:0:0:
75,145,151186,2,0,L|8:139,1,67.5,6|2,3:0|0:0,0:0:0:0:
48,249,151561,1,0,0:0:0:0:
56,272,151686,2,0,L|59:238,1,33.75,14|2,0:3|0:0,0:0:0:0:
142,309,151936,2,0,L|161:281,1,33.75,2|0,0:0|0:0,0:0:0:0:
197,384,152186,6,0,L|280:345,1,67.5,6|0,3:0|0:0,0:0:0:0:
389,127,152436,2,0,L|298:171,1,101.25,8|0,0:0|0:0,0:0:0:0:
298,171,152686,6,0,L|227:156,1,67.5,6|2,3:0|0:0,0:0:0:0:
407,306,152936,2,0,L|473:319,1,67.5,2|2,3:0|0:0,0:0:0:0:
350,357,153186,5,6,3:2:0:0:
340,343,153311,1,2,0:0:0:0:
308,185,153436,5,2,3:0:0:0:
318,199,153561,1,2,0:0:0:0:
423,228,153686,5,2,3:0:0:0:
413,214,153811,1,2,0:0:0:0:
381,56,153936,5,2,3:0:0:0:
391,70,154061,1,2,0:0:0:0:
445,167,154186,6,0,P|392:207|326:212,1,135,2|0,3:0|3:0,0:0:0:0:
220,191,154561,1,0,0:0:0:0:
236,95,154686,6,0,L|312:75,1,67.5,2|2,3:0|0:0,0:0:0:0:
236,286,154936,2,0,L|170:303,1,67.5,2|2,3:0|0:0,0:0:0:0:
289,108,155186,6,0,L|364:128,1,67.5,2|2,3:0|0:0,0:0:0:0:
193,273,155436,2,0,L|127:255,1,67.5,2|2,3:0|0:0,0:0:0:0:
313,200,155686,5,2,3:0:0:0:
317,213,155811,1,2,0:0:0:0:
119,238,155936,5,2,3:0:0:0:
115,225,156061,1,2,0:0:0:0:
205,153,156186,6,0,P|210:169|208:186,1,33.75,2|0,3:0|0:0,0:0:0:0:
11,211,156436,6,0,P|-4:163|2:113,1,101.25,0|0,3:0|0:0,0:0:0:0:
82,44,156686,5,10,0:0:0:0:
110,25,156811,1,2,3:0:0:0:
215,45,156936,5,10,0:0:0:0:
251,42,157061,1,2,0:0:0:0:
338,116,157186,5,2,3:0:0:0:
374,132,157311,1,2,0:0:0:0:
409,248,157436,5,2,3:0:0:0:
434,283,157561,1,2,0:0:0:0:
452,121,157686,6,0,L|465:39,1,67.5,2|0,3:0|0:0,0:0:0:0:
334,225,157936,2,0,L|323:291,1,67.5,2|0,3:0|0:0,0:0:0:0:
81,269,158186,6,0,B|110:244|110:244|172:250|210:297,1,135,2|0,3:0|3:0,0:0:0:0:
244,384,158561,1,0,0:0:0:0:
370,310,158686,2,0,P|333:321|307:348,1,67.5,2|2,3:0|0:0,0:0:0:0:
177,322,158936,2,0,P|214:311|240:284,1,67.5,2|2,3:0|0:0,0:0:0:0:
220,45,159186,6,0,B|232:114|232:114|263:135|261:184,1,135,2|2,3:0|3:0,0:0:0:0:
266,278,159561,1,2,0:0:0:0:
328,200,159686,2,0,L|368:146,1,67.5,2|0,3:0|0:0,0:0:0:0:
211,8,159936,2,0,L|171:62,1,67.5,2|0,3:0|0:0,0:0:0:0:
93,162,160186,5,0,3:0:0:0:
68,194,160311,1,2,0:0:0:0:
233,162,160436,5,2,3:0:0:0:
257,129,160561,1,2,0:0:0:0:
79,82,160686,5,2,3:0:0:0:
72,72,160811,1,2,1:0:0:0:
183,182,160936,5,2,3:0:0:0:
190,172,161061,1,2,3:0:0:0:
79,282,161186,5,6,3:2:0:0:
72,272,161311,1,2,0:0:0:0:
183,382,161436,5,10,0:0:0:0:
190,372,161561,1,2,0:0:0:0:
58,354,161686,6,0,P|92:356|140:323,1,67.5,2|0,3:0|0:0,0:0:0:0:
307,223,161936,2,0,P|273:221|225:254,1,67.5,10|0,0:0|0:0,0:0:0:0:
362,373,162186,2,0,L|384:237,1,135,2|8,3:0|0:0,0:0:0:0:
397,119,162561,1,0,0:0:0:0:
269,134,162686,5,2,3:0:0:0:
246,137,162811,1,2,0:0:0:0:
356,201,162936,5,10,0:0:0:0:
379,204,163061,1,2,0:0:0:0:
229,158,163186,5,2,3:0:0:0:
206,161,163311,1,2,0:0:0:0:
388,224,163436,5,10,0:0:0:0:
411,227,163561,1,2,0:0:0:0:
161,150,163686,6,0,L|79:133,1,67.5,2|2,3:0|0:0,0:0:0:0:
439,259,163936,2,0,L|521:242,1,67.5,10|2,0:0|0:0,0:0:0:0:
246,321,164186,6,0,B|229:216|229:216|261:243,1,135,2|8,3:0|0:0,0:0:0:0:
337,326,164561,1,0,0:0:0:0:
180,354,164686,5,2,3:0:0:0:
153,374,164811,1,2,3:0:0:0:
180,241,164936,5,10,0:0:0:0:
142,244,165061,1,2,0:0:0:0:
236,143,165186,5,2,3:0:0:0:
198,124,165311,1,2,0:0:0:0:
333,86,165436,5,10,0:0:0:0:
307,46,165561,1,2,0:0:0:0:
445,85,165686,6,0,L|498:167,1,67.5,2|2,3:0|0:0,0:0:0:0:
393,331,165936,2,0,L|356:274,1,67.5,10|2,0:0|0:0,0:0:0:0:
274,162,166186,6,0,B|339:151|337:205|402:192,1,135,2|8,3:0|0:0,0:0:0:0:
192,156,166561,2,0,P|161:169|113:164,1,67.5,0|2,0:0|3:0,0:0:0:0:
0,64,166811,5,2,0:0:0:0:
89,33,166936,1,10,0:0:0:0:
180,55,167061,1,2,0:0:0:0:
237,131,167186,2,0,L|225:281,1,135,2|10,3:0|0:0,0:0:0:0:
220,340,167561,1,0,0:0:0:0:
328,197,167686,6,0,L|394:184,1,67.5,2|0,3:0|0:0,0:0:0:0:
132,330,167936,2,0,L|65:317,1,67.5,10|0,0:0|0:0,0:0:0:0:
285,187,168186,2,0,L|328:238,1,67.5,2|0,3:0|0:0,0:0:0:0:
206,344,168436,5,8,0:0:0:0:
108,300,168561,2,0,P|64:243|78:102,1,202.500007724762,2|2,0:0|0:0,0:0:0:0:
188,43,168936,5,10,0:0:0:0:
80,87,169061,1,2,0:0:0:0:
205,118,169186,6,0,L|369:102,1,135,6|10,3:2|0:0,0:0:0:0:
92,91,169561,1,0,0:0:0:0:
195,145,169686,2,0,L|277:137,1,67.5,2|0,3:0|0:0,0:0:0:0:
409,81,169936,1,10,0:0:0:0:
360,181,170061,6,0,L|351:248,1,67.5,2|0,0:0|3:0,0:0:0:0:
373,92,170311,1,2,0:0:0:0:
458,154,170436,2,0,L|448:220,1,67.5,10|0,0:0|0:0,0:0:0:0:
395,366,170686,2,0,B|335:334|335:334|269:353,1,135,2|8,3:0|0:0,0:0:0:0:
440,295,171061,5,2,0:0:0:0:
316,330,171186,2,0,B|177:369,1,135,2|8,3:0|0:0,0:0:0:0:
456,300,171561,1,2,0:0:0:0:
370,272,171686,2,0,B|300:252,1,67.5,2|0,3:0|0:0,0:0:0:0:
180,218,171936,1,10,0:0:0:0:
128,126,172061,5,2,0:0:0:0:
121,114,172186,1,2,3:0:0:0:
223,211,172311,5,2,0:0:0:0:
236,210,172436,1,10,0:0:0:0:
101,250,172561,5,2,0:0:0:0:
69,324,172686,2,0,P|44:345|-3:348,1,67.5,0|0,3:0|0:0,0:0:0:0:
151,197,172936,5,10,0:0:0:0:
230,181,173061,1,2,0:0:0:0:
287,236,173186,6,0,L|273:370,1,135,6|8,3:2|0:0,0:0:0:0:
355,344,173561,1,8,0:0:0:0:
388,333,173686,2,0,L|455:349,1,67.5,0|0,3:0|3:0,0:0:0:0:
484,187,173936,2,0,L|418:171,1,67.5,8|0,0:0|0:0,0:0:0:0:
433,253,174186,5,0,3:0:0:0:
438,266,174311,1,0,0:0:0:0:
408,145,174436,5,8,0:0:0:0:
413,158,174561,1,0,0:0:0:0:
383,37,174686,6,0,L|448:52,1,67.5,0|0,3:0|0:0,0:0:0:0:
403,132,174936,5,10,0:0:0:0:
318,170,175061,1,0,0:0:0:0:
231,141,175186,6,0,P|165:146|126:226,1,135,10|10,0:0|0:0,0:0:0:0:
179,372,175561,1,2,3:0:0:0:
130,302,175686,2,0,L|64:290,1,67.5,10|2,0:0|3:0,0:0:0:0:
208,222,175936,2,0,L|274:234,1,67.5,14|2,0:0|3:0,0:0:0:0:
361,249,176186,5,10,0:0:0:0:
381,252,176311,1,2,3:0:0:0:
355,132,176436,5,10,0:0:0:0:
366,116,176561,1,2,3:0:0:0:
321,294,176686,5,10,0:0:0:0:
337,306,176811,1,0,3:0:0:0:
373,189,176936,69,8,0:0:0:0:
392,182,177061,1,0,3:0:0:0:
264,313,177186,69,8,0:0:0:0:
271,332,177311,1,0,3:0:0:0:
361,249,177436,69,8,0:0:0:0:
381,251,177561,1,0,3:0:0:0:
205,301,177686,69,8,0:0:0:0:
201,321,177811,1,0,3:0:0:0:
321,294,177936,5,8,0:0:0:0:
337,306,178061,1,0,3:0:0:0:
159,260,178186,5,8,0:0:0:0:
133,291,178311,1,0,3:0:0:0:
264,313,178436,5,8,0:0:0:0:
278,351,178561,1,0,3:0:0:0:
140,203,178686,5,8,0:0:0:0:
101,217,178811,1,0,3:0:0:0:
205,301,178936,69,8,0:0:0:0:
197,340,179061,1,0,3:0:0:0:
152,144,179186,69,8,0:0:0:0:
112,136,179311,1,0,3:0:0:0:
249,79,179436,69,8,0:0:0:0:
219,3,179561,1,8,0:0:0:0:
192,98,179686,69,8,0:0:0:0:
176,86,179811,2,0,L|137:56,1,33.75,2|0,0:0|0:0,0:0:0:0:
309,91,180061,5,2,0:0:0:0:
313,72,180186,2,0,L|319:38,1,33.75,2|0,0:0|0:0,0:0:0:0:
