osu file format v14

[General]
AudioFilename: audio.mp3
AudioLeadIn: 0
PreviewTime: 24452
Countdown: 0
SampleSet: Soft
StackLeniency: 0.7
Mode: 0
LetterboxInBreaks: 0
WidescreenStoryboard: 1

[Editor]
Bookmarks: 23556,25348,33098,45390,51608,59358,67421,75421,83452,91421,103556,108421,120473,128452,136576,145123,153092,161061,161811,173102,180227
DistanceSpacing: 2.4
BeatDivisor: 4
GridSize: 4
TimelineZoom: 2.9

[Metadata]
Title:The Last War of Us
TitleUnicode:僕らの最終戦争
Artist:Shannon feat. GUMI & Hatsune Miku
ArtistUnicode:シャノン feat. GUMI & 初音ミク
Creator:Ryuusei Aika
Version:Calvaria's Extra
Source:
Tags:Vocaloid ボーカロイド Japanese Pop J-Pop JPop Bokura no Saishuu Sensou sorairokarasu Setu Shiratamamywife dahkjdas Calvaria LimeTwist 遼遼
BeatmapID:3619116
BeatmapSetID:1754382

[Difficulty]
HPDrainRate:6
CircleSize:4
OverallDifficulty:8
ApproachRate:9
SliderMultiplier:2.2
SliderTickRate:1

[Events]
//Background and Video events
0,0,"bg.jpg",0,0
Video,0,"video.mp4"
//Break Periods
2,17215,20165
2,49715,50915
2,75715,78665
2,108515,112165
2,124715,127540
2,143152,144336
//Storyboard Layer 0 (Background)
//Storyboard Layer 1 (Fail)
//Storyboard Layer 2 (Pass)
//Storyboard Layer 3 (Foreground)
//Storyboard Layer 4 (Overlay)
//Storyboard Sound Samples

[TimingPoints]
1015,500,4,2,1,45,1,0
2265,-100,4,2,1,40,0,0
2515,-100,4,2,1,45,0,0
2931,-100,4,2,1,40,0,0
3015,-100,4,2,1,45,0,0
3348,-100,4,2,1,40,0,0
3515,-100,4,2,1,45,0,0
4265,-66.6666666666667,4,2,1,40,0,0
4515,-66.6666666666667,4,2,1,45,0,0
4681,-66.6666666666667,4,2,1,40,0,0
4765,-66.6666666666667,4,2,1,45,0,0
5015,-100,4,2,1,45,0,0
5265,-100,4,2,1,40,0,0
5515,-100,4,2,1,45,0,0
6265,-100,4,2,1,40,0,0
6515,-100,4,2,1,45,0,0
8265,-100,4,2,1,40,0,0
8515,-100,4,2,1,45,0,0
8681,-100,4,2,1,40,0,0
8765,-100,4,2,1,45,0,0
9015,-66.6666666666667,4,2,1,60,0,0
9431,-66.6666666666667,4,2,1,55,0,0
9515,-66.6666666666667,4,2,1,60,0,0
9598,-66.6666666666667,4,2,1,55,0,0
9681,-66.6666666666667,4,2,1,60,0,0
9847,-66.6666666666667,4,2,1,55,0,0
9931,-66.6666666666667,4,2,1,60,0,0
10181,-66.6666666666667,4,2,1,55,0,0
10265,-66.6666666666667,4,2,1,60,0,0
10847,-66.6666666666667,4,2,1,55,0,0
11015,-66.6666666666667,4,2,1,60,0,0
13431,-66.6666666666667,4,2,1,55,0,0
13515,-66.6666666666667,4,2,1,60,0,0
13598,-66.6666666666667,4,2,1,55,0,0
13931,-66.6666666666667,4,2,1,60,0,0
14181,-66.6666666666667,4,2,1,55,0,0
14265,-66.6666666666667,4,2,1,60,0,0
14847,-66.6666666666667,4,2,1,55,0,0
14931,-66.6666666666667,4,2,1,60,0,0
17015,-100,4,2,1,45,0,0
20765,-100,4,2,1,40,0,0
21015,-100,4,2,1,45,0,0
21098,-100,4,2,1,40,0,0
22765,-100,4,2,1,45,0,0
23015,-50,4,2,1,60,0,0
23181,-50,4,2,1,55,0,0
23265,-50,4,2,1,60,0,0
23431,-50,4,2,1,55,0,0
23515,-50,4,2,1,60,0,0
23681,-50,4,2,1,55,0,0
23765,-50,4,2,1,60,0,0
23931,-50,4,2,1,55,0,0
24015,-50,4,2,1,60,0,0
24181,-50,4,2,1,55,0,0
24265,-50,4,2,1,60,0,0
24431,-50,4,2,1,55,0,0
24515,-50,4,2,1,55,0,0
25015,-55.5555555555556,4,2,1,65,0,0
25931,-55.5555555555556,4,2,1,60,0,0
26015,-55.5555555555556,4,2,1,65,0,0
26139,-55.5555555555556,4,2,1,60,0,0
26265,-55.5555555555556,4,2,1,65,0,0
26389,-55.5555555555556,4,2,1,60,0,0
26515,-55.5555555555556,4,2,1,65,0,0
27681,-55.5555555555556,4,2,1,60,0,0
27765,-55.5555555555556,4,2,1,65,0,0
27889,-55.5555555555556,4,2,1,60,0,0
28015,-55.5555555555556,4,2,1,65,0,0
29639,-55.5555555555556,4,2,1,60,0,0
29765,-55.5555555555556,4,2,1,65,0,0
29931,-55.5555555555556,4,2,1,60,0,0
30015,-55.5555555555556,4,2,1,65,0,0
30681,-55.5555555555556,4,2,1,60,0,0
30765,-55.5555555555556,4,2,1,65,0,0
30889,-55.5555555555556,4,2,1,60,0,0
31015,-55.5555555555556,4,2,1,65,0,0
31890,-55.5555555555556,4,2,1,60,0,0
32015,-55.5555555555556,4,2,1,65,0,0
32139,-55.5555555555556,4,2,1,60,0,0
32265,-55.5555555555556,4,2,1,65,0,0
32389,-55.5555555555556,4,2,1,60,0,0
32515,-55.5555555555556,4,2,1,65,0,0
33015,-55.5555555555556,4,2,2,65,0,0
33640,-55.5555555555556,4,2,2,60,0,0
33765,-55.5555555555556,4,2,2,65,0,0
33890,-55.5555555555556,4,2,2,60,0,0
34015,-55.5555555555556,4,2,2,65,0,0
34181,-55.5555555555556,4,2,2,60,0,0
34265,-55.5555555555556,4,2,2,65,0,0
34389,-55.5555555555556,4,2,2,60,0,0
34515,-55.5555555555556,4,2,2,65,0,0
35639,-55.5555555555556,4,2,2,60,0,0
35765,-55.5555555555556,4,2,2,65,0,0
35889,-55.5555555555556,4,2,2,60,0,0
36015,-55.5555555555556,4,2,2,65,0,0
36181,-55.5555555555556,4,2,2,60,0,0
36265,-55.5555555555556,4,2,2,65,0,0
36389,-55.5555555555556,4,2,2,60,0,0
36515,-55.5555555555556,4,2,2,65,0,0
37931,-55.5555555555556,4,2,2,60,0,0
38015,-55.5555555555556,4,2,2,65,0,0
38348,-55.5555555555556,4,2,2,60,0,0
38515,-55.5555555555556,4,2,2,65,0,0
39890,-55.5555555555556,4,2,2,60,0,0
40015,-55.5555555555556,4,2,2,65,0,0
40140,-55.5555555555556,4,2,2,60,0,0
40265,-55.5555555555556,4,2,2,65,0,0
40389,-55.5555555555556,4,2,2,60,0,0
40515,-55.5555555555556,4,2,2,65,0,0
41015,-55.5555555555556,4,2,2,75,0,0
41181,-55.5555555555556,4,2,2,70,0,0
41265,-55.5555555555556,4,2,2,75,0,0
41389,-55.5555555555556,4,2,2,70,0,0
41515,-55.5555555555556,4,2,2,75,0,0
41598,-55.5555555555556,4,2,2,70,0,0
41765,-55.5555555555556,4,2,2,75,0,0
42389,-55.5555555555556,4,2,2,70,0,0
42515,-55.5555555555556,4,2,2,75,0,0
42639,-55.5555555555556,4,2,2,70,0,0
42764,-55.5555555555556,4,2,2,75,0,0
43639,-55.5555555555556,4,2,2,70,0,0
43765,-55.5555555555556,4,2,2,75,0,0
44390,-55.5555555555556,4,2,2,70,0,0
44514,-55.5555555555556,4,2,2,75,0,0
45015,-55.5555555555556,4,2,2,60,0,0
45181,-55.5555555555556,4,2,2,55,0,0
45265,-55.5555555555556,4,2,2,60,0,0
47015,-55.5555555555556,4,2,2,75,0,0
47681,-55.5555555555556,4,2,2,70,0,0
47765,-55.5555555555556,4,2,2,75,0,0
49098,-55.5555555555556,4,2,2,70,0,0
49265,-55.5555555555556,4,2,2,75,0,0
49348,-55.5555555555556,4,2,2,70,0,0
49515,-55.5555555555556,4,2,2,75,0,0
49640,-55.5555555555556,4,2,2,45,0,0
51515,500,4,2,1,55,1,0
51598,-66.6666666666667,4,2,1,50,0,0
51765,-66.6666666666667,4,2,1,55,0,0
52681,-66.6666666666667,4,2,1,50,0,0
52765,-66.6666666666667,4,2,1,55,0,0
54598,-66.6666666666667,4,2,1,50,0,0
54765,-66.6666666666667,4,2,1,55,0,0
56681,-66.6666666666667,4,2,1,50,0,0
56765,-66.6666666666667,4,2,1,55,0,0
58681,-66.6666666666667,4,2,1,50,0,0
59015,-66.6666666666667,4,2,1,55,0,0
59098,-66.6666666666667,4,2,1,50,0,0
59265,-66.6666666666667,4,2,1,55,0,0
59348,-66.6666666666667,4,2,1,50,0,0
59431,-66.6666666666667,4,2,1,55,0,0
59515,-100,4,2,1,50,0,0
60181,-100,4,2,1,45,0,0
60264,-100,4,2,1,50,0,0
60681,-100,4,2,1,45,0,0
60765,-100,4,2,1,50,0,0
61390,-100,4,2,1,45,0,0
61515,-100,4,2,1,50,0,0
61681,-100,4,2,1,45,0,0
61765,-100,4,2,1,50,0,0
61848,-100,4,2,1,45,0,0
62015,-100,4,2,1,50,0,0
62765,-66.6666666666667,4,2,1,50,0,0
62931,-66.6666666666667,4,2,1,45,0,0
63015,-66.6666666666667,4,2,1,50,0,0
63181,-66.6666666666667,4,2,1,45,0,0
63265,-66.6666666666667,4,2,1,50,0,0
63515,-100,4,2,1,50,0,0
63681,-100,4,2,1,45,0,0
63765,-100,4,2,1,50,0,0
63890,-100,4,2,1,45,0,0
64015,-100,4,2,1,50,0,0
64140,-100,4,2,1,45,0,0
64265,-100,4,2,1,50,0,0
64640,-100,4,2,1,45,0,0
64765,-100,4,2,1,50,0,0
64890,-100,4,2,1,45,0,0
65265,-100,4,2,1,50,0,0
66140,-100,4,2,1,45,0,0
66265,-100,4,2,1,50,0,0
66681,-100,4,2,1,45,0,0
66765,-100,4,2,1,50,0,0
66848,-100,4,2,1,45,0,0
67015,-100,4,2,1,50,0,0
67098,-100,4,2,1,45,0,0
67181,-100,4,2,1,50,0,0
67515,-66.6666666666667,4,2,1,60,0,0
67931,-66.6666666666667,4,2,1,55,0,0
68015,-66.6666666666667,4,2,1,60,0,0
68098,-66.6666666666667,4,2,1,55,0,0
68181,-66.6666666666667,4,2,1,60,0,0
68347,-66.6666666666667,4,2,1,55,0,0
68431,-66.6666666666667,4,2,1,60,0,0
69431,-66.6666666666667,4,2,1,55,0,0
69515,-66.6666666666667,4,2,1,60,0,0
70681,-66.6666666666667,4,2,1,55,0,0
70765,-66.6666666666667,4,2,1,60,0,0
71431,-66.6666666666667,4,2,1,55,0,0
71515,-66.6666666666667,4,2,1,60,0,0
71931,-66.6666666666667,4,2,1,55,0,0
72015,-66.6666666666667,4,2,1,60,0,0
72098,-66.6666666666667,4,2,1,55,0,0
72431,-66.6666666666667,4,2,1,60,0,0
72681,-66.6666666666667,4,2,1,55,0,0
72765,-66.6666666666667,4,2,1,60,0,0
73931,-66.6666666666667,4,2,1,55,0,0
74015,-66.6666666666667,4,2,1,60,0,0
75515,-100,4,2,1,45,0,0
79265,-100,4,2,1,40,0,0
79515,-100,4,2,1,45,0,0
79598,-100,4,2,1,40,0,0
81515,-50,4,2,1,50,0,0
83015,-50,4,2,1,55,0,0
83390,-50,4,2,1,65,0,0
83515,-55.5555555555556,4,2,1,65,0,0
84181,-55.5555555555556,4,2,1,60,0,0
84265,-55.5555555555556,4,2,1,65,0,0
84389,-55.5555555555556,4,2,1,60,0,0
84515,-55.5555555555556,4,2,1,65,0,0
86181,-55.5555555555556,4,2,1,60,0,0
86265,-55.5555555555556,4,2,1,65,0,0
86389,-55.5555555555556,4,2,1,60,0,0
86515,-55.5555555555556,4,2,1,65,0,0
88139,-55.5555555555556,4,2,1,60,0,0
88265,-55.5555555555556,4,2,1,65,0,0
88431,-55.5555555555556,4,2,1,60,0,0
88515,-55.5555555555556,4,2,1,65,0,0
88639,-55.5555555555556,4,2,1,60,0,0
88765,-55.5555555555556,4,2,1,65,0,0
88848,-55.5555555555556,4,2,1,60,0,0
89015,-55.5555555555556,4,2,1,65,0,0
90139,-55.5555555555556,4,2,1,60,0,0
90265,-55.5555555555556,4,2,1,65,0,0
90389,-55.5555555555556,4,2,1,60,0,0
90515,-55.5555555555556,4,2,1,65,0,0
90598,-55.5555555555556,4,2,1,60,0,0
90681,-55.5555555555556,4,2,1,65,0,0
90931,-55.5555555555556,4,2,1,60,0,0
91015,-55.5555555555556,4,2,1,65,0,0
91515,-55.5555555555556,4,2,2,65,0,0
92431,-55.5555555555556,4,2,2,60,0,0
92515,-55.5555555555556,4,2,2,65,0,0
92639,-55.5555555555556,4,2,2,60,0,0
92765,-55.5555555555556,4,2,2,65,0,0
92889,-55.5555555555556,4,2,2,60,0,0
93015,-55.5555555555556,4,2,2,65,0,0
94140,-55.5555555555556,4,2,2,60,0,0
94265,-55.5555555555556,4,2,2,65,0,0
94390,-55.5555555555556,4,2,2,60,0,0
94515,-55.5555555555556,4,2,2,65,0,0
94681,-55.5555555555556,4,2,2,60,0,0
94765,-55.5555555555556,4,2,2,65,0,0
94889,-55.5555555555556,4,2,2,60,0,0
95015,-55.5555555555556,4,2,2,65,0,0
96181,-55.5555555555556,4,2,2,60,0,0
96265,-55.5555555555556,4,2,2,65,0,0
96348,-55.5555555555556,4,2,2,60,0,0
96515,-55.5555555555556,4,2,2,65,0,0
96848,-55.5555555555556,4,2,2,60,0,0
97015,-55.5555555555556,4,2,2,65,0,0
98889,-55.5555555555556,4,2,2,60,0,0
99015,-55.5555555555556,4,2,2,65,0,0
99515,-55.5555555555556,4,2,2,75,0,0
99681,-55.5555555555556,4,2,2,70,0,0
99765,-55.5555555555556,4,2,2,75,0,0
99889,-55.5555555555556,4,2,2,70,0,0
100015,-55.5555555555556,4,2,2,75,0,0
100098,-55.5555555555556,4,2,2,70,0,0
100265,-55.5555555555556,4,2,2,75,0,0
100889,-55.5555555555556,4,2,2,70,0,0
101015,-55.5555555555556,4,2,2,75,0,0
101139,-55.5555555555556,4,2,2,70,0,0
101264,-55.5555555555556,4,2,2,75,0,0
101390,-55.5555555555556,4,2,2,70,0,0
101515,-55.5555555555556,4,2,2,75,0,0
102139,-55.5555555555556,4,2,2,70,0,0
102265,-55.5555555555556,4,2,2,75,0,0
103515,-55.5555555555556,4,2,2,60,0,0
103681,-55.5555555555556,4,2,2,55,0,0
103765,-55.5555555555556,4,2,2,60,0,0
104890,-55.5555555555556,4,2,2,55,0,0
105015,-55.5555555555556,4,2,2,60,0,0
105515,-55.5555555555556,4,2,2,75,0,0
106181,-55.5555555555556,4,2,2,70,0,0
106265,-55.5555555555556,4,2,2,75,0,0
107598,-55.5555555555556,4,2,2,70,0,0
107765,-55.5555555555556,4,2,2,75,0,0
107848,-55.5555555555556,4,2,2,70,0,0
108015,-55.5555555555556,4,2,2,75,0,0
108140,-55.5555555555556,4,2,2,45,0,0
108515,500,4,2,1,40,1,0
112515,-100,4,2,1,45,0,0
112765,-100,4,2,1,50,0,0
112890,-100,4,2,1,45,0,0
113015,-100,4,2,1,50,0,0
113265,-100,4,2,1,45,0,0
113390,-100,4,2,1,50,0,0
114015,-100,4,2,1,45,0,0
114140,-100,4,2,1,50,0,0
115265,-100,4,2,1,45,0,0
115390,-100,4,2,1,50,0,0
115890,-100,4,2,1,45,0,0
116765,-100,4,2,1,50,0,0
116890,-100,4,2,1,45,0,0
117015,-100,4,2,1,50,0,0
117265,-100,4,2,1,45,0,0
117390,-100,4,2,1,50,0,0
117640,-100,4,2,1,45,0,0
117765,-100,4,2,1,50,0,0
117890,-100,4,2,1,45,0,0
118015,-100,4,2,1,50,0,0
118390,-100,4,2,1,45,0,0
118515,-100,4,2,1,50,0,0
119640,-100,4,2,1,45,0,0
119765,-100,4,2,1,50,0,0
120515,-66.6666666666667,4,2,1,55,0,0
120890,-66.6666666666667,4,2,1,50,0,0
121015,-66.6666666666667,4,2,1,55,0,0
121140,-66.6666666666667,4,2,1,50,0,0
121265,-66.6666666666667,4,2,1,55,0,0
121640,-66.6666666666667,4,2,1,50,0,0
121765,-66.6666666666667,4,2,1,55,0,0
121890,-66.6666666666667,4,2,1,50,0,0
122015,-66.6666666666667,4,2,1,55,0,0
122390,-66.6666666666667,4,2,1,50,0,0
122515,-66.6666666666667,4,2,1,55,0,0
123640,-66.6666666666667,4,2,1,50,0,0
123765,-66.6666666666667,4,2,1,55,0,0
123890,-66.6666666666667,4,2,1,50,0,0
124015,-66.6666666666667,4,2,1,55,0,0
124140,-66.6666666666667,4,2,1,50,0,0
124265,-66.6666666666667,4,2,1,55,0,0
124390,-66.6666666666667,4,2,1,50,0,0
124515,-66.6666666666667,4,2,1,55,0,0
124765,-66.6666666666667,4,2,1,40,0,0
128140,-66.6666666666667,4,2,1,45,0,0
128515,-50,4,2,1,65,0,0
136515,491.803278688525,4,2,1,67,1,1
137006,461.538461538462,4,2,1,67,1,1
137121,-100,4,2,1,62,0,1
137236,-100,4,2,1,67,0,1
137467,444.444444444444,4,2,1,70,1,1
137911,428.571428571429,4,2,1,70,1,1
138018,-100,4,2,1,65,0,1
138125,-100,4,2,1,70,0,1
138339,413.793103448276,4,2,1,74,1,1
138752,400,4,2,1,74,1,1
138852,-100,4,2,1,69,0,1
138952,-100,4,2,1,74,0,1
139152,-100,4,2,1,79,0,1
139652,-100,4,2,1,74,0,1
139752,-100,4,2,1,79,0,1
139952,400,4,2,1,85,1,1
140452,-100,4,2,1,80,0,1
140552,-100,4,2,1,85,0,1
140752,-100,4,2,1,91,0,1
141252,-100,4,2,1,86,0,1
141352,-100,4,2,1,91,0,1
141552,-100,4,2,1,97,0,1
142052,-100,4,2,1,92,0,1
142152,-100,4,2,1,97,0,1
142352,-100,4,2,1,100,0,1
142952,-100,4,2,1,100,0,0
144686,500,4,2,1,40,1,0
144936,-100,4,2,1,45,0,0
145102,-100,4,2,1,40,0,0
145186,500,4,2,1,45,1,0
147102,-100,4,2,1,40,0,0
147186,-100,4,2,1,45,0,0
147519,-100,4,2,1,40,0,0
147686,-100,4,2,1,45,0,0
147852,-100,4,2,1,40,0,0
147936,-100,4,2,1,45,0,0
148436,-66.6666666666667,4,2,1,45,0,0
148602,-66.6666666666667,4,2,1,40,0,0
148686,-66.6666666666667,4,2,1,45,0,0
148852,-66.6666666666667,4,2,1,40,0,0
148936,-66.6666666666667,4,2,1,45,0,0
149186,-100,4,2,1,45,0,0
151102,-100,4,2,1,40,0,0
151186,-100,4,2,1,45,0,0
152186,-100,4,2,1,60,0,0
152269,-100,4,2,1,55,0,0
152436,-100,4,2,1,60,0,0
152561,-100,4,2,1,55,0,0
152686,-66.6666666666667,4,2,1,60,0,0
152936,-50,4,2,1,60,0,0
153186,-55.5555555555556,4,2,1,60,0,0
154102,-55.5555555555556,4,2,1,75,0,0
154186,-55.5555555555556,4,2,1,60,0,0
154310,-55.5555555555556,4,2,1,75,0,0
154436,-55.5555555555556,4,2,1,60,0,0
154560,-55.5555555555556,4,2,1,75,0,0
154686,-55.5555555555556,4,2,1,60,0,0
155810,-55.5555555555556,4,2,1,75,0,0
155936,-55.5555555555556,4,2,1,60,0,0
156019,-55.5555555555556,4,2,1,75,0,0
156186,-55.5555555555556,4,2,1,60,0,0
157810,-55.5555555555556,4,2,1,75,0,0
157936,-55.5555555555556,4,2,1,60,0,0
158102,-55.5555555555556,4,2,1,75,0,0
158186,-55.5555555555556,4,2,1,60,0,0
158310,-55.5555555555556,4,2,1,75,0,0
158436,-55.5555555555556,4,2,1,60,0,0
158519,-55.5555555555556,4,2,1,75,0,0
158686,-55.5555555555556,4,2,1,60,0,0
159810,-55.5555555555556,4,2,1,75,0,0
159936,-55.5555555555556,4,2,1,60,0,0
160060,-55.5555555555556,4,2,1,75,0,0
160186,-55.5555555555556,4,2,1,60,0,0
160602,-55.5555555555556,4,2,1,75,0,0
160686,-55.5555555555556,4,2,1,60,0,0
161186,-55.5555555555556,4,2,2,80,0,0
161352,-55.5555555555556,4,2,2,75,0,0
161436,-55.5555555555556,4,2,2,80,0,0
161810,-55.5555555555556,4,2,2,75,0,0
161936,-55.5555555555556,4,2,2,80,0,0
162102,-55.5555555555556,4,2,2,75,0,0
162186,-55.5555555555556,4,2,2,80,0,0
162310,-55.5555555555556,4,2,2,75,0,0
162436,-55.5555555555556,4,2,2,80,0,0
162560,-55.5555555555556,4,2,2,75,0,0
162686,-55.5555555555556,4,2,2,80,0,0
163852,-55.5555555555556,4,2,2,75,0,0
163936,-55.5555555555556,4,2,2,80,0,0
164019,-55.5555555555556,4,2,2,75,0,0
164186,-55.5555555555556,4,2,2,80,0,0
164310,-55.5555555555556,4,2,2,75,0,0
164436,-55.5555555555556,4,2,2,80,0,0
164560,-55.5555555555556,4,2,2,75,0,0
164686,-55.5555555555556,4,2,2,80,0,0
166102,-55.5555555555556,4,2,2,75,0,0
166186,-55.5555555555556,4,2,2,80,0,0
166519,-55.5555555555556,4,2,2,75,0,0
166686,-55.5555555555556,4,2,2,80,0,0
167561,-55.5555555555556,4,2,2,75,0,0
167686,-55.5555555555556,4,2,2,80,0,0
168061,-55.5555555555556,4,2,2,75,0,0
168186,-55.5555555555556,4,2,2,80,0,0
168269,-55.5555555555556,4,2,2,75,0,0
168436,-55.5555555555556,4,2,2,80,0,0
169352,-55.5555555555556,4,2,2,75,0,0
169436,-55.5555555555556,4,2,2,80,0,0
169560,-55.5555555555556,4,2,2,75,0,0
169686,-55.5555555555556,4,2,2,80,0,0
169769,-55.5555555555556,4,2,2,75,0,0
169936,-55.5555555555556,4,2,2,80,0,0
170560,-55.5555555555556,4,2,2,75,0,0
170686,-55.5555555555556,4,2,2,80,0,0
170810,-55.5555555555556,4,2,2,75,0,0
170935,-55.5555555555556,4,2,2,80,0,0
171810,-55.5555555555556,4,2,2,75,0,0
171936,-55.5555555555556,4,2,2,80,0,0
172810,-55.5555555555556,4,2,2,75,0,0
172936,-55.5555555555556,4,2,2,80,0,0
173186,-55.5555555555556,4,2,2,65,0,0
173352,-55.5555555555556,4,2,2,60,0,0
173436,-55.5555555555556,4,2,2,65,0,0
174852,-55.5555555555556,4,2,2,60,0,0
174936,-55.5555555555556,4,2,2,65,0,0
175060,-55.5555555555556,4,2,2,60,0,0
175186,-55.5555555555556,4,2,2,80,0,0
175269,-55.5555555555556,4,2,2,75,0,0
175436,-55.5555555555556,4,2,2,80,0,0
175602,-55.5555555555556,4,2,2,75,0,0
175686,-55.5555555555556,4,2,2,80,0,0
175852,-55.5555555555556,4,2,2,75,0,0
175936,-55.5555555555556,4,2,2,80,0,0
176102,-55.5555555555556,4,2,2,75,0,0
176186,-55.5555555555556,4,2,2,80,0,0
177269,-55.5555555555556,4,2,2,75,0,0
177436,-55.5555555555556,4,2,2,80,0,0
177519,-55.5555555555556,4,2,2,75,0,0
177686,-55.5555555555556,4,2,2,80,0,0
177769,-55.5555555555556,4,2,2,75,0,0
177936,-55.5555555555556,4,2,2,80,0,0
178019,-55.5555555555556,4,2,2,75,0,0
178186,-55.5555555555556,4,2,2,90,0,0
178269,-55.5555555555556,4,2,2,85,0,0
178436,-55.5555555555556,4,2,2,90,0,0
178519,-55.5555555555556,4,2,2,85,0,0
178686,-55.5555555555556,4,2,2,90,0,0
178769,-55.5555555555556,4,2,2,85,0,0
178936,-55.5555555555556,4,2,2,90,0,0
179019,-55.5555555555556,4,2,2,85,0,0
179186,-55.5555555555556,4,2,2,90,0,0
179269,-55.5555555555556,4,2,2,85,0,0
179436,-55.5555555555556,4,2,2,90,0,0
179519,-55.5555555555556,4,2,2,85,0,0
179686,-55.5555555555556,4,2,2,90,0,0
179811,-55.5555555555556,4,2,2,35,0,0

[Colours]
Combo1 : 128,128,0
Combo2 : 128,0,0
Combo3 : 128,64,0
Combo4 : 0,128,64

[HitObjects]
48,128,765,5,2,0:0:0:0:
44,244,931,1,2,0:0:0:0:
44,244,1015,2,0,L|34:364,1,110,6|2,3:0|0:0,0:0:0:0:
116,195,1515,2,0,P|102:143|128:96,1,110,14|2,0:3|0:0,0:0:0:0:
56,136,1931,5,0,3:0:0:0:
56,136,2015,1,6,3:0:0:0:
304,168,2265,1,0,3:1:0:0:
56,136,2515,1,12,0:3:0:0:
304,168,2765,6,0,L|396:180,1,73.3333333333333,2|0,0:0|0:0,0:0:0:0:
376,177,3015,1,6,3:0:0:0:
220,156,3265,2,0,L|160:148,2,36.6666666666667,2|0|0,0:0|0:0|0:0,0:0:0:0:
220,156,3515,1,14,0:3:0:0:
284,100,3681,5,2,0:0:0:0:
276,84,3765,1,2,0:0:0:0:
304,208,3931,5,0,3:0:0:0:
316,220,4015,1,6,3:0:0:0:
328,252,4265,6,0,P|264:240|172:240,1,110.000004196167,2|0,0:0|0:0,0:0:0:0:
192,112,4515,2,0,P|128:124|36:124,1,110.000004196167,12|0,0:3|0:0,0:0:0:0:
212,232,4765,2,0,P|152:216|144:156,1,110.000004196167,2|2,0:0|0:0,0:0:0:0:
236,32,5015,6,0,L|224:148,1,110,6|0,3:0|0:0,0:0:0:0:
204,320,5515,1,14,0:3:0:0:
219,237,5681,1,2,0:0:0:0:
219,237,5765,1,2,0:0:0:0:
276,376,5931,1,0,3:0:0:0:
276,376,6015,1,4,3:0:0:0:
108,312,6265,5,0,3:1:0:0:
344,208,6515,1,12,0:3:0:0:
108,312,6765,2,0,P|136:256|155:240,1,73.3333333333333,2|2,0:0|0:0,0:0:0:0:
216,328,7015,2,0,L|356:340,1,110,6|2,3:0|0:0,0:0:0:0:
56,240,7515,5,14,0:3:0:0:
120,356,7681,1,2,0:0:0:0:
132,336,7765,1,2,0:0:0:0:
228,288,7931,1,0,3:0:0:0:
244,312,8015,1,6,3:0:0:0:
428,360,8265,6,0,L|355:369,1,73.3333333333333
216,312,8515,2,0,L|288:304,1,73.3333333333333,12|0,0:3|0:0,0:0:0:0:
364,376,8765,1,2,0:0:0:0:
364,376,9015,6,0,B|344:264|428:192|428:192|456:232|456:232|480:228,1,275.000010490418,6|0,3:2|0:0,0:0:0:0:
476,224,9515,2,0,L|468:148,1,55.0000020980836,14|0,0:3|0:0,0:0:0:0:
404,112,9681,2,0,L|392:-20,1,110.000004196167,2|0,0:0|0:0,0:0:0:0:
340,180,9931,5,2,3:0:0:0:
308,192,10015,2,0,L|292:324,1,110.000004196167,6|0,3:0|0:0,0:0:0:0:
376,256,10265,2,0,B|332:248|290:273|290:273|280:324,1,110.000004196167,2|2,3:0|0:0,0:0:0:0:
356,368,10515,1,14,0:3:0:0:
292,180,10681,2,0,L|276:312,1,110.000004196167,2|0,0:0|0:0,0:0:0:0:
216,356,10931,5,0,0:0:0:0:
188,336,11015,2,0,L|145:-20,1,330.000012588501,4|14,3:0|0:3,0:0:0:0:
147,7,11681,1,2,0:0:0:0:
147,7,11765,1,2,0:0:0:0:
105,100,11931,5,2,3:0:0:0:
121,124,12015,1,6,3:0:0:0:
209,180,12181,5,2,0:0:0:0:
196,205,12265,1,2,3:0:0:0:
225,76,12431,5,2,0:0:0:0:
249,60,12515,2,0,P|333:60|365:80,1,110.000004196167,14|2,0:3|0:0,0:0:0:0:
136,104,12765,2,0,P|52:104|20:84,1,110.000004196167,2|2,0:0|0:0,0:0:0:0:
148,8,13015,6,0,B|84:76|100:184|100:184|56:196|56:196|20:152,1,275.000010490418,6|0,3:0|0:0,0:0:0:0:
36,160,13515,2,0,L|44:236,1,55.0000020980836,12|0,0:3|0:0,0:0:0:0:
108,272,13681,2,0,L|92:408,1,110.000004196167
172,204,13931,5,2,3:0:0:0:
204,192,14015,2,0,L|220:60,1,110.000004196167,6|0,3:0|0:0,0:0:0:0:
320,124,14265,2,0,B|276:132|234:106|234:106|224:56,1,110.000004196167,2|2,3:0|0:0,0:0:0:0:
316,32,14515,1,14,0:3:0:0:
136,104,14681,2,0,L|268:88,1,110.000004196167,2|0,0:0|0:0,0:0:0:0:
352,28,14931,5,2,0:0:0:0:
324,48,15015,2,0,L|360:336,1,275.000010490418,6|2,3:0|0:0,0:0:0:0:
216,372,15515,2,0,P|157:331|269:331,1,275.000010490418,14|0,0:3|3:0,0:0:0:0:
420,376,16015,2,0,P|448:212|236:384,1,660.000025177003,6|6,3:0|3:2,0:0:0:0:
272,309,20765,6,0,L|260:257,2,36.6666666666667
220,368,21015,1,0,3:0:0:0:
256,192,21098,12,2,22765,0:0:0:0:
440,192,23015,6,0,P|446:266|402:321,1,146.666666666667,2|0,3:0|0:0,0:0:0:0:
324,344,23265,2,0,P|256:312|230:247,1,146.666666666667,2|0,3:0|0:0,0:0:0:0:
248,164,23515,2,0,P|309:120|378:131,1,146.666666666667,8|0,0:0|0:0,0:0:0:0:
452,180,23765,6,0,P|458:105|414:50,1,146.666666666667,0|0,3:0|0:0,0:0:0:0:
360,228,24015,2,0,P|421:271|490:260,1,146.666666666667,0|0,3:0|0:0,0:0:0:0:
364,120,24265,2,0,P|296:151|270:216,1,146.666666666667,0|0,3:0|0:0,0:0:0:0:
140,192,24515,5,10,0:0:0:0:
148,184,25015,6,0,L|128:64,1,98.9999969787599,6|2,3:2|0:0,0:0:0:0:
28,344,25265,2,0,L|48:224,1,98.9999969787599,2|2,3:0|0:0,0:0:0:0:
156,176,25515,5,2,3:0:0:0:
139,78,25640,1,2,0:0:0:0:
164,168,25765,2,0,L|144:324,1,131.99999597168,2|0,3:0|0:0,0:0:0:0:
232,312,26015,6,0,P|268:348|340:344,1,98.9999969787599,2|0,3:0|0:0,0:0:0:0:
288,164,26265,2,0,P|324:128|396:132,1,98.9999969787599,0|0,3:0|0:0,0:0:0:0:
460,308,26515,5,2,3:0:0:0:
496,172,26640,1,2,0:0:0:0:
360,204,26765,1,2,3:0:0:0:
488,164,26890,1,2,0:0:0:0:
372,288,27015,6,0,L|469:304,1,98.9999969787599,2|2,3:0|0:0,0:0:0:0:
212,200,27265,2,0,L|309:183,1,98.9999969787599,2|2,3:0|0:0,0:0:0:0:
508,260,27515,2,0,L|377:280,1,131.99999597168,2|0,3:0|0:0,0:0:0:0:
324,352,27765,2,0,P|288:316|292:244,1,98.9999969787599,2|0,3:0|0:0,0:0:0:0:
352,44,28015,6,0,P|388:80|348:212,1,197.99999395752,2|0,3:0|3:0,0:0:0:0:
360,36,28515,5,10,0:0:0:0:
412,128,28640,1,2,3:0:0:0:
360,216,28765,2,0,P|316:184|256:184,1,98.9999969787599,10|2,0:0|0:0,0:0:0:0:
148,72,29015,6,0,L|124:184,1,98.9999969787599,2|2,3:0|0:0,0:0:0:0:
260,352,29265,2,0,L|236:240,1,98.9999969787599,2|2,3:0|0:0,0:0:0:0:
144,64,29515,6,0,L|120:176,1,98.9999969787599,2|0,3:0|0:0,0:0:0:0:
76,344,29765,1,2,3:0:0:0:
160,248,29931,5,2,0:0:0:0:
148,240,30015,2,0,B|-4:256|-4:256|60:280,1,197.99999395752,2|0,3:0|3:0,0:0:0:0:
388,312,30515,2,0,P|343:284|372:214,1,131.99999597168,2|0,3:0|0:0,0:0:0:0:
444,256,30765,2,0,L|428:354,1,98.9999969787599,2|0,3:0|0:0,0:0:0:0:
512,200,31015,6,0,P|472:132|360:128,1,197.99999395752,2|2,3:0|3:0,0:0:0:0:
288,176,31390,1,2,0:0:0:0:
360,48,31515,6,0,B|400:20|400:20|380:116|268:84,1,197.99999395752,2|2,3:0|3:0,0:0:0:0:
224,24,31890,1,0,0:0:0:0:
352,136,32015,6,0,L|364:36,1,98.9999969787599,2|0,3:0|0:0,0:0:0:0:
184,100,32265,2,0,L|195:1,1,98.9999969787599,0|0,3:0|0:0,0:0:0:0:
112,160,32515,5,2,3:0:0:0:
212,184,32640,1,2,1:0:0:0:
136,276,32765,1,2,3:0:0:0:
220,212,32890,1,2,1:0:0:0:
280,356,33015,6,0,L|296:236,1,98.9999969787599,6|2,3:2|0:0,0:0:0:0:
420,144,33265,2,0,P|388:104|328:92,1,98.9999969787599,10|2,0:0|0:0,0:0:0:0:
400,360,33515,1,2,3:0:0:0:
328,276,33640,1,0,0:0:0:0:
432,352,33765,1,10,0:0:0:0:
444,232,33890,5,0,0:0:0:0:
336,284,34015,2,0,L|204:260,1,131.99999597168,2|0,3:0|0:0,0:0:0:0:
116,216,34265,2,0,L|20:236,1,98.9999969787599,8|0,0:0|0:0,0:0:0:0:
164,100,34515,5,2,3:0:0:0:
112,208,34640,1,2,0:0:0:0:
252,128,34765,5,10,0:0:0:0:
216,32,34890,1,2,0:0:0:0:
188,180,35015,6,0,P|232:212|292:204,1,98.9999969787599,2|2,3:0|0:0,0:0:0:0:
80,68,35265,1,10,0:0:0:0:
176,176,35390,1,2,0:0:0:0:
224,36,35515,2,0,L|336:12,1,98.9999969787599,2|0,3:0|0:0,0:0:0:0:
160,92,35765,2,0,L|48:116,1,98.9999969787599,10|0,0:0|0:0,0:0:0:0:
288,220,36015,6,0,P|236:174|233:110,1,131.99999597168,2|0,3:0|0:0,0:0:0:0:
156,100,36265,2,0,P|188:44|224:32,1,98.9999969787599,8|0,0:0|0:0,0:0:0:0:
300,216,36515,5,2,3:0:0:0:
240,120,36640,1,2,3:0:0:0:
400,208,36765,5,10,0:0:0:0:
432,68,36890,1,2,0:0:0:0:
324,180,37015,6,0,P|280:212|220:204,1,98.9999969787599,2|2,3:0|0:0,0:0:0:0:
440,64,37265,2,0,L|544:92,1,98.9999969787599,10|2,0:0|0:0,0:0:0:0:
232,200,37515,2,0,L|120:176,1,98.9999969787599,2|2,3:0|0:0,0:0:0:0:
396,4,37765,2,0,P|416:68|376:144,1,131.99999597168,10|0,0:0|0:0,0:0:0:0:
316,176,38015,2,0,B|224:160|224:160|204:100|148:88,1,197.99999395752,2|8,3:0|0:0,0:0:0:0:
104,104,38348,5,2,0:0:0:0:
88,56,38431,1,2,0:0:0:0:
140,64,38515,2,0,P|88:80|64:128,1,98.9999969787599,2|2,3:0|0:0,0:0:0:0:
152,216,38765,2,0,L|176:324,1,98.9999969787599,10|2,0:0|0:0,0:0:0:0:
220,172,39015,6,0,B|308:216|308:216|256:308,1,197.99999395752,2|10,3:0|0:0,0:0:0:0:
168,260,39390,1,2,0:0:0:0:
64,256,39515,1,2,3:0:0:0:
72,244,39640,1,2,0:0:0:0:
176,344,39765,1,10,0:0:0:0:
180,356,39890,1,0,0:0:0:0:
252,296,40015,5,0,3:0:0:0:
336,328,40140,1,0,0:0:0:0:
408,268,40265,2,0,L|376:164,1,98.9999969787599,10|0,0:0|0:0,0:0:0:0:
356,36,40515,5,2,3:0:0:0:
448,128,40640,1,2,3:0:0:0:
336,48,40765,1,10,0:0:0:0:
440,80,40890,1,2,0:0:0:0:
308,128,41015,2,0,P|248:124|168:64,1,131.99999597168,6|0,3:2|0:0,0:0:0:0:
224,8,41265,6,0,L|232:120,1,98.9999969787599,10|0,0:0|0:0,0:0:0:0:
136,256,41515,2,0,L|144:344,1,65.9999979858399,2|0,3:0|0:0,0:0:0:0:
141,321,41765,1,10,0:0:0:0:
16,208,41890,6,0,P|106:177|180:237,1,197.99999395752,2|2,0:0|0:0,0:0:0:0:
264,232,42265,2,0,P|304:272|360:268,1,98.9999969787599,10|0,0:0|0:0,0:0:0:0:
224,348,42515,2,0,P|214:299|223:251,2,98.9999969787599,2|0|8,3:0|0:0|0:0,0:0:0:0:
316,384,42890,5,2,0:0:0:0:
340,200,43015,2,0,L|300:4,1,197.99999395752,2|8,3:0|0:0,0:0:0:0:
308,12,43390,5,2,0:0:0:0:
420,152,43515,2,0,L|443:261,1,98.9999969787599,2|0,3:0|0:0,0:0:0:0:
344,192,43765,5,10,0:0:0:0:
484,64,43890,2,0,L|444:258,1,197.99999395752,2|2,0:0|0:0,0:0:0:0:
420,144,44265,5,10,0:0:0:0:
312,20,44390,2,0,L|200:-4,2,98.9999969787599,0|0|2,0:0|3:0|0:0,0:0:0:0:
148,132,44765,1,10,0:0:0:0:
228,76,44890,1,2,0:0:0:0:
320,98,45015,2,0,P|289:156|216:179,1,131.99999597168,6|0,3:2|0:0,0:0:0:0:
212,220,45265,5,10,0:0:0:0:
158,144,45390,1,10,0:0:0:0:
232,92,45515,2,0,B|228:152|240:216,1,98.9999969787599,2|2,3:0|3:0,0:0:0:0:
332,256,45765,2,0,B|336:316|324:380,1,98.9999969787599,10|2,0:0|0:0,0:0:0:0:
228,304,46015,5,2,3:0:0:0:
144,272,46140,1,2,0:0:0:0:
232,328,46265,1,10,0:0:0:0:
112,356,46390,1,2,0:0:0:0:
240,344,46515,2,0,P|320:332|448:336,1,197.99999395752,2|10,3:0|0:0,0:0:0:0:
496,268,46890,5,2,0:0:0:0:
500,384,47015,2,0,P|424:352|428:224,1,197.99999395752,10|10,0:0|0:0,0:0:0:0:
408,128,47390,5,2,0:0:0:0:
416,256,47515,2,0,P|466:234|463:150,1,131.99999597168,10|0,0:0|0:0,0:0:0:0:
396,124,47765,2,0,B|392:88|392:88|404:56|404:56|400:12,1,98.9999969787599,10|2,0:0|0:0,0:0:0:0:
480,164,48015,6,0,B|485:220|485:220|461:284|461:284|469:356,1,197.99999395752,10|10,0:0|0:0,0:0:0:0:
32,220,48515,6,0,B|24:148|24:148|48:83|48:83|42:27,1,197.99999395752,10|8,0:0|0:0,0:0:0:0:
328,316,49015,6,0,L|424:324,2,65.9999979858399,8|0|0,0:0|0:0|0:0,0:0:0:0:
172,344,49265,6,0,L|76:336,2,65.9999979858399,8|0|0,0:0|0:0|0:0,0:0:0:0:
256,384,49515,5,4,3:2:0:0:
256,384,51515,5,4,3:2:0:0:
252,372,51598,1,2,0:0:0:0:
336,308,51765,2,0,P|340:220|336:188,1,110.000004196167,2|2,0:0|0:0,0:0:0:0:
272,148,52015,1,14,0:3:0:0:
160,312,52265,1,2,0:0:0:0:
76,240,52431,5,0,3:0:0:0:
88,232,52515,2,0,P|96:176|88:120,1,110.000004196167,6|0,3:0|0:0,0:0:0:0:
128,44,52765,2,0,P|120:100|128:156,1,110.000004196167,2|2,0:0|0:0,0:0:0:0:
200,212,53015,1,14,0:3:0:0:
232,384,53265,1,2,0:0:0:0:
332,324,53431,5,2,0:0:0:0:
340,336,53515,2,0,P|436:340|512:332,1,165.000006294251,6|2,3:0|0:0,0:0:0:0:
384,116,54015,2,0,P|288:112|212:120,1,165.000006294251,14|2,0:3|0:0,0:0:0:0:
360,248,54515,6,0,P|404:240|432:232,1,55.0000020980836,6|0,3:0|0:0,0:0:0:0:
292,196,54765,2,0,P|248:204|180:236,1,110.000004196167,2|2,0:0|0:0,0:0:0:0:
152,312,55015,2,0,P|186:283|228:221,1,110.000004196167,14|2,0:3|0:0,0:0:0:0:
296,164,55265,2,0,P|264:124|232:16,1,165.000006294251,2|4,0:0|3:0,0:0:0:0:
232,16,55765,5,2,0:0:0:0:
336,64,55931,1,2,0:0:0:0:
344,76,56015,2,0,P|396:68|512:76,1,165.000006294251,14|2,0:3|0:0,0:0:0:0:
352,156,56431,5,0,3:0:0:0:
337,160,56515,2,0,P|302:204|281:256,1,110.000004196167,6|0,3:0|0:0,0:0:0:0:
292,336,56765,2,0,P|270:285|236:242,1,110.000004196167,2|2,0:0|0:0,0:0:0:0:
152,236,57015,1,14,0:3:0:0:
376,276,57265,1,2,0:0:0:0:
432,364,57431,5,2,0:0:0:0:
422,372,57515,2,0,P|424:268|456:192,1,165.000006294251,6|2,3:0|0:0,0:0:0:0:
196,156,58015,2,0,P|194:260|162:336,1,165.000006294251,14|2,0:3|0:0,0:0:0:0:
56,300,58431,5,0,3:0:0:0:
52,288,58515,2,0,P|108:312|144:356,1,110.000004196167,6|0,3:0|0:0,0:0:0:0:
216,296,58765,2,0,P|268:292|316:240,1,110.000004196167
228,204,59015,2,0,L|220:136,4,55.0000020980836,12|0|0|2|0,0:3|0:0|0:0|0:0|0:0,0:0:0:0:
216,212,59431,5,2,0:0:0:0:
208,220,59515,6,0,L|196:96,1,110,6|2,3:2|0:0,0:0:0:0:
68,328,60015,1,14,0:3:0:0:
72,240,60181,2,0,P|36:224|19:219,1,36.6666666666667,0|2,0:0|0:0,0:0:0:0:
76,320,60431,2,0,L|192:304,1,110,0|0,3:0|0:0,0:0:0:0:
224,336,60765,2,0,P|276:324|316:280,1,110,0|12,3:0|0:3,0:0:0:0:
480,344,61265,6,0,L|428:362,1,55,2|0,0:0|0:0,0:0:0:0:
272,228,61515,2,0,L|347:201,1,73.3333333333333,6|0,3:0|0:0,0:0:0:0:
384,232,61765,6,0,L|418:220,2,36.6666666666667,2|0|0,0:0|0:0|0:0,0:0:0:0:
384,232,62015,1,14,0:3:0:0:
336,336,62181,5,2,0:0:0:0:
320,324,62264,1,2,0:0:0:0:
256,240,62431,5,0,3:0:0:0:
240,252,62514,1,6,3:0:0:0:
200,240,62765,6,0,P|216:316|232:364,1,110.000004196167,0|0,3:0|0:0,0:0:0:0:
352,360,63015,2,0,P|278:335|228:325,1,110.000004196167,12|0,0:3|0:0,0:0:0:0:
120,200,63265,2,0,P|138:151|190:148,1,110.000004196167,2|2,0:0|0:0,0:0:0:0:
336,200,63515,6,0,L|340:112,1,73.3333333333333,6|0,3:0|0:0,0:0:0:0:
339,126,63765,1,2,0:0:0:0:
283,74,63890,2,0,P|278:47|283:20,1,55,0|14,0:0|0:3,0:0:0:0:
428,152,64140,2,0,P|432:125|427:98,1,55,0|2,0:0|0:0,0:0:0:0:
364,47,64431,5,0,3:0:0:0:
364,47,64515,1,4,3:0:0:0:
347,134,64640,2,0,P|351:170|359:194,1,55,0|0,0:0|3:0,0:0:0:0:
430,241,64890,2,0,B|426:277|414:297|414:297|360:310,1,110
275,280,65265,6,0,P|276:243|284:208,1,73.3333333333333,2|2,0:0|0:0,0:0:0:0:
360,164,65515,2,0,P|356:108|304:84,1,110,6|2,3:0|0:0,0:0:0:0:
280,320,66015,2,0,P|304:308|320:276,1,55,14|0,0:3|0:0,0:0:0:0:
244,248,66265,1,2,0:0:0:0:
128,324,66431,1,0,3:0:0:0:
128,324,66515,2,0,L|48:304,1,73.3333333333333,6|0,3:0|0:0,0:0:0:0:
164,244,66765,6,0,L|168:200,1,36.6666666666667,0|0,3:0|0:0,0:0:0:0:
108,152,66931,1,2,0:0:0:0:
88,180,67015,2,0,L|92:136,1,36.6666666666667,12|0,0:3|0:0,0:0:0:0:
32,44,67181,1,2,0:0:0:0:
0,112,67265,2,0,B|4:76|4:76|44:56,1,73.3333333333333,2|2,0:0|0:0,0:0:0:0:
180,0,67515,6,0,B|232:8|232:8|304:56|308:160|308:160|260:144,1,275.000010490418,6|0,3:2|0:0,0:0:0:0:
268,136,68015,2,0,L|352:120,1,55.0000020980836,12|0,0:3|0:0,0:0:0:0:
376,56,68181,2,0,L|500:32,1,110.000004196167,2|0,0:0|0:0,0:0:0:0:
428,196,68431,5,2,3:0:0:0:
404,220,68515,2,0,L|268:204,1,110.000004196167,6|2,3:0|0:0,0:0:0:0:
216,272,68765,2,0,B|256:256|280:212|280:212|300:214,1,110.000004196167,2|2,3:0|0:0,0:0:0:0:
352,296,69015,1,14,0:3:0:0:
308,220,69181,2,0,L|124:200,1,165.000006294251,2|0,0:0|0:0,0:0:0:0:
32,348,69515,6,0,L|388:284,1,330.000012588501,4|14,3:0|0:3,0:0:0:0:
356,289,70181,1,2,0:0:0:0:
356,289,70265,1,2,0:0:0:0:
448,356,70431,5,2,3:0:0:0:
464,380,70515,1,6,3:0:0:0:
460,240,70681,5,0,0:0:0:0:
485,253,70765,1,2,3:0:0:0:
368,160,70931,5,2,0:0:0:0:
392,144,71015,2,0,P|476:144|508:164,1,110.000004196167,14|2,0:3|0:0,0:0:0:0:
364,248,71265,2,0,P|280:248|248:228,1,110.000004196167,2|0,0:0|0:0,0:0:0:0:
332,384,71515,6,0,B|292:376|292:376|264:284|280:196|280:196|252:240,1,275.000010490418,6|0,3:0|0:0,0:0:0:0:
244,248,72015,2,0,L|160:264,1,55.0000020980836,12|0,0:3|0:0,0:0:0:0:
136,328,72181,2,0,L|12:352,1,110.000004196167
84,188,72431,5,2,3:0:0:0:
108,164,72515,2,0,L|244:180,1,110.000004196167,6|0,3:3|0:0,0:0:0:0:
268,84,72765,2,0,B|252:124|208:148|208:148|211:168,1,110.000004196167,2|2,3:0|0:0,0:0:0:0:
284,224,73015,1,14,0:3:0:0:
204,164,73181,2,0,L|224:-20,1,165.000006294251,2|2,0:0|0:0,0:0:0:0:
444,16,73515,6,0,L|173:66,1,275.000010490418,6|0,3:0|0:0,0:0:0:0:
107,151,74015,2,0,P|134:42|29:83,1,275.000010490418,14|0,0:3|3:0,0:0:0:0:
68,236,74515,2,0,P|293:139|151:339,1,660.000025177003,6|6,3:0|3:2,0:0:0:0:
224,308,79265,6,0,L|236:256,2,36.6666666666667
276,367,79515,1,0,3:0:0:0:
256,192,79598,12,0,81265,0:0:0:0:
40,352,81515,6,0,B|259:336,1,220,4|0,3:2|3:0,0:0:0:0:
512,204,82015,2,0,B|292:188,1,220,8|0,0:0|3:0,0:0:0:0:
56,336,82515,2,0,B|275:320,1,220,0|0,3:0|3:0,0:0:0:0:
404,194,82890,5,2,0:0:0:0:
408,182,83015,2,0,B|298:174,1,110,10|2,0:0|0:0,0:0:0:0:
172,336,83265,2,0,B|62:328,1,110,2|2,0:0|0:0,0:0:0:0:
40,144,83515,5,6,3:2:0:0:
120,216,83640,1,2,0:0:0:0:
56,136,83765,1,2,3:0:0:0:
84,248,83890,1,2,0:0:0:0:
72,127,84015,2,0,P|102:71|165:60,1,131.99999597168,2|0,3:0|0:0,0:0:0:0:
248,32,84265,2,0,P|250:80|225:121,1,98.9999969787599,2|0,3:0|0:0,0:0:0:0:
0,8,84515,2,0,P|22:103|108:144,1,197.99999395752,2|0,3:0|3:0,0:0:0:0:
352,48,85015,5,2,3:0:0:0:
356,192,85140,1,2,0:0:0:0:
424,96,85265,5,2,3:0:0:0:
332,160,85390,1,2,0:0:0:0:
444,176,85515,6,0,P|492:148|512:100,1,98.9999969787599,2|2,3:0|0:0,0:0:0:0:
308,84,85765,2,0,P|260:112|240:160,1,98.9999969787599,2|2,3:0|0:0,0:0:0:0:
336,368,86015,2,0,L|356:212,1,131.99999597168,2|0,3:0|0:0,0:0:0:0:
428,176,86265,2,0,L|437:77,1,98.9999969787599,2|0,3:0|0:0,0:0:0:0:
248,284,86515,2,0,P|157:251|48:256,1,197.99999395752,2|0,3:0|3:0,0:0:0:0:
272,168,87015,5,10,0:0:0:0:
360,244,87140,1,2,3:0:0:0:
256,292,87265,2,0,P|209:278|182:238,1,98.9999969787599,10|2,0:0|0:0,0:0:0:0:
368,236,87515,6,0,L|476:212,1,98.9999969787599,2|2,3:0|0:0,0:0:0:0:
336,336,87765,1,2,3:0:0:0:
432,196,87890,1,2,0:0:0:0:
512,336,88015,2,0,L|404:312,1,98.9999969787599,2|0,3:0|0:0,0:0:0:0:
168,128,88265,2,0,P|100:168|96:232,1,131.99999597168,2|0,3:0|0:0,0:0:0:0:
180,248,88515,2,0,B|188:291|188:291|182:312|182:312|196:362,1,98.9999969787599,2|0,3:0|0:0,0:0:0:0:
100,208,88765,2,0,L|84:132,2,65.9999979858399,0|2|2,3:0|0:0|0:0,0:0:0:0:
40,356,89015,6,0,P|80:348|104:284,1,98.9999969787599,2|2,3:0|0:0,0:0:0:0:
260,160,89265,1,2,3:0:0:0:
172,136,89390,1,2,0:0:0:0:
108,200,89515,6,0,P|144:108|232:72,1,197.99999395752,2|2,3:0|3:0,0:0:0:0:
300,176,89890,1,2,0:0:0:0:
400,96,90015,6,0,P|368:52|320:28,1,98.9999969787599,2|0,3:0|0:0,0:0:0:0:
176,124,90265,2,0,P|225:101|279:105,1,98.9999969787599,2|0,3:0|0:0,0:0:0:0:
484,184,90515,6,0,L|488:256,1,65.9999979858399,0|0,3:0|0:0,0:0:0:0:
496,256,90681,5,2,0:0:0:0:
503,260,90765,6,0,P|485:198|426:174,1,131.99999597168,2|0,3:0|0:0,0:0:0:0:
376,264,91015,6,0,B|324:272|324:272|368:248,1,98.9999969787599,2|2,3:0|1:0,0:0:0:0:
448,376,91265,2,0,B|500:384|500:384|456:360,1,98.9999969787599,2|2,3:0|1:0,0:0:0:0:
416,176,91515,6,0,B|396:123|447:78|447:78|457:13|385:9,1,197.99999395752,6|10,3:2|0:0,0:0:0:0:
496,152,91890,1,2,0:0:0:0:
416,56,92015,1,2,3:0:0:0:
428,184,92140,1,2,0:0:0:0:
320,128,92265,2,0,P|253:116|211:166,1,131.99999597168,10|0,0:0|0:0,0:0:0:0:
192,244,92515,6,0,P|188:204|204:136,1,98.9999969787599,2|0,3:0|0:0,0:0:0:0:
0,88,92765,2,0,P|14:40|42:0,1,98.9999969787599,8|0,0:0|0:0,0:0:0:0:
96,188,93015,5,2,3:0:0:0:
208,144,93140,1,2,0:0:0:0:
220,276,93265,2,0,L|116:292,1,98.9999969787599,10|2,0:0|0:0,0:0:0:0:
0,196,93515,6,0,L|104:180,1,98.9999969787599,2|2,3:0|0:0,0:0:0:0:
120,312,93765,1,10,0:0:0:0:
216,164,93890,1,2,0:0:0:0:
100,232,94015,1,2,3:0:0:0:
208,308,94140,1,0,0:0:0:0:
88,240,94265,1,10,0:0:0:0:
192,344,94390,1,0,0:0:0:0:
56,356,94515,6,0,P|140:348|212:360,1,131.99999597168,2|0,3:0|0:0,0:0:0:0:
280,332,94765,2,0,P|308:360|368:356,1,98.9999969787599,8|0,0:0|0:0,0:0:0:0:
432,208,95015,5,2,3:0:0:0:
488,324,95140,1,2,3:0:0:0:
340,248,95265,1,10,0:0:0:0:
468,228,95390,1,2,0:0:0:0:
376,364,95515,6,0,L|384:252,1,98.9999969787599,2|2,3:0|0:0,0:0:0:0:
324,48,95765,2,0,L|316:146,1,98.9999969787599,10|2,0:0|0:0,0:0:0:0:
480,320,96015,6,0,L|464:168,1,131.99999597168,2|0,3:0|0:0,0:0:0:0:
496,96,96265,2,0,L|498:30,2,65.9999979858399,10|0|0,0:0|0:0|0:0,0:0:0:0:
404,116,96515,2,0,P|344:112|224:196,1,197.99999395752,2|8,3:0|0:0,0:0:0:0:
180,184,96848,5,2,0:0:0:0:
204,136,96931,1,2,0:0:0:0:
156,112,97015,2,0,P|140:148|168:216,1,98.9999969787599,2|2,3:0|0:0,0:0:0:0:
328,280,97265,2,0,P|304:248|231:238,1,98.9999969787599,10|2,0:0|0:0,0:0:0:0:
112,284,97515,6,0,B|-28:248|-28:248|44:244,1,197.99999395752,2|10,3:0|0:0,0:0:0:0:
116,296,97890,1,2,0:0:0:0:
184,384,98015,6,0,L|156:280,1,98.9999969787599,2|2,3:0|0:0,0:0:0:0:
256,116,98265,2,0,P|240:68|180:40,1,98.9999969787599,10|2,0:0|0:0,0:0:0:0:
36,160,98515,5,2,3:0:0:0:
90,96,98640,1,2,0:0:0:0:
172,116,98765,2,0,L|204:224,1,98.9999969787599,10|0,0:0|0:0,0:0:0:0:
285,322,99015,5,2,3:0:0:0:
332,224,99140,1,2,0:0:0:0:
416,292,99265,1,10,0:0:0:0:
320,228,99390,1,2,0:0:0:0:
280,332,99515,2,0,L|128:312,1,131.99999597168,6|0,3:2|0:0,0:0:0:0:
72,276,99765,6,0,P|93:253|176:236,1,98.9999969787599,10|0,0:0|0:0,0:0:0:0:
288,324,100015,2,0,P|309:346|364:360,1,65.9999979858399,2|0,3:0|0:0,0:0:0:0:
341,359,100265,1,10,0:0:0:0:
488,204,100390,6,0,P|404:188|360:288,1,197.99999395752,2|2,0:0|0:0,0:0:0:0:
444,312,100765,2,0,P|484:272|480:216,1,98.9999969787599,10|0,0:0|0:0,0:0:0:0:
412,96,101015,2,0,P|402:47|411:-1,2,98.9999969787599,2|0|8,3:0|0:0|0:0,0:0:0:0:
480,196,101390,5,0,0:0:0:0:
420,92,101515,2,0,L|224:52,1,197.99999395752,2|8,3:0|0:0,0:0:0:0:
220,60,101890,5,2,0:0:0:0:
60,204,102015,2,0,L|157:184,1,98.9999969787599,2|0,3:0|0:0,0:0:0:0:
96,100,102265,5,10,0:0:0:0:
263,233,102390,2,0,L|68:200,1,197.99999395752,2|2,0:0|0:0,0:0:0:0:
192,260,102765,5,10,0:0:0:0:
220,60,102890,2,0,L|316:39,2,98.9999969787599,2|0|2,0:0|3:0|0:0,0:0:0:0:
176,152,103265,1,10,0:0:0:0:
108,96,103390,1,2,0:0:0:0:
152,20,103515,2,0,P|200:100|208:152,1,131.99999597168,6|0,3:2|0:0,0:0:0:0:
235,101,103765,5,10,0:0:0:0:
324,128,103890,1,10,0:0:0:0:
416,156,104015,2,0,B|412:216|424:280,1,98.9999969787599,2|2,3:0|3:0,0:0:0:0:
328,364,104265,2,0,B|335:325|331:265,1,98.9999969787599,10|2,0:0|0:0,0:0:0:0:
276,200,104515,5,2,3:0:0:0:
156,160,104640,1,2,0:0:0:0:
192,288,104765,1,10,0:0:0:0:
196,156,104890,1,0,0:0:0:0:
88,216,105015,2,0,B|44:208|-12:176|-12:176|24:76,1,197.99999395752,2|10,3:0|0:0,0:0:0:0:
128,44,105390,5,2,0:0:0:0:
12,0,105515,2,0,P|88:32|84:160,1,197.99999395752,10|10,0:0|0:0,0:0:0:0:
0,240,105890,5,2,3:0:0:0:
96,224,106015,2,0,P|46:246|49:330,1,131.99999597168,10|0,0:0|0:0,0:0:0:0:
116,368,106265,2,0,B|152:372|152:372|184:360|184:360|228:364,1,98.9999969787599,14|2,0:0|3:0,0:0:0:0:
53,326,106515,6,0,B|48:270|48:270|72:206|72:206|64:134,1,197.99999395752,10|10,0:0|0:0,0:0:0:0:
512,192,107015,6,0,B|520:264|520:264|496:329|496:329|502:385,1,197.99999395752,10|8,0:0|0:0,0:0:0:0:
252,68,107515,6,0,L|260:-28,2,65.9999979858399,8|0|0,0:0|0:0|0:0,0:0:0:0:
360,228,107765,6,0,L|356:316,2,65.9999979858399,8|0|0,0:0|0:0|3:0,0:0:0:0:
308,148,108015,5,8,0:0:0:0:
0,180,112765,6,0,P|27:162|60:160,1,55,2|0,0:0|0:0,0:0:0:0:
112,236,113015,2,0,P|184:256|232:252,1,110,2|0,3:0|0:0,0:0:0:0:
140,200,113390,1,2,0:0:0:0:
128,204,113515,1,2,3:0:0:0:
252,240,113765,5,2,3:0:0:0:
240,232,113890,2,0,P|232:200|232:168,1,55,2|0,0:0|0:0,0:0:0:0:
304,124,114140,2,0,P|311:97|312:70,1,55,2|2,3:0|3:0,0:0:0:0:
256,0,114390,1,2,0:0:0:0:
248,12,114515,1,2,3:0:0:0:
244,180,114765,5,2,0:0:0:0:
295,117,114890,1,2,0:0:0:0:
375,105,115015,1,2,3:0:0:0:
444,144,115140,2,0,P|400:140|376:140,1,55,2|0,3:0|0:0,0:0:0:0:
320,200,115390,2,0,P|276:204|252:204,1,55,2|0,0:0|3:0,0:0:0:0:
380,144,115640,2,0,P|448:152|496:160,1,110,2|0,0:0|0:0,0:0:0:0:
512,180,116765,6,0,P|484:162|451:160,1,55,2|0,0:0|0:0,0:0:0:0:
400,236,117015,2,0,P|328:256|280:252,1,110,2|0,3:0|0:0,0:0:0:0:
372,200,117390,1,2,0:0:0:0:
384,208,117515,2,0,P|424:236|436:248,1,55,2|0,3:0|0:0,0:0:0:0:
360,304,117765,2,0,P|370:340|371:368,1,55,2|0,3:0|0:0,0:0:0:0:
264,336,118015,5,2,0:0:0:0:
256,328,118140,1,2,3:0:0:0:
212,256,118265,2,0,P|213:283|220:309,1,55,2|0,3:0|0:0,0:0:0:0:
248,176,118515,2,0,P|244:124|240:108,2,55,2|2|2,3:0|0:0|0:0,0:0:0:0:
296,248,118890,5,2,0:0:0:0:
216,264,119015,1,2,3:0:0:0:
168,196,119140,1,2,3:0:0:0:
92,160,119265,1,2,0:0:0:0:
32,212,119390,1,2,0:0:0:0:
4,288,119515,2,0,P|4:244|-4:224,1,55,2|0,3:0|0:0,0:0:0:0:
24,208,119765,1,2,3:0:0:0:
176,144,120515,6,0,B|224:96|208:40|208:40|268:24,1,165.000006294251,4|2,3:2|3:0,0:0:0:0:
96,12,120890,5,2,0:0:0:0:
168,64,121015,2,0,L|256:36,1,82.5000031471254,2|0,3:0|0:0,0:0:0:0:
308,88,121265,2,0,B|388:64|388:64|472:116,1,165.000006294251,0|2,3:0|3:0,0:0:0:0:
428,224,121640,5,2,0:0:0:0:
376,148,121765,1,2,3:0:0:0:
408,232,121890,1,2,0:0:0:0:
372,152,122015,1,2,3:0:0:0:
360,236,122140,1,2,0:0:0:0:
368,156,122265,2,0,P|328:164|280:204,1,82.5000031471254,2|0,3:0|0:0,0:0:0:0:
228,304,122515,6,0,B|177:318|177:318|140:264|76:280,1,165.000006294251,2|2,3:0|3:0,0:0:0:0:
104,368,122890,5,2,0:0:0:0:
237,290,123015,2,0,L|145:314,1,82.5000031471254,2|2,3:0|0:0,0:0:0:0:
146,229,123265,2,0,B|104:160|104:160|128:80,1,165.000006294251,2|2,3:0|3:0,0:0:0:0:
224,152,123640,5,2,0:0:0:0:
300,204,123765,1,2,3:0:0:0:
228,148,123890,1,2,0:0:0:0:
308,184,124015,1,0,3:0:0:0:
230,141,124140,1,2,0:0:0:0:
312,136,124265,2,0,P|270:109|242:85,1,82.5000031471254,0|0,3:0|0:0,0:0:0:0:
256,0,124515,5,4,0:0:0:0:
408,264,128140,5,2,0:0:0:0:
408,264,128265,1,6,0:3:0:0:
408,264,128390,1,2,0:0:0:0:
348,316,128515,6,0,P|296:268|360:128,1,220,6|2,3:2|3:0,0:0:0:0:
404,184,128890,1,2,0:0:0:0:
456,120,129015,2,0,P|420:72|372:68,1,110,2|2,3:0|0:0,0:0:0:0:
332,228,129265,2,0,P|291:276|299:323,1,110,2|2,3:0|0:0,0:0:0:0:
428,340,129515,6,0,L|548:352,1,110,2|2,3:0|0:0,0:0:0:0:
356,372,129765,1,2,3:0:0:0:
296,318,129890,2,0,B|252:310|252:310|176:342|176:342|56:318,1,220,2|2,0:0|0:0,0:0:0:0:
164,268,130265,2,0,B|216:248|216:248|156:228,1,110,2|2,3:0|0:0,0:0:0:0:
76,176,130515,6,0,B|35:136|35:136|194:195,1,220,2|2,3:0|3:0,0:0:0:0:
272,172,130890,1,2,0:0:0:0:
248,96,131015,2,0,L|256:-24,1,110,2|2,3:0|0:0,0:0:0:0:
83,66,131265,2,0,L|75:178,1,110,2|2,3:0|0:0,0:0:0:0:
228,284,131515,6,0,P|280:299|317:339,1,110,2|2,3:0|0:0,0:0:0:0:
404,352,131765,1,2,3:0:0:0:
240,380,131890,2,0,P|136:348|156:244,1,220,2|2,0:0|0:0,0:0:0:0:
236,276,132265,2,0,P|272:224|244:188,1,110,2|2,3:0|0:0,0:0:0:0:
188,132,132515,6,0,P|168:33|263:0,1,220,2|2,3:0|3:0,0:0:0:0:
308,68,132890,1,2,0:0:0:0:
388,92,133015,2,0,P|428:72|444:12,1,110,2|2,3:0|0:0,0:0:0:0:
228,96,133265,2,0,P|248:136|308:152,1,110,2|2,3:0|0:0,0:0:0:0:
412,288,133515,6,0,L|388:168,1,110,2|2,3:0|0:0,0:0:0:0:
364,4,133765,1,2,3:0:0:0:
308,68,133890,2,0,B|144:56|144:56|68:96,1,220,2|2,0:0|0:0,0:0:0:0:
20,228,134265,2,0,B|80:216|80:216|100:148,1,110,2|2,3:0|0:0,0:0:0:0:
152,28,134515,6,0,L|100:256,1,220,2|2,3:0|3:0,0:0:0:0:
172,300,134890,1,2,0:0:0:0:
112,356,135015,2,0,L|-12:384,1,110,2|2,3:0|0:0,0:0:0:0:
103,242,135265,2,0,L|215:214,1,110,2|2,3:0|0:0,0:0:0:0:
304,336,135515,6,0,P|350:310|368:260,1,110,2|2,3:0|0:0,0:0:0:0:
320,184,135765,2,0,P|306:131|317:77,1,110,2|2,3:0|0:0,0:0:0:0:
460,36,136015,2,0,P|496:108|448:236,1,220,0|0,3:0|3:0,0:0:0:0:
124,128,136515,5,0,3:0:0:0:
328,196,136760,1,0,3:0:0:0:
204,92,137006,1,0,3:0:0:0:
236,176,137121,1,2,0:0:0:0:
228,88,137236,1,0,3:0:0:0:
152,232,137467,5,0,3:0:0:0:
204,8,137689,1,0,3:0:0:0:
60,192,137911,2,0,L|-8:176,2,55,0|0|0,3:0|0:0|3:0,0:0:0:0:
328,300,138339,5,0,3:0:0:0:
300,108,138545,1,0,3:0:0:0:
240,304,138752,1,0,3:0:0:0:
280,204,138852,1,2,0:0:0:0:
228,288,138952,1,0,3:0:0:0:
424,232,139152,5,0,3:0:0:0:
144,336,139352,1,0,3:0:0:0:
404,384,139552,2,0,L|472:372,2,55,0|0|0,3:0|0:0|3:0,0:0:0:0:
308,136,139952,5,0,3:0:0:0:
96,228,140152,1,0,3:0:0:0:
328,232,140352,1,0,3:0:0:0:
288,132,140452,1,2,0:0:0:0:
216,212,140552,1,0,3:0:0:0:
220,60,140752,5,0,3:0:0:0:
280,328,140952,1,0,3:0:0:0:
452,152,141152,2,0,L|520:136,2,55,0|0|0,3:0|0:0|3:0,0:0:0:0:
164,136,141552,5,0,3:0:0:0:
404,308,141752,1,0,3:0:0:0:
200,312,141952,1,0,3:0:0:0:
296,288,142052,1,2,0:0:0:0:
300,384,142152,1,0,3:0:0:0:
248,12,142352,5,4,3:2:0:0:
232,216,142552,1,4,3:2:0:0:
104,52,142752,1,4,3:2:0:0:
384,232,142952,1,4,3:2:0:0:
456,184,144936,5,2,0:0:0:0:
468,300,145102,1,0,0:0:0:0:
468,300,145186,2,0,L|458:180,1,110,6|2,3:1|0:0,0:0:0:0:
316,0,145686,2,0,P|302:52|328:100,1,110,14|2,0:3|0:0,0:0:0:0:
416,120,146102,5,0,3:0:0:0:
416,120,146186,1,6,3:0:0:0:
172,176,146436,1,0,3:0:0:0:
416,120,146686,1,12,0:3:0:0:
172,176,146936,6,0,L|264:188,1,73.3333333333333,2|0,0:0|0:0,0:0:0:0:
245,186,147186,1,6,3:0:0:0:
232,48,147436,2,0,L|284:56,2,36.6666666666667,2|0|0,0:0|0:0|0:0,0:0:0:0:
232,48,147686,1,14,0:3:0:0:
128,108,147852,5,0,0:0:0:0:
124,92,147936,1,2,0:0:0:0:
244,152,148102,5,0,3:0:0:0:
256,164,148186,1,4,3:0:0:0:
262,312,148436,6,0,P|258:258|248:204,1,110.000004196167,0|0,3:0|0:0,0:0:0:0:
160,91,148686,2,0,P|148:145|141:200,1,110.000004196167,12|0,0:3|0:0,0:0:0:0:
36,284,148936,2,0,P|96:268|104:222,1,110.000004196167,2|2,0:0|0:0,0:0:0:0:
115,109,149186,6,0,L|104:0,1,110,6|2,3:0|0:0,0:0:0:0:
141,291,149686,1,14,0:3:0:0:
248,204,149852,1,2,0:0:0:0:
248,204,149936,1,2,0:0:0:0:
188,364,150102,1,0,3:0:0:0:
188,364,150186,1,4,3:0:0:0:
348,352,150436,5,0,3:0:0:0:
72,248,150686,1,12,0:3:0:0:
288,120,150936,2,0,P|304:152|309:188,1,73.3333333333333,2|0,0:0|0:0,0:0:0:0:
392,244,151186,2,0,L|401:353,1,110,6|2,3:0|0:0,0:0:0:0:
309,188,151686,5,14,0:3:0:0:
376,296,151852,1,2,0:0:0:0:
344,288,151936,1,2,0:0:0:0:
256,384,152102,1,0,3:0:0:0:
292,376,152186,6,0,L|340:364,2,36.6666666666667,6|0|0,3:0|0:0|0:0,0:0:0:0:
184,300,152436,2,0,L|248:312,1,55,8|0,0:0|0:0,0:0:0:0:
176,168,152686,2,0,L|244:224,1,82.5000031471254,6|2,3:0|0:0,0:0:0:0:
232,8,152936,2,0,L|260:128,1,110,2|2,3:0|0:0,0:0:0:0:
48,336,153186,6,0,L|75:227,1,98.9999969787599,6|2,3:2|0:0,0:0:0:0:
348,176,153436,2,0,L|321:285,1,98.9999969787599,2|2,3:0|0:0,0:0:0:0:
56,332,153686,6,0,L|83:223,1,98.9999969787599,2|2,3:0|0:0,0:0:0:0:
240,8,153936,2,0,L|280:160,1,131.99999597168,2|0,3:0|0:0,0:0:0:0:
184,176,154186,2,0,P|180:228|144:276,1,98.9999969787599,2|0,3:0|0:0,0:0:0:0:
280,136,154436,2,0,P|284:84|320:36,1,98.9999969787599,0|0,3:0|0:0,0:0:0:0:
480,152,154686,5,2,3:0:0:0:
388,176,154811,1,2,0:0:0:0:
316,52,154936,1,2,3:0:0:0:
384,128,155061,1,2,0:0:0:0:
316,240,155186,6,0,L|207:213,1,98.9999969787599,2|2,3:0|0:0,0:0:0:0:
344,156,155436,1,2,3:0:0:0:
248,184,155561,1,2,0:0:0:0:
324,256,155686,2,0,L|433:229,1,98.9999969787599,2|0,3:0|0:0,0:0:0:0:
208,104,155936,2,0,L|226:40,2,65.9999979858399,2|0|0,3:0|0:0|0:0,0:0:0:0:
124,136,156186,2,0,P|36:93|0:4,1,197.99999395752,2|0,3:0|3:0,0:0:0:0:
156,216,156686,5,10,0:0:0:0:
184,240,156811,1,2,3:0:0:0:
124,384,156936,2,0,P|108:312|128:272,1,98.9999969787599,10|2,0:0|0:0,0:0:0:0:
256,180,157186,6,0,L|243:55,1,98.9999969787599,2|2,3:0|0:0,0:0:0:0:
128,284,157436,2,0,L|141:409,1,98.9999969787599,2|2,3:0|0:0,0:0:0:0:
440,272,157686,2,0,P|368:288|328:268,1,98.9999969787599,2|0,3:0|0:0,0:0:0:0:
236,92,157936,2,0,P|164:76|104:124,1,131.99999597168,2|0,3:0|0:0,0:0:0:0:
36,120,158186,2,0,P|64:169|108:188,1,98.9999969787599,2|0,3:0|0:0,0:0:0:0:
368,100,158436,6,0,L|356:32,2,65.9999979858399,0|0|0,3:0|0:0|0:0,0:0:0:0:
448,124,158686,2,0,P|419:173|376:192,1,98.9999969787599,2|2,3:0|0:0,0:0:0:0:
248,112,158936,1,2,3:0:0:0:
336,72,159061,1,2,0:0:0:0:
264,4,159186,2,0,B|276:68|276:68|319:123|392:144,1,197.99999395752,2|2,3:0|3:0,0:0:0:0:
460,92,159561,1,2,0:0:0:0:
324,68,159686,2,0,P|264:80|232:120,1,98.9999969787599,2|0,3:0|0:0,0:0:0:0:
292,224,159936,2,0,P|272:281|291:329,1,98.9999969787599,2|0,3:0|0:0,0:0:0:0:
392,372,160186,5,0,3:0:0:0:
224,264,160352,5,2,0:0:0:0:
224,264,160436,6,0,L|368:280,1,131.99999597168,2|0,3:0|0:0,0:0:0:0:
460,252,160686,5,2,3:0:0:0:
424,172,160811,1,2,1:0:0:0:
336,140,160936,5,2,3:0:0:0:
300,220,161061,1,2,3:0:0:0:
208,248,161186,6,0,P|128:244|96:184,1,131.99999597168,6|0,3:2|0:0,0:0:0:0:
144,128,161436,2,0,L|128:4,1,98.9999969787599,10|2,0:0|0:0,0:0:0:0:
204,256,161686,2,0,P|160:288|112:296,1,98.9999969787599,2|0,3:0|0:0,0:0:0:0:
236,76,161936,2,0,L|376:56,1,131.99999597168,10|0,0:0|0:0,0:0:0:0:
448,72,162186,2,0,L|328:88,1,98.9999969787599,2|0,3:0|0:0,0:0:0:0:
152,124,162436,2,0,L|32:108,1,98.9999969787599,8|0,0:0|0:0,0:0:0:0:
288,148,162686,5,2,3:0:0:0:
240,28,162811,1,2,0:0:0:0:
392,184,162936,2,0,L|440:80,1,98.9999969787599,10|2,0:0|0:0,0:0:0:0:
328,48,163186,5,2,3:0:0:0:
448,0,163311,1,2,0:0:0:0:
280,144,163436,2,0,L|321:233,1,98.9999969787599,10|2,0:0|0:0,0:0:0:0:
456,328,163686,2,0,P|408:364|388:292,1,131.99999597168,2|0,3:0|0:0,0:0:0:0:
328,240,163936,2,0,P|296:216|256:224,1,65.9999979858399,10|0,0:0|0:0,0:0:0:0:
200,268,164102,5,2,0:0:0:0:
200,268,164186,2,0,L|208:376,1,98.9999969787599,2|0,3:0|0:0,0:0:0:0:
40,64,164436,2,0,L|48:172,1,98.9999969787599,8|0,0:0|0:0,0:0:0:0:
112,260,164686,5,2,3:0:0:0:
140,168,164811,1,2,3:0:0:0:
224,112,164936,2,0,P|236:64|220:0,1,98.9999969787599,10|2,0:0|0:0,0:0:0:0:
132,172,165186,2,0,P|112:224|124:280,1,98.9999969787599,2|2,3:0|0:0,0:0:0:0:
312,172,165436,2,0,L|432:152,1,98.9999969787599,10|2,0:0|0:0,0:0:0:0:
272,360,165686,2,0,P|222:360|176:343,1,98.9999969787599,2|2,3:0|0:0,0:0:0:0:
404,248,165936,2,0,P|460:268|440:340,1,131.99999597168,10|0,0:0|0:0,0:0:0:0:
368,320,166186,6,0,L|164:352,1,197.99999395752,2|8,3:0|0:0,0:0:0:0:
240,280,166519,1,2,0:0:0:0:
240,280,166602,1,2,0:0:0:0:
240,280,166686,2,0,P|308:288|344:296,1,98.9999969787599,2|2,3:0|0:0,0:0:0:0:
136,376,166936,2,0,P|144:308|152:272,1,98.9999969787599,10|2,0:0|0:0,0:0:0:0:
204,132,167186,6,0,P|180:40|88:0,1,197.99999395752,2|10,3:0|0:0,0:0:0:0:
196,136,167561,1,0,0:0:0:0:
308,132,167686,6,0,P|332:40|424:0,1,197.99999395752,2|10,3:0|0:0,0:0:0:0:
316,136,168061,1,0,0:0:0:0:
236,168,168186,6,0,L|236:76,1,65.9999979858399,2|0,3:0|0:0,0:0:0:0:
276,32,168352,1,0,0:0:0:0:
276,32,168436,2,0,L|276:248,1,197.99999395752,8|0,0:0|3:0,0:0:0:0:
276,230,168811,5,2,0:0:0:0:
228,380,168936,1,10,0:0:0:0:
324,308,169061,1,2,0:0:0:0:
432,352,169186,2,0,L|280:344,1,131.99999597168,6|0,3:2|0:0,0:0:0:0:
220,384,169436,6,0,P|176:352|168:292,1,98.9999969787599,10|0,0:0|0:0,0:0:0:0:
364,204,169686,2,0,P|388:224|404:268,1,65.9999979858399,2|0,3:0|0:0,0:0:0:0:
402,255,169936,1,10,0:0:0:0:
284,236,170061,6,0,P|212:204|100:264,1,197.99999395752,2|2,0:0|0:0,0:0:0:0:
152,324,170436,2,0,P|159:275|193:240,1,98.9999969787599,10|0,0:0|0:0,0:0:0:0:
308,340,170686,2,0,L|420:312,2,98.9999969787599,2|0|8,3:0|0:0|0:0,0:0:0:0:
212,384,171061,5,2,0:0:0:0:
64,328,171186,2,0,L|24:132,1,197.99999395752,2|8,3:0|0:0,0:0:0:0:
36,140,171561,5,2,0:0:0:0:
184,40,171686,2,0,L|164:137,1,98.9999969787599,2|0,3:0|0:0,0:0:0:0:
192,232,171936,5,10,0:0:0:0:
101,25,172061,2,0,L|68:220,1,197.99999395752,2|2,0:0|0:0,0:0:0:0:
184,224,172436,5,10,0:0:0:0:
72,320,172561,2,0,L|96:200,2,98.9999969787599,2|0|0,0:0|3:0|0:0,0:0:0:0:
176,216,172936,5,10,0:0:0:0:
232,284,173061,1,2,0:0:0:0:
296,344,173186,2,0,P|264:348|300:336,1,131.99999597168,6|0,3:2|0:0,0:0:0:0:
256,368,173436,5,8,0:0:0:0:
252,280,173561,1,8,0:0:0:0:
336,296,173686,2,0,L|448:264,1,98.9999969787599,0|0,3:0|3:0,0:0:0:0:
180,344,173936,2,0,L|68:376,1,98.9999969787599,8|0,0:0|0:0,0:0:0:0:
336,372,174186,5,0,3:0:0:0:
356,380,174311,1,0,0:0:0:0:
172,264,174436,5,8,0:0:0:0:
152,256,174561,1,0,0:0:0:0:
256,384,174686,2,0,P|280:344|248:272,1,131.99999597168,0|0,3:0|0:0,0:0:0:0:
304,200,174936,2,0,L|316:96,1,98.9999969787599,10|0,0:0|0:0,0:0:0:0:
120,0,175186,6,0,P|120:52|152:64,1,65.9999979858399,10|0,0:0|0:0,0:0:0:0:
152,146,175352,1,2,0:0:0:0:
152,146,175436,2,0,P|226:109|232:45,1,131.99999597168,10|0,0:0|0:0,0:0:0:0:
136,32,175686,5,10,0:0:0:0:
72,208,175852,1,2,0:0:0:0:
72,208,175936,2,0,P|28:196|-4:104,1,131.99999597168,14|0,0:0|0:0,0:0:0:0:
48,48,176186,6,0,B|104:43|104:43|168:67|168:67|240:59,1,197.99999395752,10|10,0:0|0:0,0:0:0:0:
464,336,176686,2,0,B|408:341|408:341|344:317|344:317|272:325,1,197.99999395752,10|10,0:0|0:0,0:0:0:0:
328,140,177186,6,0,P|360:96|364:60,2,65.9999979858399,8|0|0,0:0|0:0|0:0,0:0:0:0:
184,244,177436,6,0,P|152:288|148:324,2,65.9999979858399,8|0|0,0:0|0:0|0:0,0:0:0:0:
337,228,177686,6,0,P|391:234|424:219,2,65.9999979858399,8|0|0,0:0|0:0|0:0,0:0:0:0:
174,155,177936,6,0,P|120:149|87:164,2,65.9999979858399,8|0|0,0:0|0:0|0:0,0:0:0:0:
268,276,178186,6,0,L|252:180,1,65.9999979858399,8|0,0:0|0:0,0:0:0:0:
244,104,178352,5,8,0:0:0:0:
244,104,178436,2,0,L|254:169,1,65.9999979858399,8|0,0:0|0:0,0:0:0:0:
184,244,178602,5,8,0:0:0:0:
184,244,178686,2,0,L|88:228,1,65.9999979858399,8|0,0:0|0:0,0:0:0:0:
328,140,178852,5,8,0:0:0:0:
328,140,178936,2,0,L|393:150,1,65.9999979858399,8|0,0:0|0:0,0:0:0:0:
347,293,179102,5,8,0:0:0:0:
347,293,179186,2,0,L|337:228,1,65.9999979858399,8|0,0:0|0:0,0:0:0:0:
166,91,179352,5,8,0:0:0:0:
166,91,179436,2,0,L|176:156,1,65.9999979858399,8|0,0:0|0:0,0:0:0:0:
256,196,179602,5,8,0:0:0:0:
256,196,179686,1,8,0:0:0:0:
