osu file format v14

[General]
AudioFilename: audio.mp3
AudioLeadIn: 0
PreviewTime: -1
Countdown: 1
SampleSet: None
StackLeniency: 0.7
Mode: 3
LetterboxInBreaks: 0
SpecialStyle: 0
WidescreenStoryboard: 0

[Editor]
Bookmarks: 71238
DistanceSpacing: 1.3
BeatDivisor: 4
GridSize: 8
TimelineZoom: 1

[Metadata]
Title:SANDSTORM NOLL
TitleUnicode:SANDSTORM NOLL
Artist:Shannon Noll x Darude
ArtistUnicode:Shannon Noll x Darude
Creator:Melt3dCheeze
Version:WHAT ABOUT ME
Source:https://www.youtube.com/watch?v=5Se1Dth1Bog
Tags:memes straya bois shannon pingas warmup australia shannon noll darude sandstorm mixes remix
BeatmapID:1048307
BeatmapSetID:492050

[Difficulty]
HPDrainRate:8
CircleSize:4
OverallDifficulty:7.5
ApproachRate:5
SliderMultiplier:1.4
SliderTickRate:1

[Events]
//Background and Video events
0,0,"shaz.jpg",0,0
//Break Periods
//Storyboard Layer 0 (Background)
//Storyboard Layer 1 (Fail)
//Storyboard Layer 2 (Pass)
//Storyboard Layer 3 (Foreground)
//Storyboard Sound Samples

[TimingPoints]
666,441.176470588235,4,1,0,5,1,0
2430,-100,4,3,0,100,0,0
71254,-100,4,3,0,100,0,1

[HitObjects]
64,192,224,5,2,0:0:0:0:
192,192,224,1,2,0:0:0:0:
320,192,335,1,2,0:0:0:0:
448,192,335,1,2,0:0:0:0:
192,192,445,1,2,0:0:0:0:
64,192,445,1,2,0:0:0:0:
320,192,555,1,2,0:0:0:0:
448,192,555,1,2,0:0:0:0:
64,192,666,1,2,0:0:0:0:
192,192,666,1,2,0:0:0:0:
320,192,776,1,2,0:0:0:0:
448,192,776,1,2,0:0:0:0:
192,192,886,1,2,0:0:0:0:
64,192,886,1,2,0:0:0:0:
320,192,996,1,2,0:0:0:0:
448,192,996,1,2,0:0:0:0:
192,192,1107,1,2,0:0:0:0:
64,192,1107,1,2,0:0:0:0:
320,192,1217,1,2,0:0:0:0:
448,192,1217,1,2,0:0:0:0:
192,192,1327,1,2,0:0:0:0:
64,192,1327,1,2,0:0:0:0:
320,192,1438,1,2,0:0:0:0:
448,192,1438,1,2,0:0:0:0:
192,192,1548,1,2,0:0:0:0:
64,192,1548,1,2,0:0:0:0:
320,192,1658,1,2,0:0:0:0:
448,192,1658,1,2,0:0:0:0:
192,192,1768,1,2,0:0:0:0:
64,192,1768,1,2,0:0:0:0:
320,192,1879,1,2,0:0:0:0:
448,192,1879,1,2,0:0:0:0:
192,192,1989,1,2,0:0:0:0:
64,192,1989,1,2,0:0:0:0:
320,192,2099,1,2,0:0:0:0:
448,192,2099,1,2,0:0:0:0:
192,192,2210,1,2,0:0:0:0:
64,192,2210,1,2,0:0:0:0:
320,192,2320,1,2,0:0:0:0:
448,192,2320,1,2,0:0:0:0:
64,192,2430,128,14,9379:0:0:0:0:
192,192,2430,128,14,9379:0:0:0:0:
320,192,2430,128,14,9379:0:0:0:0:
448,192,2430,128,14,9379:0:0:0:0:
64,192,9489,128,0,10077:0:0:0:0:
192,192,10077,128,0,10665:0:0:0:0:
448,192,10665,128,0,11401:0:0:0:0:
320,192,11364,128,0,12467:0:0:0:0:
64,192,11401,1,8,0:0:0:0:
64,192,11842,1,8,0:0:0:0:
64,192,12026,1,8,0:0:0:0:
64,192,12430,1,8,0:0:0:0:
192,192,12688,1,14,0:0:0:0:
64,192,12688,1,14,0:0:0:0:
320,192,12688,1,14,0:0:0:0:
448,192,12688,1,14,0:0:0:0:
448,192,12908,1,14,0:0:0:0:
320,192,12908,1,14,0:0:0:0:
192,192,12908,1,14,0:0:0:0:
64,192,12908,1,14,0:0:0:0:
64,192,14121,128,0,14342:0:0:0:0:
192,192,14342,128,0,14563:0:0:0:0:
320,192,14563,128,0,14783:0:0:0:0:
448,192,14783,1,0,0:0:0:0:
448,192,15004,1,0,0:0:0:0:
320,192,15224,1,0,0:0:0:0:
192,192,15445,1,0,0:0:0:0:
64,192,15665,1,0,0:0:0:0:
192,192,15886,1,0,0:0:0:0:
64,192,16107,1,0,0:0:0:0:
192,192,16327,1,0,0:0:0:0:
320,192,16548,1,0,0:0:0:0:
192,192,16768,1,0,0:0:0:0:
64,192,16989,1,0,0:0:0:0:
64,192,17210,5,0,0:0:0:0:
64,192,17430,1,0,0:0:0:0:
64,192,17651,1,0,0:0:0:0:
192,192,17651,1,0,0:0:0:0:
64,192,17871,1,0,0:0:0:0:
192,192,17871,1,0,0:0:0:0:
320,192,17871,1,0,0:0:0:0:
64,192,18092,1,0,0:0:0:0:
192,192,18092,1,0,0:0:0:0:
320,192,18092,1,0,0:0:0:0:
448,192,18092,1,0,0:0:0:0:
64,192,18313,5,14,0:0:0:0:
192,192,18313,1,14,0:0:0:0:
320,192,18313,1,14,0:0:0:0:
448,192,18313,1,14,0:0:0:0:
64,192,19415,128,0,19636:0:0:0:0:
320,192,19636,128,0,20077:0:0:0:0:
448,192,20077,1,0,0:0:0:0:
64,192,20077,128,0,21842:0:0:0:0:
448,192,20298,1,0,0:0:0:0:
320,192,20518,128,0,20739:0:0:0:0:
192,192,20960,128,0,21180:0:0:0:0:
320,192,21621,1,0,0:0:0:0:
320,192,21842,1,0,0:0:0:0:
448,192,21842,128,0,24710:0:0:0:0:
320,192,22063,1,0,0:0:0:0:
192,192,22283,1,0,0:0:0:0:
64,192,22504,1,0,0:0:0:0:
64,192,22724,128,0,22945:0:0:0:0:
320,192,23386,1,0,0:0:0:0:
64,192,23717,5,8,0:0:0:0:
64,192,24195,5,8,0:0:0:0:
64,192,24379,1,8,0:0:0:0:
64,192,24710,1,8,0:0:0:0:
192,192,25151,5,6,0:0:0:0:
64,192,25151,1,6,0:0:0:0:
320,192,25151,1,6,0:0:0:0:
448,192,25151,1,6,0:0:0:0:
448,192,25371,1,6,0:0:0:0:
320,192,25371,1,6,0:0:0:0:
192,192,25371,1,6,0:0:0:0:
64,192,25371,1,6,0:0:0:0:
64,192,25592,128,0,25813:0:0:0:0:
192,192,25813,128,0,26033:0:0:0:0:
320,192,26033,128,0,26474:0:0:0:0:
448,192,26033,128,0,26474:0:0:0:0:
320,192,26695,128,0,26915:0:0:0:0:
64,192,27136,1,14,0:0:0:0:
192,192,27136,1,14,0:0:0:0:
320,192,27136,1,14,0:0:0:0:
448,192,27136,1,14,0:0:0:0:
320,192,27357,128,0,27577:0:0:0:0:
448,192,27357,128,0,27577:0:0:0:0:
192,192,27798,128,0,28018:0:0:0:0:
64,192,27798,128,0,28018:0:0:0:0:
64,192,28680,1,14,0:0:0:0:
192,192,28680,1,14,0:0:0:0:
320,192,28680,1,14,0:0:0:0:
448,192,28680,1,14,0:0:0:0:
448,192,28901,128,0,29121:0:0:0:0:
320,192,29121,128,0,29342:0:0:0:0:
192,192,29342,128,0,29563:0:0:0:0:
64,192,29563,128,0,30445:0:0:0:0:
320,192,30665,1,14,0:0:0:0:
448,192,30665,1,14,0:0:0:0:
192,192,30665,1,14,0:0:0:0:
64,192,30665,1,14,0:0:0:0:
64,192,30960,1,14,0:0:0:0:
192,192,30960,1,14,0:0:0:0:
320,192,30960,1,14,0:0:0:0:
448,192,30960,1,14,0:0:0:0:
64,192,31254,1,14,0:0:0:0:
192,192,31254,1,14,0:0:0:0:
320,192,31254,1,14,0:0:0:0:
448,192,31254,1,14,0:0:0:0:
64,192,31548,1,14,0:0:0:0:
192,192,31548,1,14,0:0:0:0:
320,192,31548,1,14,0:0:0:0:
448,192,31548,1,14,0:0:0:0:
64,192,31989,1,14,0:0:0:0:
192,192,31989,1,14,0:0:0:0:
320,192,31989,1,14,0:0:0:0:
448,192,31989,1,14,0:0:0:0:
64,192,32210,1,14,0:0:0:0:
192,192,32210,1,14,0:0:0:0:
320,192,32210,1,14,0:0:0:0:
448,192,32210,1,14,0:0:0:0:
64,192,32430,128,14,33864:0:0:0:0:
192,192,32430,128,14,33974:0:0:0:0:
320,192,32430,128,14,34085:0:0:0:0:
448,192,32430,128,14,34195:0:0:0:0:
448,192,35077,128,2,35188:0:0:0:0:
320,192,35077,128,2,35188:0:0:0:0:
448,192,35298,128,2,35408:0:0:0:0:
320,192,35298,128,2,35408:0:0:0:0:
448,192,35518,128,2,35629:0:0:0:0:
320,192,35518,128,2,35629:0:0:0:0:
448,192,35960,128,0,37724:0:0:0:0:
192,192,37504,1,0,0:0:0:0:
320,192,37724,128,0,39489:0:0:0:0:
192,192,37945,1,0,0:0:0:0:
192,192,38165,1,0,0:0:0:0:
448,192,39048,128,0,39379:0:0:0:0:
192,192,39489,128,0,41254:0:0:0:0:
448,192,39489,1,0,0:0:0:0:
320,192,39710,1,0,0:0:0:0:
64,192,39930,128,0,40151:0:0:0:0:
64,192,40371,1,0,0:0:0:0:
64,192,40592,1,0,0:0:0:0:
320,192,40813,1,0,0:0:0:0:
448,192,41033,1,0,0:0:0:0:
64,192,41254,128,0,43018:0:0:0:0:
320,192,41254,1,0,0:0:0:0:
320,192,41474,1,0,0:0:0:0:
320,192,41695,1,0,0:0:0:0:
320,192,41915,128,0,42357:0:0:0:0:
448,192,42357,1,0,0:0:0:0:
320,192,42577,1,0,0:0:0:0:
192,192,42798,1,0,0:0:0:0:
448,192,43018,128,0,44783:0:0:0:0:
192,192,44563,1,0,0:0:0:0:
320,192,44783,128,0,46548:0:0:0:0:
448,192,45004,1,0,0:0:0:0:
64,192,45224,128,0,45665:0:0:0:0:
64,192,46327,128,0,47099:0:0:0:0:
192,192,46548,128,0,48313:0:0:0:0:
320,192,47210,128,0,47871:0:0:0:0:
448,192,47871,128,0,48533:0:0:0:0:
64,192,48313,128,0,49967:0:0:0:0:
320,192,48533,128,0,49195:0:0:0:0:
192,192,49195,128,0,49636:0:0:0:0:
320,192,49857,128,0,49967:0:0:0:0:
64,192,50077,1,14,0:0:0:0:
192,192,50077,1,14,0:0:0:0:
320,192,50077,1,14,0:0:0:0:
448,192,50077,1,14,0:0:0:0:
192,192,50188,1,0,0:0:0:0:
64,192,50298,1,0,0:0:0:0:
320,192,50298,128,10,50518:0:0:0:0:
192,192,50408,1,0,0:0:0:0:
64,192,50518,1,0,0:0:0:0:
448,192,50518,128,10,50739:0:0:0:0:
320,192,50739,128,10,50960:0:0:0:0:
448,192,50960,128,10,51180:0:0:0:0:
320,192,51180,128,10,51401:0:0:0:0:
448,192,51401,128,10,51621:0:0:0:0:
320,192,51621,128,10,51842:0:0:0:0:
64,192,51842,1,0,0:0:0:0:
448,192,51842,128,10,52063:0:0:0:0:
192,192,51952,1,0,0:0:0:0:
64,192,52063,1,0,0:0:0:0:
320,192,52063,128,10,52283:0:0:0:0:
192,192,52173,1,0,0:0:0:0:
64,192,52283,1,0,0:0:0:0:
448,192,52283,128,10,52504:0:0:0:0:
320,192,52504,128,10,52724:0:0:0:0:
448,192,52724,128,10,52945:0:0:0:0:
320,192,52945,128,10,53165:0:0:0:0:
448,192,53165,128,10,53386:0:0:0:0:
320,192,53386,128,10,53607:0:0:0:0:
64,192,53607,1,0,0:0:0:0:
448,192,53607,128,10,53827:0:0:0:0:
192,192,53717,1,0,0:0:0:0:
64,192,53827,1,0,0:0:0:0:
320,192,53827,128,10,54048:0:0:0:0:
192,192,53938,1,0,0:0:0:0:
64,192,54048,1,0,0:0:0:0:
448,192,54048,128,10,54268:0:0:0:0:
320,192,54268,128,10,54489:0:0:0:0:
448,192,54489,128,10,54710:0:0:0:0:
320,192,54710,128,10,54930:0:0:0:0:
448,192,54930,128,10,55151:0:0:0:0:
320,192,55151,128,10,55371:0:0:0:0:
64,192,55371,1,0,0:0:0:0:
448,192,55371,128,10,55592:0:0:0:0:
192,192,55482,1,0,0:0:0:0:
64,192,55592,1,0,0:0:0:0:
320,192,55592,128,10,55813:0:0:0:0:
192,192,55702,1,0,0:0:0:0:
64,192,55813,1,0,0:0:0:0:
448,192,55813,128,10,56033:0:0:0:0:
320,192,56033,128,10,56254:0:0:0:0:
448,192,56254,128,10,56474:0:0:0:0:
320,192,56474,128,10,56695:0:0:0:0:
448,192,56695,128,10,56915:0:0:0:0:
320,192,56915,128,10,57136:0:0:0:0:
64,192,57136,1,0,0:0:0:0:
448,192,57136,128,10,57357:0:0:0:0:
192,192,57246,1,0,0:0:0:0:
64,192,57357,1,0,0:0:0:0:
320,192,57357,128,10,57577:0:0:0:0:
192,192,57467,1,0,0:0:0:0:
64,192,57577,1,0,0:0:0:0:
448,192,57577,128,10,57798:0:0:0:0:
320,192,57798,128,10,58018:0:0:0:0:
64,192,58018,1,0,0:0:0:0:
448,192,58018,128,10,58239:0:0:0:0:
192,192,58129,1,0,0:0:0:0:
64,192,58239,1,0,0:0:0:0:
320,192,58239,128,10,58460:0:0:0:0:
192,192,58349,1,0,0:0:0:0:
64,192,58460,1,0,0:0:0:0:
448,192,58460,128,10,58680:0:0:0:0:
320,192,58680,128,10,58901:0:0:0:0:
64,192,58901,1,0,0:0:0:0:
448,192,58901,128,10,59121:0:0:0:0:
192,192,59011,1,0,0:0:0:0:
64,192,59121,1,0,0:0:0:0:
320,192,59121,128,10,59342:0:0:0:0:
192,192,59232,1,0,0:0:0:0:
64,192,59342,1,0,0:0:0:0:
448,192,59342,128,10,59563:0:0:0:0:
320,192,59563,128,10,59783:0:0:0:0:
64,192,59783,1,0,0:0:0:0:
448,192,59783,128,10,60004:0:0:0:0:
192,192,59893,1,0,0:0:0:0:
64,192,60004,1,0,0:0:0:0:
320,192,60004,128,10,60224:0:0:0:0:
192,192,60114,1,0,0:0:0:0:
64,192,60224,1,0,0:0:0:0:
448,192,60224,128,10,60445:0:0:0:0:
320,192,60445,128,10,60665:0:0:0:0:
64,192,60665,1,0,0:0:0:0:
448,192,60665,128,10,60886:0:0:0:0:
192,192,60776,1,0,0:0:0:0:
64,192,60886,1,0,0:0:0:0:
320,192,60886,128,10,61107:0:0:0:0:
192,192,60996,1,0,0:0:0:0:
64,192,61107,1,0,0:0:0:0:
448,192,61107,128,10,61327:0:0:0:0:
320,192,61327,128,10,61548:0:0:0:0:
64,192,61548,1,0,0:0:0:0:
448,192,61548,128,10,61768:0:0:0:0:
192,192,61658,1,0,0:0:0:0:
64,192,61768,1,0,0:0:0:0:
320,192,61768,128,10,61989:0:0:0:0:
192,192,61879,1,0,0:0:0:0:
64,192,61989,1,0,0:0:0:0:
448,192,61989,128,10,62210:0:0:0:0:
320,192,62210,128,10,62430:0:0:0:0:
64,192,62430,1,0,0:0:0:0:
448,192,62430,128,10,62651:0:0:0:0:
192,192,62540,1,0,0:0:0:0:
64,192,62651,1,0,0:0:0:0:
320,192,62651,128,10,62871:0:0:0:0:
192,192,62761,1,0,0:0:0:0:
64,192,62871,1,0,0:0:0:0:
448,192,62871,128,10,63092:0:0:0:0:
320,192,63092,128,10,63313:0:0:0:0:
64,192,63313,1,0,0:0:0:0:
448,192,63313,128,10,63533:0:0:0:0:
192,192,63423,1,0,0:0:0:0:
64,192,63533,1,0,0:0:0:0:
320,192,63533,128,10,63754:0:0:0:0:
192,192,63643,1,0,0:0:0:0:
64,192,63754,1,0,0:0:0:0:
448,192,63754,128,10,63974:0:0:0:0:
64,192,64195,1,0,0:0:0:0:
320,192,64195,128,0,64415:0:0:0:0:
448,192,64195,128,0,64415:0:0:0:0:
192,192,64305,1,0,0:0:0:0:
64,192,64415,1,0,0:0:0:0:
192,192,64526,1,0,0:0:0:0:
448,192,64526,128,0,64746:0:0:0:0:
320,192,64526,128,0,64746:0:0:0:0:
64,192,64636,1,0,0:0:0:0:
192,192,64746,1,0,0:0:0:0:
64,192,64857,1,0,0:0:0:0:
320,192,64857,128,0,64967:0:0:0:0:
448,192,64857,128,0,64967:0:0:0:0:
192,192,64967,1,0,0:0:0:0:
64,192,65077,1,0,0:0:0:0:
448,192,65077,128,0,65298:0:0:0:0:
320,192,65077,128,0,65298:0:0:0:0:
192,192,65188,1,0,0:0:0:0:
64,192,65298,1,0,0:0:0:0:
192,192,65408,1,0,0:0:0:0:
448,192,65408,128,0,65629:0:0:0:0:
320,192,65408,128,0,65629:0:0:0:0:
64,192,65518,1,0,0:0:0:0:
192,192,65629,1,0,0:0:0:0:
64,192,65739,1,0,0:0:0:0:
448,192,65739,128,0,65849:0:0:0:0:
320,192,65739,128,0,65849:0:0:0:0:
192,192,65849,1,0,0:0:0:0:
64,192,65960,1,0,0:0:0:0:
320,192,65960,128,0,66180:0:0:0:0:
448,192,65960,128,0,66180:0:0:0:0:
192,192,66070,1,0,0:0:0:0:
64,192,66180,1,0,0:0:0:0:
192,192,66290,1,0,0:0:0:0:
320,192,66290,128,0,66511:0:0:0:0:
448,192,66290,128,0,66511:0:0:0:0:
64,192,66401,1,0,0:0:0:0:
192,192,66511,1,0,0:0:0:0:
64,192,66621,1,0,0:0:0:0:
320,192,66621,128,0,66732:0:0:0:0:
448,192,66621,128,0,66732:0:0:0:0:
192,192,66732,1,0,0:0:0:0:
64,192,66842,1,0,0:0:0:0:
320,192,66842,128,0,67063:0:0:0:0:
448,192,66842,128,0,67063:0:0:0:0:
192,192,66952,1,0,0:0:0:0:
64,192,67063,1,0,0:0:0:0:
192,192,67173,1,0,0:0:0:0:
320,192,67173,128,0,67393:0:0:0:0:
448,192,67173,128,0,67393:0:0:0:0:
64,192,67283,1,0,0:0:0:0:
192,192,67393,1,0,0:0:0:0:
64,192,67504,1,0,0:0:0:0:
320,192,67504,128,0,67614:0:0:0:0:
448,192,67504,128,0,67614:0:0:0:0:
192,192,67614,1,0,0:0:0:0:
64,192,67724,1,0,0:0:0:0:
320,192,67724,128,0,67945:0:0:0:0:
448,192,67724,128,0,67945:0:0:0:0:
192,192,67835,1,0,0:0:0:0:
64,192,67945,1,0,0:0:0:0:
192,192,68055,1,0,0:0:0:0:
320,192,68055,128,0,68276:0:0:0:0:
448,192,68055,128,0,68276:0:0:0:0:
64,192,68165,1,0,0:0:0:0:
192,192,68276,1,0,0:0:0:0:
64,192,68386,1,0,0:0:0:0:
320,192,68386,128,0,68496:0:0:0:0:
448,192,68386,128,0,68496:0:0:0:0:
192,192,68496,1,0,0:0:0:0:
64,192,68607,1,0,0:0:0:0:
448,192,68607,128,0,68827:0:0:0:0:
320,192,68607,128,0,68827:0:0:0:0:
192,192,68717,1,0,0:0:0:0:
64,192,68827,1,0,0:0:0:0:
192,192,68938,1,0,0:0:0:0:
448,192,68938,128,0,69158:0:0:0:0:
320,192,68938,128,0,69158:0:0:0:0:
64,192,69048,1,0,0:0:0:0:
192,192,69158,1,0,0:0:0:0:
64,192,69268,1,0,0:0:0:0:
448,192,69268,128,0,69379:0:0:0:0:
320,192,69268,128,0,69379:0:0:0:0:
192,192,69379,1,0,0:0:0:0:
64,192,69489,1,0,0:0:0:0:
192,192,69544,1,0,0:0:0:0:
320,192,69599,1,0,0:0:0:0:
448,192,69654,1,0,0:0:0:0:
64,192,69710,1,0,0:0:0:0:
192,192,69765,1,0,0:0:0:0:
320,192,69820,1,0,0:0:0:0:
448,192,69875,1,0,0:0:0:0:
64,192,69930,1,0,0:0:0:0:
192,192,69985,1,0,0:0:0:0:
320,192,70040,1,0,0:0:0:0:
448,192,70096,1,0,0:0:0:0:
64,192,70151,1,0,0:0:0:0:
192,192,70206,1,0,0:0:0:0:
320,192,70261,1,0,0:0:0:0:
448,192,70316,1,0,0:0:0:0:
64,192,70371,1,0,0:0:0:0:
192,192,70427,1,0,0:0:0:0:
320,192,70482,1,0,0:0:0:0:
448,192,70537,1,0,0:0:0:0:
64,192,70592,1,0,0:0:0:0:
192,192,70647,1,0,0:0:0:0:
320,192,70702,1,0,0:0:0:0:
448,192,70757,1,0,0:0:0:0:
64,192,70813,1,0,0:0:0:0:
192,192,70868,1,0,0:0:0:0:
320,192,70923,1,0,0:0:0:0:
448,192,70978,1,0,0:0:0:0:
64,192,71033,1,0,0:0:0:0:
192,192,71088,1,0,0:0:0:0:
320,192,71143,1,0,0:0:0:0:
448,192,71199,1,0,0:0:0:0:
64,192,71254,1,14,0:0:0:0:
192,192,71254,1,14,0:0:0:0:
320,192,71364,1,0,0:0:0:0:
448,192,71364,1,0,0:0:0:0:
192,192,71474,1,0,0:0:0:0:
64,192,71474,1,0,0:0:0:0:
320,192,71585,1,0,0:0:0:0:
448,192,71585,1,0,0:0:0:0:
192,192,71695,1,14,0:0:0:0:
64,192,71695,1,14,0:0:0:0:
64,192,71915,1,0,0:0:0:0:
192,192,71915,1,0,0:0:0:0:
320,192,72026,1,0,0:0:0:0:
448,192,72026,1,0,0:0:0:0:
192,192,72136,1,14,0:0:0:0:
64,192,72136,1,14,0:0:0:0:
320,192,72246,1,0,0:0:0:0:
448,192,72246,1,0,0:0:0:0:
192,192,72357,1,0,0:0:0:0:
64,192,72357,1,0,0:0:0:0:
320,192,72467,1,0,0:0:0:0:
448,192,72467,1,0,0:0:0:0:
192,192,72577,1,14,0:0:0:0:
64,192,72577,1,14,0:0:0:0:
320,192,72798,1,0,0:0:0:0:
448,192,72798,1,0,0:0:0:0:
320,192,72908,1,0,0:0:0:0:
448,192,72908,1,0,0:0:0:0:
320,192,73018,1,14,0:0:0:0:
448,192,73018,1,14,0:0:0:0:
320,192,73129,1,0,0:0:0:0:
448,192,73129,1,0,0:0:0:0:
320,192,73239,1,0,0:0:0:0:
448,192,73239,1,0,0:0:0:0:
320,192,73349,1,0,0:0:0:0:
448,192,73349,1,0,0:0:0:0:
320,192,73460,1,14,0:0:0:0:
448,192,73460,1,14,0:0:0:0:
320,192,73680,1,0,0:0:0:0:
192,192,73680,1,0,0:0:0:0:
320,192,73790,1,0,0:0:0:0:
192,192,73790,1,0,0:0:0:0:
320,192,73901,1,14,0:0:0:0:
192,192,73901,1,14,0:0:0:0:
192,192,74011,1,0,0:0:0:0:
320,192,74011,1,0,0:0:0:0:
320,192,74121,1,0,0:0:0:0:
192,192,74121,1,0,0:0:0:0:
320,192,74232,1,0,0:0:0:0:
192,192,74232,1,0,0:0:0:0:
192,192,74342,1,14,0:0:0:0:
320,192,74342,1,14,0:0:0:0:
64,192,74563,128,0,74673:0:0:0:0:
64,192,74783,1,14,0:0:0:0:
192,192,74783,1,14,0:0:0:0:
320,192,74893,1,0,0:0:0:0:
448,192,74893,1,0,0:0:0:0:
192,192,75004,1,0,0:0:0:0:
64,192,75004,1,0,0:0:0:0:
320,192,75114,1,0,0:0:0:0:
448,192,75114,1,0,0:0:0:0:
192,192,75224,1,14,0:0:0:0:
64,192,75224,1,14,0:0:0:0:
192,192,75445,1,0,0:0:0:0:
64,192,75445,1,0,0:0:0:0:
320,192,75555,1,0,0:0:0:0:
448,192,75555,1,0,0:0:0:0:
192,192,75665,1,14,0:0:0:0:
64,192,75665,1,14,0:0:0:0:
320,192,75776,1,0,0:0:0:0:
448,192,75776,1,0,0:0:0:0:
192,192,75886,1,0,0:0:0:0:
64,192,75886,1,0,0:0:0:0:
320,192,75996,1,0,0:0:0:0:
448,192,75996,1,0,0:0:0:0:
192,192,76107,1,14,0:0:0:0:
64,192,76107,1,14,0:0:0:0:
448,192,76327,128,0,76438:0:0:0:0:
192,192,76548,1,14,0:0:0:0:
64,192,76548,1,14,0:0:0:0:
320,192,76658,1,0,0:0:0:0:
448,192,76658,1,0,0:0:0:0:
192,192,76768,1,0,0:0:0:0:
64,192,76768,1,0,0:0:0:0:
320,192,76879,1,0,0:0:0:0:
448,192,76879,1,0,0:0:0:0:
192,192,76989,1,14,0:0:0:0:
64,192,76989,1,14,0:0:0:0:
192,192,77210,1,0,0:0:0:0:
64,192,77210,1,0,0:0:0:0:
320,192,77320,1,0,0:0:0:0:
448,192,77320,1,0,0:0:0:0:
192,192,77430,1,14,0:0:0:0:
64,192,77430,1,14,0:0:0:0:
320,192,77540,1,0,0:0:0:0:
448,192,77540,1,0,0:0:0:0:
192,192,77651,1,0,0:0:0:0:
64,192,77651,1,0,0:0:0:0:
320,192,77761,1,0,0:0:0:0:
448,192,77761,1,0,0:0:0:0:
192,192,77871,1,14,0:0:0:0:
64,192,77871,1,14,0:0:0:0:
448,192,78092,128,0,78202:0:0:0:0:
192,192,78313,1,14,0:0:0:0:
64,192,78313,1,14,0:0:0:0:
320,192,78423,1,0,0:0:0:0:
448,192,78423,1,0,0:0:0:0:
192,192,78533,1,0,0:0:0:0:
64,192,78533,1,0,0:0:0:0:
320,192,78643,1,0,0:0:0:0:
448,192,78643,1,0,0:0:0:0:
192,192,78754,1,14,0:0:0:0:
64,192,78754,1,14,0:0:0:0:
192,192,78974,1,0,0:0:0:0:
64,192,78974,1,0,0:0:0:0:
320,192,79085,1,0,0:0:0:0:
448,192,79085,1,0,0:0:0:0:
192,192,79195,1,14,0:0:0:0:
64,192,79195,1,14,0:0:0:0:
320,192,79305,1,0,0:0:0:0:
448,192,79305,1,0,0:0:0:0:
192,192,79415,1,0,0:0:0:0:
64,192,79415,1,0,0:0:0:0:
320,192,79526,1,0,0:0:0:0:
448,192,79526,1,0,0:0:0:0:
192,192,79636,1,14,0:0:0:0:
64,192,79636,1,14,0:0:0:0:
448,192,79857,1,0,0:0:0:0:
192,192,79857,1,0,0:0:0:0:
192,192,79967,1,0,0:0:0:0:
448,192,79967,1,0,0:0:0:0:
192,192,80077,1,14,0:0:0:0:
448,192,80077,1,14,0:0:0:0:
192,192,80188,1,0,0:0:0:0:
448,192,80188,1,0,0:0:0:0:
448,192,80298,1,0,0:0:0:0:
192,192,80298,1,0,0:0:0:0:
192,192,80408,1,0,0:0:0:0:
448,192,80408,1,0,0:0:0:0:
448,192,80518,1,14,0:0:0:0:
192,192,80518,1,14,0:0:0:0:
320,192,80739,1,0,0:0:0:0:
64,192,80739,1,0,0:0:0:0:
64,192,80849,1,0,0:0:0:0:
320,192,80849,1,0,0:0:0:0:
320,192,80960,1,14,0:0:0:0:
64,192,80960,1,14,0:0:0:0:
64,192,81070,1,0,0:0:0:0:
320,192,81070,1,0,0:0:0:0:
320,192,81180,1,0,0:0:0:0:
64,192,81180,1,0,0:0:0:0:
64,192,81290,1,0,0:0:0:0:
320,192,81290,1,0,0:0:0:0:
320,192,81401,1,14,0:0:0:0:
64,192,81401,1,14,0:0:0:0:
64,192,81621,128,0,81732:0:0:0:0:
64,192,81842,1,14,0:0:0:0:
192,192,81952,1,0,0:0:0:0:
320,192,82063,1,0,0:0:0:0:
448,192,82063,1,0,0:0:0:0:
192,192,82173,1,0,0:0:0:0:
64,192,82283,1,14,0:0:0:0:
448,192,82283,1,14,0:0:0:0:
192,192,82393,1,0,0:0:0:0:
320,192,82504,1,0,0:0:0:0:
448,192,82614,1,0,0:0:0:0:
320,192,82724,1,14,0:0:0:0:
64,192,82724,1,14,0:0:0:0:
192,192,82835,1,0,0:0:0:0:
64,192,82945,1,0,0:0:0:0:
320,192,83055,1,0,0:0:0:0:
448,192,83055,1,0,0:0:0:0:
192,192,83165,1,14,0:0:0:0:
64,192,83165,1,14,0:0:0:0:
448,192,83276,1,0,0:0:0:0:
192,192,83386,1,0,0:0:0:0:
320,192,83386,1,0,0:0:0:0:
448,192,83496,1,0,0:0:0:0:
320,192,83607,1,14,0:0:0:0:
64,192,83607,1,14,0:0:0:0:
192,192,83717,1,0,0:0:0:0:
64,192,83827,1,0,0:0:0:0:
320,192,83938,1,0,0:0:0:0:
64,192,84048,1,14,0:0:0:0:
448,192,84048,1,14,0:0:0:0:
320,192,84158,1,0,0:0:0:0:
448,192,84268,1,0,0:0:0:0:
320,192,84379,1,0,0:0:0:0:
192,192,84489,1,14,0:0:0:0:
64,192,84599,1,0,0:0:0:0:
320,192,84710,1,0,0:0:0:0:
192,192,84710,1,0,0:0:0:0:
64,192,84930,1,14,0:0:0:0:
448,192,84930,1,14,0:0:0:0:
192,192,85040,1,0,0:0:0:0:
320,192,85040,1,0,0:0:0:0:
448,192,85151,1,0,0:0:0:0:
64,192,85151,1,0,0:0:0:0:
320,192,85261,1,0,0:0:0:0:
192,192,85261,1,0,0:0:0:0:
64,192,85371,1,14,0:0:0:0:
192,192,85371,1,14,0:0:0:0:
320,192,85371,1,14,0:0:0:0:
448,192,85371,1,14,0:0:0:0:
