osu file format v14

[General]
AudioFilename: Shandy Kubota - Drizzle (Fang Remix) (Short Ver.).mp3
AudioLeadIn: 0
PreviewTime: 43364
Countdown: 0
SampleSet: Normal
StackLeniency: 0.4
Mode: 0
LetterboxInBreaks: 0
WidescreenStoryboard: 0

[Editor]
Bookmarks: 11393,22364,44307,64879,66250,88193,89564,103279,104650,108764,110136,131564,132079
DistanceSpacing: 0.6
BeatDivisor: 4
GridSize: 4
TimelineZoom: 2.3

[Metadata]
Title:Drizzle (fang Remix)
TitleUnicode:Drizzle (fang Remix)
Artist:Shandy Kubota
ArtistUnicode:Shandy Kubota
Creator:Famous
Version:Extreme
Source:
Tags:drumstep cut short version USAO Sound Ave. ShandyBass C83
BeatmapID:445871
BeatmapSetID:186690

[Difficulty]
HPDrainRate:6
CircleSize:4.2
OverallDifficulty:8.5
ApproachRate:9.3
SliderMultiplier:2.2
SliderTickRate:1

[Events]
//Background and Video events
0,0,"bg.jpg",0,0
//Break Periods
//Storyboard Layer 0 (Background)
//Storyboard Layer 1 (Fail)
//Storyboard Layer 2 (Pass)
//Storyboard Layer 3 (Foreground)
//Storyboard Layer 4 (Overlay)
//Storyboard Sound Samples

[TimingPoints]
422,342.857142857143,4,1,0,80,1,0
22193,-100,4,2,2,5,0,0
22364,-153.846153846154,4,2,2,60,0,0
33336,-166.666666666667,4,2,2,60,0,0
42936,-166.666666666667,4,2,0,5,0,0
44307,-100,4,1,1,80,0,0
44564,-100,4,1,1,5,0,0
44650,-100,4,1,1,80,0,0
45936,-100,4,1,1,5,0,0
46022,-100,4,1,1,80,0,0
50050,-100,4,1,1,5,0,0
50136,-100,4,1,1,80,0,0
53907,-83.3333333333333,4,1,1,80,0,0
54079,-100,4,1,1,80,0,0
55279,-83.3333333333333,4,1,1,80,0,0
55536,-100,4,1,1,5,0,0
55622,-100,4,1,1,80,0,0
58279,-100,4,1,1,5,0,0
58364,-100,4,1,1,80,0,0
62136,-100,4,1,1,60,0,0
64707,-100,4,2,1,5,0,0
64879,-100,4,1,2,60,0,0
66250,-90.9090909090909,4,1,1,80,0,1
74736,-90.9090909090909,4,1,1,5,0,1
74822,-90.9090909090909,4,1,1,80,0,1
88193,-100,4,1,1,80,0,0
88279,-100,4,1,1,60,0,0
89564,-100,4,1,1,80,0,0
89822,-100,4,1,1,5,0,0
89907,-100,4,1,1,80,0,0
93936,-100,4,1,1,5,0,0
94022,-100,4,1,1,80,0,0
97793,-83.3333333333333,4,1,1,80,0,0
97964,-100,4,1,1,80,0,0
99164,-83.3333333333333,4,1,1,80,0,0
99422,-100,4,1,1,5,0,0
99507,-100,4,1,1,80,0,0
103279,-100,4,1,1,60,0,0
104650,-100,4,1,1,80,0,0
106022,-100,4,1,1,60,0,0
108764,-100,4,1,1,5,0,0
110136,-90.9090909090909,4,1,1,80,0,1
118622,-90.9090909090909,4,1,1,5,0,1
118707,-90.9090909090909,4,1,1,80,0,1
129593,-90.9090909090909,4,1,1,5,0,1
129679,-90.9090909090909,4,1,1,80,0,1
132079,-100,4,1,1,80,0,0

[Colours]
Combo1 : 255,169,128
Combo2 : 64,126,255
Combo3 : 255,85,85
Combo4 : 128,128,255

[HitObjects]
256,192,20993,12,0,22193,0:0:0:0:
340,228,22364,6,0,P|336:284|316:324,1,71.4999967269899,6|0,0:0|0:0,0:0:0:0:
192,260,22707,2,0,P|182:225|182:189,1,71.4999967269899,2|0,0:0|0:0,0:0:0:0:
364,208,23050,1,2,0:0:0:0:
172,156,23222,1,0,0:0:0:0:
396,108,23393,2,0,L|492:116,1,71.4999967269899,10|0,0:0|0:0,0:0:0:0:
332,24,23736,5,2,0:0:0:0:
280,172,23907,1,0,0:0:0:0:
416,84,24079,1,2,0:0:0:0:
236,84,24250,1,0,0:0:0:0:
388,180,24422,2,0,P|396:224|388:256,1,71.4999967269899,2|0,0:0|0:0,0:0:0:0:
284,336,24764,1,2,0:0:0:0:
256,332,24850,1,0,0:0:0:0:
228,328,24936,1,0,0:0:0:0:
200,324,25022,1,0,0:0:0:0:
172,320,25107,5,2,0:0:0:0:
372,276,25279,1,0,0:0:0:0:
132,232,25450,2,0,L|128:160,1,71.4999967269899,2|0,0:0|0:0,0:0:0:0:
296,172,25793,1,2,0:0:0:0:
112,132,25964,1,0,0:0:0:0:
336,96,26136,2,0,L|340:24,1,71.4999967269899,10|0,0:0|0:0,0:0:0:0:
428,144,26479,6,0,P|404:176|356:196,1,71.4999967269899,2|0,0:0|0:0,0:0:0:0:
180,156,26822,1,2,0:0:0:0:
340,280,26993,1,0,0:0:0:0:
252,80,27164,2,0,L|336:72,1,71.4999967269899,2|0,0:0|0:0,0:0:0:0:
212,244,27507,1,2,0:0:0:0:
183,241,27592,1,0,0:0:0:0:
155,238,27678,1,0,0:0:0:0:
126,235,27764,1,0,0:0:0:0:
100,232,27850,6,0,B|80:200|80:200|84:152,1,71.4999967269899,2|0,0:0|0:0,0:0:0:0:
224,40,28193,2,0,B|216:112,1,71.4999967269899,2|0,0:0|0:0,0:0:0:0:
192,272,28536,1,2,0:0:0:0:
240,136,28707,1,0,0:0:0:0:
252,328,28879,2,0,P|212:352|172:352,1,71.4999967269899,10|0,0:0|0:0,0:0:0:0:
44,228,29222,6,0,P|90:231|123:254,1,71.4999967269899,2|0,0:0|0:0,0:0:0:0:
59,312,29564,1,2,0:0:0:0:
112,152,29736,1,0,0:0:0:0:
156,344,29907,1,2,0:0:0:0:
76,140,30079,1,0,0:0:0:0:
204,224,30250,1,2,0:0:0:0:
231,232,30336,1,0,0:0:0:0:
259,234,30422,1,0,0:0:0:0:
287,229,30507,1,0,0:0:0:0:
313,217,30593,6,0,L|324:128,1,71.4999967269899,2|0,0:0|0:0,0:0:0:0:
448,236,30936,2,0,L|456:306,1,71.4999967269899,2|0,0:0|0:0,0:0:0:0:
348,128,31279,1,2,0:0:0:0:
436,328,31450,1,0,0:0:0:0:
496,80,31622,2,0,L|404:60,1,71.4999967269899,10|0,0:0|0:0,0:0:0:0:
280,92,31964,5,2,0:0:0:0:
280,92,32307,1,2,0:0:0:0:
280,92,32650,1,2,0:0:0:0:
400,64,32822,1,0,0:0:0:0:
216,24,32993,1,2,0:0:0:0:
208,52,33079,1,0,0:0:0:0:
200,80,33164,1,0,0:0:0:0:
192,108,33250,1,0,0:0:0:0:
184,132,33336,5,2,0:0:0:0:
184,132,33679,2,0,B|192:232|192:232|224:260,1,131.99999597168,2|2,0:0|0:0,0:0:0:0:
280,188,34193,1,0,0:0:0:0:
264,328,34364,1,10,0:0:0:0:
264,328,34707,5,2,0:0:0:0:
376,304,34879,1,0,0:0:0:0:
184,280,35050,2,0,L|108:284,1,65.9999979858399,2|0,0:0|0:0,0:0:0:0:
64,128,35393,2,0,L|140:132,1,65.9999979858399,2|0,0:0|0:0,0:0:0:0:
28,228,35736,1,2,0:0:0:0:
28,228,35822,1,0,0:0:0:0:
28,228,35907,1,0,0:0:0:0:
28,228,35993,1,0,0:0:0:0:
28,228,36079,6,0,L|36:320,1,65.9999979858399,2|0,0:0|0:0,0:0:0:0:
100,152,36422,1,2,0:0:0:0:
272,328,36764,1,2,0:0:0:0:
292,220,36936,1,0,0:0:0:0:
164,336,37107,1,10,0:0:0:0:
292,220,37450,5,2,0:0:0:0:
232,120,37622,1,0,0:0:0:0:
400,164,37793,1,2,0:0:0:0:
208,156,37964,1,0,0:0:0:0:
424,128,38136,2,0,L|416:56,1,65.9999979858399,2|0,0:0|0:0,0:0:0:0:
316,204,38479,1,2,0:0:0:0:
312,232,38564,1,0,0:0:0:0:
308,260,38650,1,0,0:0:0:0:
304,288,38736,1,0,0:0:0:0:
300,316,38822,1,2,0:0:0:0:
256,192,38907,12,0,42936,0:0:0:0:
336,84,44307,6,0,P|308:152|376:236,1,165,6|0,0:0|0:0,0:0:0:0:
448,268,44650,2,0,L|312:280,1,110,8|0,0:0|0:0,0:0:0:0:
220,96,44993,1,0,0:0:0:0:
396,149,45164,1,0,0:0:0:0:
148,268,45336,2,0,P|92:256|48:212,1,110,8|0,0:0|0:0,0:0:0:0:
90,9,45679,6,0,B|128:36|128:36|145:154,1,165
53,221,46022,2,0,B|37:101,1,110,8|0,0:0|0:0,0:0:0:0:
380,176,46364,2,0,L|372:230,1,55
200,284,46536,2,0,L|207:229,1,55,2|0,0:0|0:0,0:0:0:0:
400,212,46707,2,0,L|380:340,1,110,8|0,0:0|0:0,0:0:0:0:
296,376,46964,1,0,0:0:0:0:
296,376,47050,6,0,P|168:364|128:272,1,220,2|8,0:0|0:0,0:0:0:0:
176,96,47564,1,0,0:0:0:0:
253,226,47736,2,0,L|240:280,1,55
120,164,47907,2,0,L|133:110,1,55,2|0,0:0|0:0,0:0:0:0:
280,264,48079,2,0,L|251:370,1,110,8|0,0:0|0:0,0:0:0:0:
248,108,48422,5,2,0:0:0:0:
283,73,48507,1,0,0:0:0:0:
329,58,48593,1,0,0:0:0:0:
378,64,48679,1,0,0:0:0:0:
419,92,48764,1,8,0:0:0:0:
443,134,48850,1,2,0:0:0:0:
447,183,48936,1,0,0:0:0:0:
429,228,49022,1,2,0:0:0:0:
393,262,49107,2,0,L|252:276,1,110,0|2,0:0|0:0,0:0:0:0:
148,184,49364,1,0,0:0:0:0:
148,184,49450,2,0,L|223:192,1,55,8|0,0:0|0:0,0:0:0:0:
344,348,49622,2,0,L|289:353,1,55,8|0,0:0|0:0,0:0:0:0:
180,152,49793,6,0,B|320:168|320:168|268:200,1,165,6|0,0:0|0:0,0:0:0:0:
162,243,50136,2,0,P|111:216|93:146,1,110,8|0,0:0|0:0,0:0:0:0:
276,64,50479,1,0,0:0:0:0:
184,268,50650,1,2,0:0:0:0:
136,80,50822,2,0,P|79:70|24:96,1,110,8|0,0:0|0:0,0:0:0:0:
44,284,51164,5,2,0:0:0:0:
44,284,51250,1,0,0:0:0:0:
44,284,51336,2,0,P|101:294|156:268,1,110,0|8,0:0|0:0,0:0:0:0:
212,184,51593,1,0,0:0:0:0:
224,216,51679,1,2,0:0:0:0:
236,244,51764,1,0,0:0:0:0:
248,276,51850,2,0,P|292:316|372:308,1,110,0|2,0:0|0:0,0:0:0:0:
460,132,52193,2,0,P|407:117|357:137,1,110,8|0,0:0|0:0,0:0:0:0:
340,320,52536,6,0,P|308:335|264:328,1,55,2|0,0:0|0:0,0:0:0:0:
148,208,52707,2,0,P|176:208|212:224,1,55
40,280,52879,6,0,L|28:204,1,55,8|0,0:0|0:0,0:0:0:0:
236,64,53050,2,0,L|227:118,1,55
32,88,53222,6,0,L|100:84,1,55
292,240,53393,2,0,L|212:232,1,55,2|0,0:0|0:0,0:0:0:0:
236,64,53564,6,0,P|268:48|300:52,1,55,8|0,0:0|0:0,0:0:0:0:
440,232,53736,2,0,P|433:258|414:277,1,55
184,184,53907,6,0,P|164:232|216:304,1,131.99999597168,2|0,0:0|0:0,0:0:0:0:
260,312,54164,1,0,0:0:0:0:
320,296,54250,1,8,0:0:0:0:
352,244,54336,1,2,0:0:0:0:
348,184,54422,1,0,0:0:0:0:
312,136,54507,1,2,0:0:0:0:
252,124,54593,2,0,L|160:132,1,55,2|0,0:0|0:0,0:0:0:0:
84,300,54764,2,0,L|176:308,1,55,2|0,0:0|0:0,0:0:0:0:
228,92,54936,2,0,L|96:104,1,110,8|8,0:0|0:0,0:0:0:0:
48,336,55193,1,0,0:0:0:0:
48,336,55279,6,0,L|256:356,1,197.99999395752,6|0,0:0|0:0,0:0:0:0:
136,232,55622,2,0,L|26:222,1,110,8|0,0:0|0:0,0:0:0:0:
232,152,55964,1,0,0:0:0:0:
147,346,56136,1,2,0:0:0:0:
209,125,56307,2,0,L|153:117,1,55,8|0,0:0|0:0,0:0:0:0:
344,200,56479,2,0,L|400:192,1,55
212,276,56650,6,0,L|103:259,1,110,2|0,0:0|0:0,0:0:0:0:
24,156,56907,1,0,0:0:0:0:
24,156,56993,2,0,L|16:84,1,55,8|0,0:0|0:0,0:0:0:0:
148,164,57164,1,2,0:0:0:0:
196,180,57250,1,0,0:0:0:0:
244,172,57336,1,0,0:0:0:0:
284,144,57422,1,0,0:0:0:0:
300,96,57507,1,2,0:0:0:0:
292,48,57593,1,0,0:0:0:0:
252,16,57679,2,0,L|180:28,1,55,8|0,0:0|0:0,0:0:0:0:
32,52,57850,1,0,0:0:0:0:
32,52,57936,1,0,0:0:0:0:
32,52,58022,6,0,P|32:172|79:222,1,165,2|0,0:0|0:0,0:0:0:0:
77,221,58364,2,0,L|190:247,1,110,8|0,0:0|0:0,0:0:0:0:
412,236,58707,2,0,P|485:158|480:52,1,220,0|8,0:0|0:0,0:0:0:0:
360,112,59222,1,0,0:0:0:0:
504,288,59393,5,2,0:0:0:0:
475,340,59479,1,0,0:0:0:0:
423,369,59564,1,0,0:0:0:0:
364,366,59650,1,0,0:0:0:0:
312,332,59736,2,0,L|288:216,1,110,8|0,0:0|0:0,0:0:0:0:
276,164,59993,1,2,0:0:0:0:
224,132,60079,1,0,0:0:0:0:
164,140,60164,1,0,0:0:0:0:
124,184,60250,1,2,0:0:0:0:
124,244,60336,1,0,0:0:0:0:
156,296,60422,2,0,L|236:308,1,55,8|0,0:0|0:0,0:0:0:0:
432,332,60593,2,0,L|352:344,1,55,0|0,0:0|0:0,0:0:0:0:
176,340,60764,6,0,L|292:356,1,110,6|0,0:0|0:0,0:0:0:0:
488,248,61107,2,0,P|504:180|500:132,1,110,8|0,0:0|0:0,0:0:0:0:
276,116,61450,2,0,P|274:170|289:223,1,110,0|2,0:0|0:0,0:0:0:0:
392,36,61793,2,0,P|280:76|168:24,1,220,8|2,0:0|0:0,0:0:0:0:
100,172,62307,5,0,0:0:0:0:
108,204,62393,1,0,0:0:0:0:
116,236,62479,2,0,L|96:352,1,110,8|2,0:0|0:0,0:0:0:0:
20,104,62822,1,0,0:0:0:0:
44,82,62907,1,0,0:0:0:0:
75,69,62993,1,2,0:0:0:0:
107,67,63079,1,0,0:0:0:0:
139,75,63164,2,0,P|192:84|264:56,1,110,8|0,0:0|0:0,0:0:0:0:
256,192,63507,12,0,64707,0:0:0:0:
256,192,64879,5,8,0:0:0:0:
104,194,65050,1,0,0:0:0:0:
107,227,65136,1,0,0:0:0:0:
116,259,65222,1,8,0:0:0:0:
132,288,65307,1,0,0:0:0:0:
380,288,65479,1,0,0:0:0:0:
396,259,65565,1,0,0:0:0:0:
405,227,65650,1,0,0:0:0:0:
408,194,65736,1,0,0:0:0:0:
404,162,65822,1,0,0:0:0:0:
394,131,65908,1,8,0:0:0:0:
64,224,66250,6,0,B|252:252|252:252|204:220,1,242.000007385254,6|8,0:0|0:0,0:0:0:0:
56,124,66764,1,0,0:0:0:0:
156,320,66936,2,0,B|292:340,1,121.000003692627,0|2,0:0|0:0,0:0:0:0:
377,102,67279,2,0,B|241:122,1,121.000003692627,8|0,0:0|0:0,0:0:0:0:
56,152,67622,2,0,P|48:248|188:296,1,242.000007385254,2|8,0:0|0:0,0:0:0:0:
456,152,68136,2,0,P|464:248|324:296,1,242.000007385254,2|2,0:0|0:0,0:0:0:0:
256,52,68650,2,0,L|380:44,1,121.000003692627,8|0,0:0|0:0,0:0:0:0:
256,232,68993,6,0,L|132:224,1,121.000003692627,2|0,0:0|0:0,0:0:0:0:
392,160,69336,2,0,P|412:224|392:300,1,121.000003692627,8|0,0:0|0:0,0:0:0:0:
180,348,69679,1,0,0:0:0:0:
164,196,69850,1,2,0:0:0:0:
412,248,70022,1,8,0:0:0:0:
428,96,70193,1,0,0:0:0:0:
224,244,70364,5,2,0:0:0:0:
164,228,70450,1,0,0:0:0:0:
120,184,70536,1,0,0:0:0:0:
112,124,70622,1,0,0:0:0:0:
132,68,70707,1,8,0:0:0:0:
176,36,70793,1,2,0:0:0:0:
232,32,70879,1,0,0:0:0:0:
284,48,70964,1,2,0:0:0:0:
320,88,71050,1,0,0:0:0:0:
328,136,71136,1,0,0:0:0:0:
308,180,71222,1,2,0:0:0:0:
268,204,71307,1,0,0:0:0:0:
220,212,71393,2,0,L|160:204,1,60.5000018463135,8|0,0:0|0:0,0:0:0:0:
384,148,71564,2,0,L|444:140,1,60.5000018463135,8|0,0:0|0:0,0:0:0:0:
248,252,71736,6,0,B|163:242|163:242|93:257|93:257|0:244,1,242.000007385254,6|8,0:0|0:0,0:0:0:0:
84,108,72250,1,0,0:0:0:0:
168,328,72422,2,0,L|288:341,1,121.000003692627,0|2,0:0|0:0,0:0:0:0:
384,148,72764,2,0,P|320:144|264:176,1,121.000003692627,8|0,0:0|0:0,0:0:0:0:
412,292,73107,2,0,P|396:176|508:116,1,242.000007385254,2|8,0:0|0:0,0:0:0:0:
288,260,73622,2,0,B|100:240|100:240|188:212,1,242.000007385254,2|2,0:0|0:0,0:0:0:0:
320,172,74136,1,8,0:0:0:0:
188,336,74307,1,0,0:0:0:0:
28,176,74479,6,0,B|169:132|169:132|228:152,1,181.500005538941,2|0,0:0|0:0,0:0:0:0:
308,192,74822,2,0,B|340:201|340:201|430:176,2,121.000003692627,8|0|0,0:0|0:0|0:0,0:0:0:0:
76,84,75336,2,0,L|18:101,1,60.5000018463135,2|0,0:0|0:0,0:0:0:0:
68,184,75507,2,0,L|10:201,1,60.5000018463135,8|0,0:0|0:0,0:0:0:0:
60,284,75679,2,0,L|2:301,1,60.5000018463135
144,332,75850,5,2,0:0:0:0:
192,336,75936,1,0,0:0:0:0:
240,340,76022,1,0,0:0:0:0:
288,344,76107,1,0,0:0:0:0:
336,348,76193,2,0,L|440:336,1,60.5000018463135,8|0,0:0|0:0,0:0:0:0:
488,216,76364,1,2,0:0:0:0:
496,160,76450,1,0,0:0:0:0:
504,104,76536,2,0,L|484:36,1,60.5000018463135,8|0,0:0|0:0,0:0:0:0:
329,179,76707,1,2,0:0:0:0:
320,240,76793,1,0,0:0:0:0:
312,300,76879,2,0,L|332:368,1,60.5000018463135,8|0,0:0|0:0,0:0:0:0:
148,232,77050,2,0,L|165:173,1,60.5000018463135,8|0,0:0|0:0,0:0:0:0:
368,76,77222,6,0,P|392:176|296:152,1,242.000007385254,6|8,0:0|0:0,0:0:0:0:
256,16,77736,1,0,0:0:0:0:
476,200,77907,2,0,P|436:248|344:268,1,121.000003692627,0|2,0:0|0:0,0:0:0:0:
76,200,78250,1,8,0:0:0:0:
244,184,78422,1,0,0:0:0:0:
52,320,78593,2,0,B|112:356|180:352|237:305|237:305|180:312,1,242.000007385254,2|8,0:0|0:0,0:0:0:0:
0,180,79107,2,0,B|40:128|12:64|12:64|60:104|148:80,1,242.000007385254,2|2,0:0|0:0,0:0:0:0:
392,32,79622,2,0,P|335:21|271:29,1,121.000003692627,8|0,0:0|0:0,0:0:0:0:
216,280,79964,6,0,L|360:272,1,121.000003692627,2|0,0:0|0:0,0:0:0:0:
372,48,80307,2,0,L|228:40,1,121.000003692627,8|0,0:0|0:0,0:0:0:0:
420,176,80650,1,0,0:0:0:0:
420,176,80822,1,2,0:0:0:0:
252,68,80993,1,8,0:0:0:0:
356,296,81164,1,0,0:0:0:0:
364,104,81336,5,2,0:0:0:0:
312,72,81422,1,0,0:0:0:0:
252,68,81507,1,0,0:0:0:0:
196,88,81593,1,0,0:0:0:0:
160,136,81679,1,8,0:0:0:0:
108,156,81764,1,2,0:0:0:0:
56,144,81850,1,0,0:0:0:0:
24,100,81936,1,2,0:0:0:0:
28,44,82022,1,0,0:0:0:0:
68,72,82107,1,0,0:0:0:0:
80,120,82193,1,2,0:0:0:0:
72,168,82279,1,0,0:0:0:0:
40,204,82364,1,8,0:0:0:0:
28,244,82450,1,0,0:0:0:0:
40,284,82536,1,0,0:0:0:0:
72,312,82622,1,0,0:0:0:0:
112,320,82707,6,0,B|196:320|216:236|216:236|248:292|344:284,1,242.000007385254,6|8,0:0|0:0,0:0:0:0:
472,260,83222,1,0,0:0:0:0:
300,184,83393,1,0,0:0:0:0:
396,344,83564,1,2,0:0:0:0:
436,104,83736,1,8,0:0:0:0:
380,308,83907,1,0,0:0:0:0:
464,80,84079,2,0,P|368:24|248:80,1,242.000007385254,2|8,0:0|0:0,0:0:0:0:
209,297,84593,2,0,P|320:263|357:153,1,242.000007385254,2|2,0:0|0:0,0:0:0:0:
120,196,85107,2,0,L|-12:176,1,121.000003692627,8|0,0:0|0:0,0:0:0:0:
216,104,85450,5,2,0:0:0:0:
32,272,85622,1,0,0:0:0:0:
96,24,85793,1,8,0:0:0:0:
220,204,85964,1,0,0:0:0:0:
24,304,86136,2,0,L|8:184,1,121.000003692627,0|2,0:0|0:0,0:0:0:0:
196,236,86393,1,0,0:0:0:0:
196,236,86479,2,0,L|180:116,1,121.000003692627,8|0,0:0|0:0,0:0:0:0:
368,32,86822,6,0,L|376:91,1,60.5000018463135,8|0,0:0|0:0,0:0:0:0:
360,244,86993,1,2,0:0:0:0:
340,280,87079,1,2,0:0:0:0:
316,312,87164,2,0,L|236:324,1,60.5000018463135,8|2,0:0|0:0,0:0:0:0:
60,276,87336,1,2,0:0:0:0:
44,232,87422,1,2,0:0:0:0:
52,180,87507,1,2,0:0:0:0:
88,140,87593,1,2,0:0:0:0:
140,124,87679,1,2,0:0:0:0:
192,144,87764,1,2,0:0:0:0:
228,192,87850,2,0,L|240:256,1,60.5000018463135,8|0,0:0|0:0,0:0:0:0:
340,60,88022,2,0,L|351:0,1,60.5000018463135,8|0,0:0|0:0,0:0:0:0:
440,236,88193,1,6,0:0:0:0:
440,236,88536,5,0,0:0:0:0:
256,296,88707,2,0,L|348:308,1,55
180,220,88879,2,0,L|21:241,1,110
164,316,89222,1,8,0:0:0:0:
164,316,89564,6,0,P|240:296|272:192,1,165,2|0,0:0|0:0,0:0:0:0:
252,112,89907,2,0,P|288:152|364:156,1,110,8|2,0:0|0:0,0:0:0:0:
180,220,90250,2,0,L|108:208,1,55
64,48,90422,2,0,L|118:57,1,55,2|0,0:0|0:0,0:0:0:0:
148,248,90593,2,0,L|4:224,1,110,8|0,0:0|0:0,0:0:0:0:
156,148,90850,1,0,0:0:0:0:
156,148,90936,6,0,P|236:204|204:328,1,220,2|8,0:0|0:0,0:0:0:0:
39,229,91450,1,0,0:0:0:0:
138,59,91622,2,0,P|174:59|202:71,1,55
293,218,91793,2,0,P|266:219|240:212,1,55,2|0,0:0|0:0,0:0:0:0:
184,16,91964,2,0,P|232:48|308:44,1,110,8|0,0:0|0:0,0:0:0:0:
447,204,92307,5,2,0:0:0:0:
402,182,92393,1,0,0:0:0:0:
353,173,92479,1,0,0:0:0:0:
304,175,92564,1,0,0:0:0:0:
257,190,92650,1,8,0:0:0:0:
215,215,92736,1,2,0:0:0:0:
180,251,92822,1,0,0:0:0:0:
155,293,92907,1,2,0:0:0:0:
141,341,92993,2,0,L|124:224,1,110,0|2,0:0|0:0,0:0:0:0:
304,175,93250,1,0,0:0:0:0:
304,175,93336,2,0,L|296:229,1,55,8|0,0:0|0:0,0:0:0:0:
84,264,93507,2,0,L|76:209,1,55,8|0,0:0|0:0,0:0:0:0:
352,152,93679,6,0,L|326:320,1,165,6|0,0:0|0:0,0:0:0:0:
216,344,94022,2,0,L|231:235,1,110,8|0,0:0|0:0,0:0:0:0:
260,44,94364,1,0,0:0:0:0:
336,252,94536,1,2,0:0:0:0:
152,120,94707,2,0,B|116:112|116:112|40:136,1,110,8|0,0:0|0:0,0:0:0:0:
156,344,95050,5,2,0:0:0:0:
156,344,95136,1,0,0:0:0:0:
156,344,95222,2,0,L|132:224,1,110,0|8,0:0|0:0,0:0:0:0:
152,120,95479,1,0,0:0:0:0:
196,144,95564,1,2,0:0:0:0:
244,148,95650,1,0,0:0:0:0:
288,128,95736,2,0,P|348:124|412:160,1,110,0|2,0:0|0:0,0:0:0:0:
260,359,96079,2,0,P|206:364|156:344,1,110,8|0,0:0|0:0,0:0:0:0:
328,212,96422,6,0,L|408:232,1,55,2|0,0:0|0:0,0:0:0:0:
188,244,96593,2,0,L|134:230,1,55
376,132,96764,6,0,L|429:118,1,55,8|0,0:0|0:0,0:0:0:0:
240,328,96936,2,0,L|186:341,1,55
120,132,97107,6,0,P|152:132|200:156,1,55
88,332,97279,2,0,P|58:345|5:344,1,55,2|0,0:0|0:0,0:0:0:0:
40,148,97450,6,0,P|40:116|56:80,1,55,8|0,0:0|0:0,0:0:0:0:
316,312,97622,2,0,P|316:344|300:380,1,55,0|2,0:0|0:0,0:0:0:0:
224,152,97793,6,0,P|252:88|320:88,1,131.99999597168,0|2,0:0|0:0,0:0:0:0:
360,112,98050,1,0,0:0:0:0:
380,168,98136,1,8,0:0:0:0:
352,224,98222,1,2,0:0:0:0:
316,272,98307,1,0,0:0:0:0:
328,332,98393,1,2,0:0:0:0:
368,376,98479,2,0,L|422:371,1,55
168,296,98650,2,0,L|113:291,1,55,2|0,0:0|0:0,0:0:0:0:
392,336,98822,2,0,L|501:326,1,110,8|8,0:0|0:0,0:0:0:0:
148,260,99079,1,0,0:0:0:0:
148,260,99164,6,0,B|8:248|8:248|88:232,1,197.99999395752,6|0,0:0|0:0,0:0:0:0:
224,212,99507,2,0,P|237:269|208:328,1,110,8|0,0:0|0:0,0:0:0:0:
48,124,99850,2,0,L|72:12,1,110,0|2,0:0|0:0,0:0:0:0:
196,192,100193,2,0,P|168:200|128:192,1,55,8|0,0:0|0:0,0:0:0:0:
300,104,100364,2,0,P|327:101|353:109,1,55
224,212,100536,6,0,P|243:268|288:307,1,110,2|0,0:0|0:0,0:0:0:0:
408,320,100793,1,0,0:0:0:0:
408,320,100879,2,0,L|488:312,1,55,8|0,0:0|0:0,0:0:0:0:
344,200,101050,1,2,0:0:0:0:
324,156,101136,1,0,0:0:0:0:
336,108,101222,1,0,0:0:0:0:
376,80,101307,1,0,0:0:0:0:
328,76,101393,1,2,0:0:0:0:
280,72,101479,1,0,0:0:0:0:
232,68,101564,2,0,L|136:60,1,55,8|0,0:0|0:0,0:0:0:0:
4,136,101736,1,0,0:0:0:0:
12,184,101822,1,0,0:0:0:0:
20,232,101907,6,0,B|100:272|100:272|140:268|140:268|232:312,1,220,2|8,0:0|0:0,0:0:0:0:
8,344,102422,1,0,0:0:0:0:
232,212,102593,2,0,P|224:108|104:48,1,220,0|8,0:0|0:0,0:0:0:0:
120,168,103107,1,0,0:0:0:0:
278,294,103279,6,0,P|314:286|358:290,1,55,2|0,0:0|0:0,0:0:0:0:
408,100,103450,1,0,0:0:0:0:
408,100,103536,1,0,0:0:0:0:
408,100,103622,6,0,P|372:108|328:104,1,55,2|0,0:0|0:0,0:0:0:0:
164,40,103793,1,0,0:0:0:0:
164,40,103879,1,0,0:0:0:0:
164,40,103964,6,0,P|172:76|168:120,1,55,2|0,0:0|0:0,0:0:0:0:
104,284,104136,1,0,0:0:0:0:
104,284,104222,1,0,0:0:0:0:
104,284,104307,6,0,P|140:276|184:280,1,55,2|0,0:0|0:0,0:0:0:0:
348,344,104479,1,0,0:0:0:0:
348,344,104565,1,0,0:0:0:0:
348,344,104650,6,0,B|334:288|334:288|356:216,1,110,6|0,0:0|0:0,0:0:0:0:
192,144,104993,2,0,B|206:200|206:200|184:272,1,110,8|0,0:0|0:0,0:0:0:0:
420,288,105336,2,0,P|432:216|398:166,1,110,0|2,0:0|0:0,0:0:0:0:
120,196,105679,2,0,P|127:312|240:323,1,220,8|2,0:0|0:0,0:0:0:0:
401,250,106193,5,0,0:0:0:0:
408,216,106279,1,0,0:0:0:0:
416,184,106364,2,0,L|408:64,1,110,8|2,0:0|0:0,0:0:0:0:
104,74,106707,1,0,0:0:0:0:
100,108,106793,1,0,0:0:0:0:
96,140,106879,1,2,0:0:0:0:
92,172,106964,1,0,0:0:0:0:
88,204,107050,2,0,L|95:313,1,110,8|0,0:0|0:0,0:0:0:0:
256,192,107393,12,0,108764,0:0:0:0:
432,292,110136,6,0,B|392:322|341:310|341:310|264:288|200:343,1,242.000007385254,6|8,0:0|0:0,0:0:0:0:
368,200,110650,1,0,0:0:0:0:
180,104,110822,2,0,P|116:92|40:120,1,121.000003692627,0|2,0:0|0:0,0:0:0:0:
140,336,111164,2,0,P|204:348|280:320,1,121.000003692627,8|0,0:0|0:0,0:0:0:0:
384,56,111507,2,0,B|400:240|400:240|352:168,1,242.000007385254,2|8,0:0|0:0,0:0:0:0:
264,24,112022,2,0,P|164:96|264:116,1,242.000007385254,2|2,0:0|0:0,0:0:0:0:
384,56,112536,1,8,0:0:0:0:
324,224,112707,1,0,0:0:0:0:
72,248,112879,6,0,B|56:216|56:216|72:116,1,121.000003692627,2|0,0:0|0:0,0:0:0:0:
264,24,113222,2,0,B|280:56|280:56|264:156,1,121.000003692627,8|0,0:0|0:0,0:0:0:0:
244,280,113564,1,0,0:0:0:0:
188,72,113736,1,2,0:0:0:0:
348,260,113907,2,0,P|408:268|472:248,1,121.000003692627,8|0,0:0|0:0,0:0:0:0:
236,124,114250,5,2,0:0:0:0:
176,116,114336,1,0,0:0:0:0:
116,132,114422,1,0,0:0:0:0:
72,172,114507,1,0,0:0:0:0:
56,224,114593,1,8,0:0:0:0:
56,280,114679,1,2,0:0:0:0:
80,328,114764,1,0,0:0:0:0:
128,356,114850,1,2,0:0:0:0:
176,360,114936,1,0,0:0:0:0:
224,352,115022,1,0,0:0:0:0:
256,316,115107,1,2,0:0:0:0:
304,300,115193,1,0,0:0:0:0:
352,308,115279,2,0,P|384:309|412:300,1,60.5000018463135,8|0,0:0|0:0,0:0:0:0:
280,120,115450,2,0,P|247:118|220:128,1,60.5000018463135,8|0,0:0|0:0,0:0:0:0:
384,352,115622,6,0,P|492:268|476:160,1,242.000007385254,6|8,0:0|0:0,0:0:0:0:
324,24,116136,1,0,0:0:0:0:
260,245,116307,2,0,P|320:248|378:230,1,121.000003692627,0|2,0:0|0:0,0:0:0:0:
168,92,116650,2,0,L|32:108,1,121.000003692627,8|0,0:0|0:0,0:0:0:0:
128,320,116993,2,0,B|216:328|216:328|252:324|252:324|273:337|273:337|320:324|368:344,1,242.000007385254,2|8,0:0|0:0,0:0:0:0:
172,192,117507,2,0,B|136:124|136:124|176:44|176:44|264:28,1,242.000007385254,2|2,0:0|0:0,0:0:0:0:
336,168,118022,5,8,0:0:0:0:
88,232,118193,1,0,0:0:0:0:
276,136,118364,2,0,L|468:128,1,181.500005538941,2|0,0:0|0:0,0:0:0:0:
370,28,118707,2,0,B|250:33,2,121.000003692627,8|0|0,0:0|0:0|0:0,0:0:0:0:
392,132,119222,2,0,P|356:133|328:124,1,60.5000018463135,2|0,0:0|0:0,0:0:0:0:
328,219,119393,2,0,P|293:211|268:194,1,60.5000018463135,8|0,0:0|0:0,0:0:0:0:
240,287,119564,2,0,P|208:270|188:248,1,60.5000018463135
140,335,119736,5,2,0:0:0:0:
106,300,119822,1,0,0:0:0:0:
94,254,119907,1,0,0:0:0:0:
105,207,119993,1,0,0:0:0:0:
137,172,120079,2,0,L|241:160,1,60.5000018463135,8|0,0:0|0:0,0:0:0:0:
384,264,120250,1,2,0:0:0:0:
328,260,120336,1,0,0:0:0:0:
276,252,120422,2,0,L|172:240,1,60.5000018463135,8|0,0:0|0:0,0:0:0:0:
304,72,120593,1,2,0:0:0:0:
364,68,120679,1,0,0:0:0:0:
424,60,120764,2,0,L|484:66,1,60.5000018463135,8|0,0:0|0:0,0:0:0:0:
284,168,120936,2,0,L|223:161,1,60.5000018463135,8|0,0:0|0:0,0:0:0:0:
408,284,121107,6,0,B|469:291|469:291|376:336|285:315,1,242.000007385254,6|8,0:0|0:0,0:0:0:0:
96,236,121622,1,0,0:0:0:0:
312,160,121793,1,0,0:0:0:0:
40,148,121964,1,2,0:0:0:0:
332,240,122136,2,0,P|266:230|232:180,1,121.000003692627,8|0,0:0|0:0,0:0:0:0:
436,152,122479,2,0,P|356:236|416:356,1,242.000007385254,2|8,0:0|0:0,0:0:0:0:
116,342,122993,2,0,P|155:234|76:152,1,242.000007385254,2|2,0:0|0:0,0:0:0:0:
256,236,123507,1,8,0:0:0:0:
50,258,123679,1,0,0:0:0:0:
144,72,123850,6,0,L|284:88,1,121.000003692627,2|0,0:0|0:0,0:0:0:0:
328,332,124193,2,0,L|207:318,1,121.000003692627,8|0,0:0|0:0,0:0:0:0:
424,248,124536,1,0,0:0:0:0:
172,288,124707,1,2,0:0:0:0:
408,164,124879,2,0,P|472:180|506:247,1,121.000003692627,8|0,0:0|0:0,0:0:0:0:
280,336,125222,5,2,0:0:0:0:
220,340,125307,1,0,0:0:0:0:
160,344,125393,1,0,0:0:0:0:
100,348,125479,1,0,0:0:0:0:
48,332,125564,1,8,0:0:0:0:
12,288,125650,1,2,0:0:0:0:
0,236,125736,1,0,0:0:0:0:
8,184,125822,1,2,0:0:0:0:
36,144,125907,1,0,0:0:0:0:
80,120,125993,1,0,0:0:0:0:
128,120,126079,1,2,0:0:0:0:
172,136,126164,1,0,0:0:0:0:
204,172,126250,2,0,L|212:244,1,60.5000018463135,8|0,0:0|0:0,0:0:0:0:
18,348,126422,2,0,L|12:288,1,60.5000018463135,8|0,0:0|0:0,0:0:0:0:
240,148,126593,6,0,B|252:268|252:268|304:308|304:308|372:300,1,242.000007385254,6|8,0:0|0:0,0:0:0:0:
492,180,127107,1,0,0:0:0:0:
280,340,127279,2,0,L|148:354,1,121.000003692627,0|2,0:0|0:0,0:0:0:0:
48,144,127622,2,0,P|116:140|176:192,1,121.000003692627,8|0,0:0|0:0,0:0:0:0:
8,308,127964,2,0,P|100:344|184:228,1,242.000007385254,2|8,0:0|0:0,0:0:0:0:
76,48,128479,2,0,B|260:64|260:64|184:80,1,242.000007385254,2|2,0:0|0:0,0:0:0:0:
8,116,128993,1,8,0:0:0:0:
76,340,129164,1,0,0:0:0:0:
120,144,129336,6,0,P|196:184|288:144,1,181.500005538941,2|0,0:0|0:0,0:0:0:0:
336,72,129679,2,0,P|324:120|368:192,2,121.000003692627,8|0|0,0:0|0:0|0:0,0:0:0:0:
484,200,130193,2,0,L|476:272,1,60.5000018463135,2|0,0:0|0:0,0:0:0:0:
372,316,130364,2,0,L|378:255,1,60.5000018463135,8|2,0:0|0:0,0:0:0:0:
288,176,130536,2,0,L|280:248,1,60.5000018463135
168,272,130707,2,0,L|174:211,1,60.5000018463135,8|0,0:0|0:0,0:0:0:0:
328,92,130879,5,2,0:0:0:0:
344,112,130964,2,0,L|337:172,1,60.5000018463135,8|0,0:0|0:0,0:0:0:0:
100,232,131136,5,2,0:0:0:0:
92,208,131222,2,0,L|114:151,1,60.5000018463135,8|0,0:0|0:0,0:0:0:0:
412,152,131393,5,2,0:0:0:0:
420,176,131479,2,0,L|397:232,1,60.5000018463135,8|0,0:0|0:0,0:0:0:0:
36,152,131650,5,2,0:0:0:0:
36,124,131736,2,0,L|71:75,1,60.5000018463135,8|0,0:0|0:0,0:0:0:0:
476,260,131907,2,0,L|440:308,1,60.5000018463135,8|0,0:0|0:0,0:0:0:0:
256,192,132079,5,4,0:0:0:0:
