osu file format v14

[General]
AudioFilename: Shandy Kubota - Drizzle (Fang Remix) (Short Ver.).mp3
AudioLeadIn: 0
PreviewTime: -1
Countdown: 1
SampleSet: Normal
StackLeniency: 1
Mode: 0
LetterboxInBreaks: 1
WidescreenStoryboard: 1

[Editor]
DistanceSpacing: 0.4
BeatDivisor: 4
GridSize: 8
TimelineZoom: 1

[Metadata]
Title:Drizzle (Fang Remix)
TitleUnicode:Drizzle (Fang Remix)
Artist:Shandy Kubota
ArtistUnicode:Shandy Kubota
Creator:osu sucks
Version:Insane
Source:
Tags:
BeatmapID:1277056
BeatmapSetID:302683

[Difficulty]
HPDrainRate:7
CircleSize:4
OverallDifficulty:7.5
ApproachRate:9
SliderMultiplier:1.4
SliderTickRate:1

[Events]
//Background and Video events
0,0,"maxresdefault.jpg",0,0
//Break Periods
//Storyboard Layer 0 (Background)
//Storyboard Layer 1 (Fail)
//Storyboard Layer 2 (Pass)
//Storyboard Layer 3 (Foreground)
//Storyboard Sound Samples

[TimingPoints]
422,342.857142857143,4,2,0,100,1,0
44222,-66.6666666666667,4,1,0,100,0,1
45336,-50,4,1,0,100,0,1
45679,-66.6666666666667,4,1,0,100,0,1
66250,-66.6666666666667,4,1,0,100,0,0
66593,-100,4,1,0,100,0,0
68993,-66.6666666666667,4,1,0,100,0,0
70364,-100,4,1,0,100,0,0
74822,-66.6666666666667,4,1,0,100,0,0
75164,-100,4,1,0,100,0,0
78593,-66.6666666666667,4,1,0,100,0,0
83050,-100,4,1,0,100,0,0
83222,-66.6666666666667,4,1,0,100,0,0
84593,-66.6666666666667,4,1,0,100,0,0
85279,-66.6666666666667,4,1,0,100,0,0
88193,-50,4,1,0,100,0,0
88536,-66.6666666666667,4,1,0,100,0,0
93336,-100,4,1,0,100,0,0
93507,-66.6666666666667,4,1,0,100,0,0
96422,-133.333333333333,4,1,0,100,0,0
97793,-100,4,1,0,100,0,0
99164,-66.6666666666667,4,1,0,100,0,0
101222,-133.333333333333,4,1,0,100,0,0
101907,-66.6666666666667,4,1,0,100,0,0
110136,-66.6666666666667,4,2,0,100,0,1
130707,-133.333333333333,4,2,0,100,0,1
132079,-66.6666666666667,4,2,0,100,0,0

[HitObjects]
176,72,22364,6,0,P|112:128|120:184,1,140
224,272,23050,2,0,P|248:224|240:200,1,70
272,192,23393,1,0,0:0:0:0:
80,288,23736,6,0,P|144:320|216:296,1,140
304,216,24422,2,0,P|280:184|224:168,1,70
216,256,24764,2,0,L|168:240,3,35
312,304,25107,5,0,0:0:0:0:
432,248,25279,1,0,0:0:0:0:
320,184,25450,1,0,0:0:0:0:
208,264,25793,2,0,P|192:232|208:192,1,70
216,176,26136,1,0,0:0:0:0:
352,56,26479,6,0,P|392:112|376:176,1,140
176,272,27164,2,0,L|104:304,1,70
80,136,27507,6,0,L|48:96,3,35
144,128,27850,6,0,P|192:80|280:80,1,140
432,184,28536,2,0,P|416:216|400:248,1,70
264,152,28879,1,0,0:0:0:0:
264,152,29050,1,0,0:0:0:0:
264,152,29222,1,0,0:0:0:0:
368,288,29564,1,0,0:0:0:0:
176,240,29907,2,0,P|128:208|112:200,1,70
160,120,30250,6,0,L|184:88,3,35
104,136,30593,1,0,0:0:0:0:
192,288,30764,1,0,0:0:0:0:
304,152,30936,1,0,0:0:0:0:
304,152,31279,2,0,L|368:200,1,70
360,194,31622,1,0,0:0:0:0:
144,304,31964,5,0,0:0:0:0:
296,40,32307,1,0,0:0:0:0:
296,40,32650,2,0,L|296:120,1,70
304,256,32993,6,0,L|304:296,3,35
176,152,33336,5,0,0:0:0:0:
440,320,33679,1,0,0:0:0:0:
440,320,34022,2,0,L|440:240,1,70
440,250,34364,1,0,0:0:0:0:
432,64,34707,5,0,0:0:0:0:
144,288,35050,1,0,0:0:0:0:
144,288,35393,2,0,L|144:208,1,70
200,72,35736,6,0,L|200:32,3,35
224,112,36079,5,0,0:0:0:0:
368,208,36250,1,0,0:0:0:0:
208,272,36422,1,0,0:0:0:0:
208,272,36764,2,0,L|280:336,1,70
260,318,37107,1,0,0:0:0:0:
392,64,37450,5,0,0:0:0:0:
120,192,37793,1,0,0:0:0:0:
120,192,38136,2,0,L|120:272,1,70
64,312,38479,2,0,L|64:360,3,35
192,272,38822,5,0,0:0:0:0:
416,64,39164,1,0,0:0:0:0:
424,256,39507,5,0,0:0:0:0:
320,344,39679,1,0,0:0:0:0:
288,216,39850,1,0,0:0:0:0:
400,48,40193,5,0,0:0:0:0:
112,256,40536,1,0,0:0:0:0:
200,80,40879,5,0,0:0:0:0:
360,144,41050,1,0,0:0:0:0:
216,248,41222,1,0,0:0:0:0:
256,192,41479,12,0,42936,0:0:0:0:
128,88,44307,6,0,B|256:-8|8:224|264:0|24:248|296:0|48:272|320:-72|120:320|240:168|264:192,1,210.000008010865
312,256,44822,1,0,0:0:0:0:
408,176,44993,6,0,B|376:136|432:128|440:136|336:128|440:96|408:72,1,105.000004005432
216,96,45336,2,0,B|144:40|280:16|336:120|192:120|144:192,1,262.500010013581
64,272,45850,1,0,0:0:0:0:
168,280,46022,1,0,0:0:0:0:
120,184,46193,1,0,0:0:0:0:
264,152,46364,5,0,0:0:0:0:
264,152,46450,1,0,0:0:0:0:
264,152,46536,1,0,0:0:0:0:
264,152,46622,1,0,0:0:0:0:
264,152,46707,1,0,0:0:0:0:
304,224,46879,2,0,L|264:272,1,52.5000020027161
248,256,47050,2,0,B|200:304|192:216|136:384|176:144|64:360|272:144|112:160,1,210.000008010865
280,64,47564,1,0,0:0:0:0:
312,216,47736,1,0,0:0:0:0:
168,160,47907,1,0,0:0:0:0:
288,56,48079,1,0,0:0:0:0:
408,168,48250,6,0,P|424:248|392:288,1,105.000004005432
136,272,48594,1,0,0:0:0:0:
128,240,48679,1,0,0:0:0:0:
128,208,48765,1,0,0:0:0:0:
136,176,48851,1,0,0:0:0:0:
152,152,48937,1,0,0:0:0:0:
176,136,49022,1,0,0:0:0:0:
208,120,49107,2,0,P|288:112|320:128,1,105.000004005432
400,224,49450,2,0,P|344:248|272:224,1,105.000004005432
88,232,49793,6,0,B|64:136|176:288|72:64|264:320|136:72|288:224|208:88,1,210.000008010865
296,40,50307,1,0,0:0:0:0:
448,232,50479,2,0,B|400:208|424:144|384:144,1,105.000004005432
288,216,50822,2,0,B|336:280|200:248|408:328|104:264|440:368|168:312|336:368|192:352,1,210.000008010865
176,336,51250,1,0,0:0:0:0:
160,320,51336,1,0,0:0:0:0:
144,304,51422,1,0,0:0:0:0:
128,288,51507,1,0,0:0:0:0:
112,272,51593,1,0,0:0:0:0:
96,256,51679,2,0,B|32:240|72:192|0:184,1,105.000004005432
40,176,51936,5,0,0:0:0:0:
56,168,52022,1,0,0:0:0:0:
72,160,52107,1,0,0:0:0:0:
88,152,52193,1,0,0:0:0:0:
104,144,52279,1,0,0:0:0:0:
120,136,52364,1,0,0:0:0:0:
218,105,52536,5,0,0:0:0:0:
218,105,52622,1,0,0:0:0:0:
218,105,52707,2,0,L|256:152,1,52.5000020027161
408,192,52879,1,0,0:0:0:0:
408,192,52964,1,0,0:0:0:0:
400,184,53050,2,0,L|344:216,1,52.5000020027161
248,280,53222,1,0,0:0:0:0:
248,280,53307,1,0,0:0:0:0:
248,280,53393,2,0,L|184:240,1,52.5000020027161
184,128,53564,1,0,0:0:0:0:
184,128,53650,1,0,0:0:0:0:
184,128,53736,2,0,L|232:152,1,52.5000020027161
352,96,53907,6,0,P|376:168|336:216,1,105.000004005432
288,320,54250,2,0,P|240:272|248:208,1,105.000004005432
192,88,54593,1,0,0:0:0:0:
192,88,54679,1,0,0:0:0:0:
192,88,54764,1,0,0:0:0:0:
192,88,54850,1,0,0:0:0:0:
192,88,54936,2,0,B|232:144|208:192|256:224,1,105.000004005432
112,304,55279,6,0,B|80:200|208:368|104:192|232:368|128:176|256:360|152:160|272:176,1,210.000008010865
384,280,55793,1,0,0:0:0:0:
168,224,55964,2,0,P|120:192|104:136,1,105.000004005432
256,80,56307,2,0,B|288:40|248:144|320:56|264:160|360:48|424:232,1,210.000008010865
200,272,56822,1,0,0:0:0:0:
200,272,56907,1,0,0:0:0:0:
200,272,56993,2,0,L|240:312,1,52.5000020027161
288,264,57164,6,0,B|304:192|344:320|328:184|376:328|392:208,1,105.000004005432
375,254,57422,1,0,0:0:0:0:
375,254,57507,1,0,0:0:0:0:
375,254,57593,1,0,0:0:0:0:
375,254,57679,1,0,0:0:0:0:
392,272,57764,1,0,0:0:0:0:
392,272,57850,1,0,0:0:0:0:
392,272,57936,1,0,0:0:0:0:
416,144,58022,6,0,B|368:80|392:192|344:88|360:192|320:88|208:160,1,210.000008010865
144,80,58536,1,0,0:0:0:0:
64,152,58707,2,0,P|112:192|128:248,1,105.000004005432
240,320,59050,2,0,B|264:264|320:352|280:240|352:352|360:192,1,157.500006008148
352,216,59393,1,0,0:0:0:0:
352,192,59479,1,0,0:0:0:0:
352,168,59564,1,0,0:0:0:0:
352,144,59650,1,0,0:0:0:0:
352,120,59736,1,0,0:0:0:0:
184,88,59907,5,0,0:0:0:0:
184,112,59993,1,0,0:0:0:0:
184,136,60079,1,0,0:0:0:0:
184,160,60164,1,0,0:0:0:0:
184,184,60250,2,0,L|184:248,4,52.5000020027161
352,304,60764,6,0,B|416:408|360:272|416:136,1,210.000008010865
352,88,61279,1,0,0:0:0:0:
256,48,61450,1,0,0:0:0:0:
160,88,61622,1,0,0:0:0:0:
160,88,61707,1,0,0:0:0:0:
160,88,61793,2,0,P|104:136|176:224,1,210.000008010865
360,152,62307,5,0,0:0:0:0:
360,152,62393,1,0,0:0:0:0:
360,152,62479,1,0,0:0:0:0:
408,248,62650,1,0,0:0:0:0:
280,280,62822,5,0,0:0:0:0:
280,280,62907,1,0,0:0:0:0:
280,280,62993,1,0,0:0:0:0:
280,280,63079,1,0,0:0:0:0:
280,280,63164,1,0,0:0:0:0:
344,344,63336,1,0,0:0:0:0:
256,192,63507,12,0,64707,0:0:0:0:
256,80,64879,5,0,0:0:0:0:
400,192,65050,1,0,0:0:0:0:
400,192,65136,1,0,0:0:0:0:
400,192,65222,2,0,L|400:272,1,52.5000020027161
336,296,65393,1,0,0:0:0:0:
240,192,65564,5,0,0:0:0:0:
240,192,65650,1,0,0:0:0:0:
240,192,65736,1,0,0:0:0:0:
240,192,65822,1,0,0:0:0:0:
240,192,65907,1,0,0:0:0:0:
384,304,66250,6,0,B|328:272|432:240|272:248|488:192|184:232|360:192|400:104|176:64,1,315.000012016297
212,71,66936,5,0,0:0:0:0:
120,176,67107,1,0,0:0:0:0:
255,203,67279,1,0,0:0:0:0:
217,75,67450,1,0,0:0:0:0:
370,221,67622,2,0,B|394:165|314:117|354:69,1,140
344,87,68136,1,0,0:0:0:0:
224,112,68479,5,0,0:0:0:0:
248,216,68651,2,0,P|288:248|320:280,1,70
400,312,68993,2,0,B|424:240|336:168|376:88,1,210
256,48,69507,5,0,0:0:0:0:
120,240,69679,1,0,0:0:0:0:
288,176,69850,1,0,0:0:0:0:
104,80,70022,1,0,0:0:0:0:
264,200,70193,1,0,0:0:0:0:
408,248,70364,6,0,L|448:264,3,35
344,304,70707,2,0,L|376:336,3,35
264,328,71050,1,0,0:0:0:0:
240,320,71136,1,0,0:0:0:0:
216,304,71222,1,0,0:0:0:0:
200,280,71307,1,0,0:0:0:0:
192,256,71393,1,0,0:0:0:0:
192,232,71479,1,0,0:0:0:0:
200,208,71564,1,0,0:0:0:0:
216,184,71650,1,0,0:0:0:0:
240,168,71736,2,0,B|296:136|312:80|264:32|320:40,1,140
191,73,72250,5,0,0:0:0:0:
80,229,72422,2,0,P|108:260|116:316,1,70
392,296,72764,2,0,P|366:265|357:228,1,70
220,128,73107,2,0,B|225:68|279:179|247:52|296:185|260:33|311:93|362:60,1,140
332,70,73622,1,0,0:0:0:0:
332,70,73964,5,0,0:0:0:0:
441,162,74136,2,0,P|433:209|444:244,1,70
309,199,74479,5,0,0:0:0:0:
309,199,74564,1,0,0:0:0:0:
309,199,74650,2,0,L|269:237,1,35
196,229,74907,2,0,L|161:182,1,52.5000020027161
59,202,75164,5,0,0:0:0:0:
192,59,75336,2,0,L|187:107,1,35
253,229,75507,2,0,L|256:179,1,35
330,61,75679,2,0,L|323:103,1,35
407,183,75850,5,0,0:0:0:0:
407,197,75936,1,0,0:0:0:0:
407,211,76022,1,0,0:0:0:0:
407,224,76107,1,0,0:0:0:0:
398,243,76193,1,0,0:0:0:0:
376,261,76279,1,0,0:0:0:0:
341,264,76364,1,0,0:0:0:0:
304,243,76450,1,0,0:0:0:0:
289,196,76536,5,0,0:0:0:0:
306,142,76622,1,0,0:0:0:0:
357,121,76707,1,0,0:0:0:0:
412,129,76793,1,0,0:0:0:0:
450,170,76879,1,0,0:0:0:0:
446,225,76964,1,0,0:0:0:0:
403,261,77050,2,0,L|356:262,1,35
284,297,77222,6,0,B|247:284|247:284|240:296|240:296|229:284|229:284|217:294|217:294|202:285|202:285|145:283,1,140
164,283,77736,1,0,0:0:0:0:
74,135,77907,6,0,P|84:180|66:217,1,70
275,125,78250,2,0,P|264:85|280:49,1,70
429,126,78593,6,0,B|451:162|451:162|417:168|417:168|452:179|452:179|415:190|415:190|438:201|438:201|443:265,1,210.000008010865
440,233,79107,1,0,0:0:0:0:
352,312,79450,1,0,0:0:0:0:
352,312,79622,2,0,L|242:311,1,105.000004005432
67,209,79964,6,0,B|103:190|103:190|111:217|111:217|132:190|132:190|144:214|144:214|176:201|233:206,1,210.000008010865
222,205,80479,1,0,0:0:0:0:
434,250,80650,2,0,P|382:268|361:322,1,105.000004005432
251,125,80993,2,0,P|314:101|328:53,1,105.000004005432
424,192,81336,5,0,0:0:0:0:
424,213,81422,1,0,0:0:0:0:
424,233,81507,1,0,0:0:0:0:
424,254,81593,1,0,0:0:0:0:
412,283,81679,1,0,0:0:0:0:
379,308,81764,1,0,0:0:0:0:
326,308,81850,1,0,0:0:0:0:
285,274,81936,1,0,0:0:0:0:
277,221,82022,5,0,0:0:0:0:
298,173,82107,1,0,0:0:0:0:
347,154,82193,1,0,0:0:0:0:
397,167,82279,1,0,0:0:0:0:
428,208,82364,1,0,0:0:0:0:
420,260,82450,1,0,0:0:0:0:
377,291,82536,1,0,0:0:0:0:
254,321,82707,6,0,B|227:307|227:307|200:328|200:328|172:307|172:307|143:328|143:328|118:309|118:309|62:322,1,210.000008010865
75,318,83222,1,0,0:0:0:0:
314,195,83393,2,0,P|263:214|209:196,1,105.000004005432
261,100,83736,2,0,P|323:81|366:97,1,105.000004005432
452,173,84079,2,0,B|436:212|436:212|462:233|462:233|440:260|440:260|458:278|458:278|442:311|442:311|447:352,1,210.000008010865
443,343,84593,1,0,0:0:0:0:
443,343,84936,5,0,0:0:0:0:
311,312,85107,2,0,P|287:263|303:203,1,105.000004005432
356,63,85450,2,0,P|382:118|353:183,1,105.000004005432
372,159,85793,1,0,0:0:0:0:
211,166,85964,1,0,0:0:0:0:
353,253,86136,6,0,L|339:310,1,52.5000020027161
234,305,86307,2,0,L|205:257,1,52.5000020027161
268,78,86479,2,0,B|285:113|285:113|255:145|255:145|280:185,1,105.000004005432
353,253,86822,6,0,L|394:293,3,52.5000020027161
297,288,87164,2,0,L|326:338,3,52.5000020027161
255,330,87507,5,0,0:0:0:0:
254,308,87593,1,0,0:0:0:0:
253,286,87679,1,0,0:0:0:0:
252,265,87764,1,0,0:0:0:0:
251,243,87850,1,0,0:0:0:0:
250,221,87936,1,0,0:0:0:0:
250,199,88022,1,0,0:0:0:0:
168,104,88193,6,0,B|128:128|128:128|160:136|160:136|136:160|136:160|328:208,1,280
424,232,88707,5,0,0:0:0:0:
424,232,88793,1,0,0:0:0:0:
424,232,88879,1,0,0:0:0:0:
304,200,89050,5,0,0:0:0:0:
424,232,89222,2,0,P|440:176|344:112,1,157.500006008148
352,104,89564,6,0,P|344:160|280:160,1,105.000004005432
303,171,89907,2,0,P|352:152|352:96,1,105.000004005432
264,64,90250,5,0,0:0:0:0:
232,80,90336,1,0,0:0:0:0:
224,112,90422,1,0,0:0:0:0:
240,144,90507,1,0,0:0:0:0:
272,160,90593,1,0,0:0:0:0:
376,184,90764,6,0,L|448:184,1,52.5000020027161
392,232,90936,2,0,B|376:256|376:256|408:272|408:272|376:288|376:288|392:312|392:368,1,157.500006008148
432,336,91279,2,0,P|464:288|440:224,1,105.000004005432
440,128,91622,6,0,L|440:72,1,52.5000020027161
376,144,91793,2,0,L|376:88,1,52.5000020027161
312,160,91964,2,0,L|312:96,1,52.5000020027161
248,176,92136,2,0,L|248:112,1,52.5000020027161
192,192,92307,6,0,P|160:232|208:280,1,105.000004005432
208,288,92564,1,0,0:0:0:0:
248,296,92650,1,0,0:0:0:0:
288,280,92736,1,0,0:0:0:0:
304,240,92822,1,0,0:0:0:0:
328,200,92907,1,0,0:0:0:0:
368,184,92993,6,0,P|432:200|456:256,1,105.000004005432
408,320,93336,1,0,0:0:0:0:
192,160,93507,1,0,0:0:0:0:
240,72,93679,6,0,B|296:72|296:72|288:96|288:96|320:88|320:88|312:112|312:112|392:112,1,210.000008010865
382,112,94193,1,0,0:0:0:0:
424,272,94364,2,0,P|368:304|320:272,1,105.000004005432
216,288,94707,2,0,B|256:256|256:256|208:232|208:232|264:144,1,210.000008010865
280,136,95136,1,0,0:0:0:0:
320,136,95222,1,0,0:0:0:0:
352,168,95307,1,0,0:0:0:0:
352,208,95393,1,0,0:0:0:0:
312,232,95479,1,0,0:0:0:0:
264,208,95564,1,0,0:0:0:0:
176,136,95736,5,0,0:0:0:0:
152,104,95822,1,0,0:0:0:0:
168,64,95907,1,0,0:0:0:0:
216,56,95993,1,0,0:0:0:0:
248,88,96079,1,0,0:0:0:0:
248,128,96164,1,0,0:0:0:0:
216,152,96250,1,0,0:0:0:0:
72,200,96422,6,0,L|88:160,1,26.2500010013581
224,64,96593,2,0,L|208:96,1,26.2500010013581
208,272,96764,2,0,L|232:232,1,26.2500010013581
384,128,96936,2,0,L|360:160,1,26.2500010013581
256,184,97107,5,0,0:0:0:0:
216,168,97193,1,0,0:0:0:0:
184,128,97279,1,0,0:0:0:0:
176,72,97364,1,0,0:0:0:0:
216,32,97450,1,0,0:0:0:0:
272,24,97536,1,0,0:0:0:0:
320,56,97622,1,0,0:0:0:0:
344,112,97707,1,0,0:0:0:0:
336,160,97793,2,0,P|312:192|320:240,1,70
344,312,98136,6,0,L|384:336,2,35
224,248,98479,5,0,0:0:0:0:
192,224,98564,1,0,0:0:0:0:
160,192,98650,1,0,0:0:0:0:
128,160,98736,1,0,0:0:0:0:
96,128,98822,1,0,0:0:0:0:
96,128,98993,1,0,0:0:0:0:
