osu file format v14

[General]
AudioFilename: audio.mp3
AudioLeadIn: 0
PreviewTime: 70722
Countdown: 0
SampleSet: Soft
StackLeniency: 0.5
Mode: 0
LetterboxInBreaks: 0
WidescreenStoryboard: 0

[Editor]
DistanceSpacing: 1
BeatDivisor: 4
GridSize: 4
TimelineZoom: 1.4

[Metadata]
Title:EXIST
TitleUnicode:EXIST
Artist:Shana (CV: Kugimiya Rie)
ArtistUnicode:シャナ (CV: 釘宮理恵)
Creator:Reiji Maigo
Version:Insane
Source:灼眼のシャナ
Tags:niii_san Mariko Sakuragi shakugan no shana character song PS2 video game op opening japanese Assorted Shana Vol. I
BeatmapID:2564893
BeatmapSetID:1233841

[Difficulty]
HPDrainRate:5
CircleSize:5
OverallDifficulty:7
ApproachRate:7
SliderMultiplier:1.6
SliderTickRate:2

[Events]
//Background and Video events
0,0,"exist.jpg",0,0
//Break Periods
2,177341,182728
//Storyboard Layer 0 (Background)
//Storyboard Layer 1 (Fail)
//Storyboard Layer 2 (Pass)
//Storyboard Layer 3 (Foreground)
//Storyboard Layer 4 (Overlay)
//Storyboard Sound Samples

[TimingPoints]
5250,405.405405405405,4,2,1,50,1,0
5250,-133.333333333333,4,2,1,50,0,0
19844,-117.647058823529,4,2,1,75,0,0
32817,-133.333333333333,4,2,1,60,0,0
59574,-133.333333333333,4,2,1,75,0,0
71736,-100,4,2,1,90,0,1
97682,-117.647058823529,4,2,1,75,0,0
112277,-133.333333333333,4,2,1,60,0,0
139033,-133.333333333333,4,2,1,75,0,0
151195,-100,4,2,1,90,0,1
177141,-133.333333333333,4,2,1,90,0,0
183628,-133.333333333333,4,2,1,50,0,0
188493,-133.333333333333,4,2,1,65,0,0
190114,-100,4,2,1,75,0,0
206736,-133.333333333333,4,2,1,50,0,0
212817,-133.333333333333,4,2,1,60,0,0
219304,-100,4,2,1,90,0,1
232277,-100,4,2,1,75,0,0

[Colours]
Combo1 : 242,77,89
Combo2 : 240,141,51
Combo3 : 238,99,241

[HitObjects]
152,132,6060,5,2,0:0:0:0:
152,132,6263,1,2,0:0:0:0:
152,132,6668,1,2,0:0:0:0:
152,132,6871,6,0,B|216:152|216:112|288:140,1,120.000004577637,0|0,0:1|0:0,0:0:0:0:
332,168,7479,1,2,0:0:0:0:
332,168,7682,2,0,L|332:228,1,60.0000022888184,10|0,0:1|0:0,0:0:0:0:
332,296,8087,1,2,0:0:0:0:
332,296,8493,6,0,P|300:304|252:284,1,60.0000022888184,10|2,0:1|0:0,0:0:0:0:
272,368,8898,2,0,P|240:358|208:317,1,60.0000022888184,0|2,0:0|0:0,0:0:0:0:
212,276,9304,2,0,L|212:208,1,60.0000022888184,2|0,0:0|0:0,0:0:0:0:
212,80,9912,1,2,0:0:0:0:
212,80,10114,6,0,L|88:80,1,120.000004577637,8|2,0:1|0:0,0:0:0:0:
212,148,10925,2,0,L|88:148,1,120.000004577637,10|2,0:1|0:0,0:0:0:0:
36,268,11736,1,2,0:0:0:0:
136,352,12141,1,2,0:0:0:0:
256,296,12547,1,2,0:0:0:0:
404,128,13358,6,0,P|344:116|268:132,1,120.000004577637,10|2,0:1|0:0,0:0:0:0:
272,192,13966,2,0,P|212:180|136:196,1,120.000004577637,2|2,0:0|0:0,0:0:0:0:
120,248,14574,1,2,0:0:0:0:
120,248,14777,2,0,L|40:248,1,60.0000022888184,2|8,0:0|0:1,0:0:0:0:
16,196,15182,2,0,P|60:156|76:84,1,120.000004577637,2|0,0:0|0:0,0:0:0:0:
48,40,15790,1,2,0:0:0:0:
176,4,16195,1,2,0:0:0:0:
256,124,16601,6,0,B|300:108|300:108|392:128,1,120.000004577637,10|2,0:1|0:0,0:0:0:0:
456,204,17209,2,0,B|412:188|412:188|320:208,1,120.000004577637,2|2,0:0|0:0,0:0:0:0:
272,332,18020,2,0,L|272:264,1,60.0000022888184,2|8,0:0|0:1,0:0:0:0:
272,212,18425,2,0,L|272:280,1,60.0000022888184,2|0,0:0|0:0,0:0:0:0:
212,272,18831,2,0,L|280:272,1,60.0000022888184,2|0,0:0|0:0,0:0:0:0:
332,272,19236,2,0,L|264:272,1,60.0000022888184,2|0,0:0|0:0,0:0:0:0:
272,272,19641,1,2,0:0:0:0:
272,272,19844,5,14,0:1:0:0:
148,356,20249,1,8,0:0:0:0:
20,276,20655,1,2,0:1:0:0:
20,200,20858,1,2,0:0:0:0:
20,124,21060,1,10,0:0:0:0:
20,124,21263,1,2,0:0:0:0:
20,124,21466,6,0,P|68:100|160:100,1,136.000002593994,10|8,0:1|0:0,0:0:0:0:
236,256,22277,1,10,0:1:0:0:
236,180,22480,1,2,0:0:0:0:
236,104,22682,1,10,0:0:0:0:
236,104,22885,1,2,0:0:0:0:
236,104,23088,6,0,P|284:80|376:80,1,136.000002593994,10|8,0:1|0:0,0:0:0:0:
488,156,23898,1,10,0:1:0:0:
488,188,23999,1,2,0:0:0:0:
488,220,24101,1,2,0:0:0:0:
444,280,24304,1,10,0:0:0:0:
376,252,24506,1,2,0:0:0:0:
324,308,24709,1,10,0:1:0:0:
252,284,24912,6,0,L|160:284,2,68.0000012969971,2|8|0,0:0|0:0|0:0,0:0:0:0:
304,228,25520,2,0,L|304:148,1,68.0000012969971,2|0,0:0|0:0,0:0:0:0:
268,96,25925,1,10,0:0:0:0:
196,116,26128,1,0,0:0:0:0:
140,68,26331,6,0,L|4:68,1,136.000002593994,8|8,0:1|0:0,0:0:0:0:
92,188,27141,1,10,0:1:0:0:
168,188,27344,1,2,0:0:0:0:
248,188,27546,1,10,0:0:0:0:
248,188,27749,1,2,0:0:0:0:
248,188,27952,6,0,P|272:140|272:48,1,136.000002593994,10|8,0:1|0:0,0:0:0:0:
342,317,28763,1,10,0:1:0:0:
266,317,28966,1,2,0:0:0:0:
194,317,29168,1,10,0:0:0:0:
194,317,29371,1,2,0:0:0:0:
194,317,29574,6,0,P|170:269|170:177,1,136.000002593994,10|8,0:1|0:0,0:0:0:0:
256,68,30385,1,10,0:1:0:0:
288,68,30486,1,2,0:0:0:0:
320,68,30587,1,2,0:0:0:0:
380,116,30790,1,10,0:0:0:0:
452,96,30993,1,2,0:0:0:0:
492,160,31195,5,10,0:1:0:0:
420,180,31398,2,0,L|420:328,1,136.000002593994,2|2,0:0|0:0,0:0:0:0:
356,356,32006,1,10,0:1:0:0:
339,344,32108,1,2,0:0:0:0:
321,334,32209,1,2,0:0:0:0:
301,327,32310,1,2,0:0:0:0:
281,324,32412,1,10,0:0:0:0:
261,321,32513,1,2,0:0:0:0:
241,321,32614,1,2,0:0:0:0:
220,322,32716,1,2,0:0:0:0:
200,326,32817,5,14,0:1:0:0:
100,252,33222,1,8,0:0:0:0:
100,252,33628,2,0,L|100:120,1,120.000004577637,10|10,0:1|0:0,0:0:0:0:
192,36,34439,1,10,0:1:0:0:
244,76,34641,1,0,0:0:0:0:
300,120,34844,1,10,0:0:0:0:
300,120,35047,2,0,L|420:120,1,120.000004577637,2|0,0:0|0:0,0:0:0:0:
468,164,35655,1,10,0:0:0:0:
420,212,35858,2,0,L|284:212,1,120.000004577637,2|2,0:0|0:0,0:0:0:0:
231,212,36466,2,0,P|216:269|229:326,4,120.000004577637,10|8|8|8|8,0:0|0:1|0:0|0:1|0:0,0:0:0:0:
328,120,38493,5,10,0:1:0:0:
268,88,38695,1,2,0:0:0:0:
208,120,38898,1,10,0:0:0:0:
152,88,39101,1,2,0:0:0:0:
152,88,39304,6,0,P|96:104|64:176,1,120.000004577637,8|8,0:1|0:0,0:0:0:0:
64,220,39912,1,2,0:0:0:0:
64,284,40114,2,0,P|94:334|151:350,1,120.000004577637,10|8,0:1|0:0,0:0:0:0:
216,340,40722,1,2,0:0:0:0:
216,272,40925,2,0,P|185:221|128:205,1,120.000004577637,10|8,0:1|0:0,0:0:0:0:
8,152,41736,2,0,L|8:72,1,60.0000022888184,10|0,0:1|0:0,0:0:0:0:
56,48,42141,2,0,B|104:68|104:68|180:48,1,120.000004577637,10|8,0:0|0:1,0:0:0:0:
240,44,42749,1,0,0:0:0:0:
240,44,42952,6,0,B|248:76|248:76|236:120,1,60.0000022888184,10|0,0:0|0:0,0:0:0:0:
176,124,43358,1,10,0:1:0:0:
176,152,43459,1,2,0:0:0:0:
176,180,43560,1,2,0:0:0:0:
220,228,43763,2,0,P|256:220|304:236,1,60.0000022888184,8|0,0:0|0:0,0:0:0:0:
328,268,44168,1,10,0:1:0:0:
347,274,44270,1,2,0:0:0:0:
367,276,44371,1,2,0:0:0:0:
387,274,44472,1,2,0:0:0:0:
407,268,44574,1,10,0:0:0:0:
425,257,44675,1,2,0:0:0:0:
439,241,44777,1,2,0:0:0:0:
449,222,44878,1,2,0:0:0:0:
452,201,44979,1,10,0:1:0:0:
436,132,45182,1,2,0:0:0:0:
436,132,45283,1,2,0:0:0:0:
436,132,45385,1,10,0:1:0:0:
372,96,45587,1,10,0:1:0:0:
348,96,45689,1,2,0:0:0:0:
324,96,45790,5,10,0:1:0:0:
76,216,46601,2,0,L|76:152,1,60.0000022888184,10|2,0:1|0:0,0:0:0:0:
96,92,47006,1,10,0:0:0:0:
160,72,47209,1,2,0:0:0:0:
212,116,47412,6,0,P|270:128|329:117,1,120.000004577637,10|10,0:1|0:0,0:0:0:0:
356,56,48020,2,0,P|414:43|473:54,1,120.000004577637,2|0,0:0|0:0,0:0:0:0:
512,108,48628,1,10,0:0:0:0:
460,152,48831,2,0,L|460:276,1,120.000004577637,2|2,0:0|0:0,0:0:0:0:
408,312,49439,2,0,P|349:299|291:313,4,120.000004577637,10|8|8|8|8,0:0|0:1|0:0|0:1|0:0,0:0:0:0:
492,208,51466,5,10,0:1:0:0:
432,232,51668,1,2,0:0:0:0:
380,192,51871,1,10,0:0:0:0:
388,128,52074,1,2,0:0:0:0:
388,128,52277,6,0,P|332:104|324:48,1,120.000004577637,8|8,0:1|0:0,0:0:0:0:
256,44,52885,1,2,0:0:0:0:
188,50,53087,2,0,P|177:107|124:128,1,120.000004577637,10|8,0:1|0:0,0:0:0:0:
104,192,53695,1,2,0:0:0:0:
124,255,53898,2,0,P|177:276|188:333,1,120.000004577637,10|8,0:1|0:0,0:0:0:0:
312,380,54709,2,0,L|312:244,1,120.000004577637,10|10,0:1|0:0,0:0:0:0:
376,232,55317,1,2,0:0:0:0:
376,232,55520,6,0,P|340:192|268:204,1,120.000004577637,8|10,0:1|0:0,0:0:0:0:
244,256,56128,1,0,0:0:0:0:
188,220,56331,1,10,0:1:0:0:
176,196,56432,1,2,0:0:0:0:
178,169,56533,1,2,0:0:0:0:
216,116,56736,1,8,0:0:0:0:
284,116,56939,1,2,0:0:0:0:
340,80,57141,5,8,0:1:0:0:
404,104,57344,2,0,B|380:140|380:140|392:232,1,120.000004577637,2|2,0:0|0:0,0:0:0:0:
412,280,57952,1,10,0:1:0:0:
391,284,58054,1,2,0:0:0:0:
370,289,58155,1,2,0:0:0:0:
352,299,58256,1,2,0:0:0:0:
336,312,58358,1,10,0:0:0:0:
318,322,58459,1,2,0:0:0:0:
300,332,58560,2,0,L|260:332,2,30.0000011444092,10|2|14,0:0|0:0|0:1,0:0:0:0:
56,252,59574,5,10,0:1:0:0:
36,188,59777,1,2,0:0:0:0:
60,128,59979,1,10,0:0:0:0:
124,108,60182,1,2,0:0:0:0:
184,132,60385,6,0,L|320:132,1,120.000004577637,10|10,0:1|0:0,0:0:0:0:
372,132,60993,2,0,L|372:56,1,60.0000022888184,2|8,0:0|0:1,0:0:0:0:
440,132,61398,2,0,L|440:204,1,60.0000022888184,2|8,0:0|0:0,0:0:0:0:
440,264,61804,1,2,0:0:0:0:
440,264,61905,1,2,0:0:0:0:
440,264,62006,6,0,P|384:264|324:308,1,120.000004577637,10|8,0:1|0:0,0:0:0:0:
276,188,62817,1,10,0:1:0:0:
276,188,62918,1,2,0:0:0:0:
276,188,63020,1,2,0:0:0:0:
224,228,63222,1,8,0:0:0:0:
160,212,63425,1,2,0:0:0:0:
100,240,63628,6,0,L|100:360,1,120.000004577637,10|10,0:1|0:0,0:0:0:0:
32,360,64236,2,0,L|32:240,1,120.000004577637,2|2,0:0|0:0,0:0:0:0:
32,172,64844,1,8,0:0:0:0:
92,132,65047,1,10,0:1:0:0:
92,132,65148,1,2,0:0:0:0:
92,132,65249,6,0,P|144:148|228:144,1,120.000004577637,14|8,0:1|0:0,0:0:0:0:
260,92,65858,1,2,0:0:0:0:
288,80,65959,1,2,0:0:0:0:
316,92,66060,1,10,0:1:0:0:
372,148,66263,1,2,0:0:0:0:
400,160,66364,1,2,0:0:0:0:
428,148,66465,1,10,0:0:0:0:
472,88,66668,6,0,L|472:8,1,60.0000022888184,2|8,0:0|0:1,0:0:0:0:
400,24,67074,2,0,L|400:104,1,60.0000022888184,10|8,0:1|0:1,0:0:0:0:
304,168,67479,1,10,0:1:0:0:
272,168,67581,1,2,0:0:0:0:
244,168,67682,1,10,0:1:0:0:
192,120,67885,2,0,L|108:120,2,60.0000022888184,10|8|10,0:1|0:0|0:1,0:0:0:0:
76,172,68493,5,10,0:1:0:0:
74,195,68594,1,2,0:0:0:0:
76,218,68695,1,2,0:0:0:0:
84,240,68797,1,2,0:0:0:0:
100,257,68898,1,10,0:0:0:0:
121,268,68999,1,2,0:0:0:0:
144,273,69101,1,2,0:0:0:0:
167,272,69202,1,2,0:0:0:0:
190,264,69304,1,10,0:1:0:0:
213,257,69405,1,8,0:1:0:0:
236,255,69506,1,8,0:1:0:0:
260,256,69608,1,8,0:1:0:0:
282,264,69709,1,10,0:0:0:0:
302,276,69810,1,10,0:1:0:0:
323,286,69912,1,10,0:1:0:0:
346,290,70013,1,10,0:1:0:0:
369,287,70114,6,0,L|411:287,1,30.0000011444092,8|2,3:1|0:0,0:0:0:0:
424,288,70317,2,0,L|457:263,1,30.0000011444092,8|2,3:1|0:0,0:0:0:0:
468,256,70520,2,0,L|480:216,1,30.0000011444092,8|2,3:1|0:0,0:0:0:0:
484,204,70722,2,0,L|471:164,1,30.0000011444092,8|2,3:1|0:0,0:0:0:0:
468,152,70925,1,2,0:0:0:0:
468,152,71128,1,2,0:0:0:0:
400,96,71533,1,2,0:0:0:0:
400,96,71635,1,2,0:0:0:0:
400,96,71736,6,0,P|356:104|304:84,1,80,14|2,0:1|0:0,0:0:0:0:
264,40,72141,1,10,0:0:0:0:
188,68,72344,1,2,0:0:0:0:
164,144,72547,1,10,0:1:0:0:
164,144,72648,1,0,0:0:0:0:
84,160,72851,1,0,0:0:0:0:
84,160,72952,1,10,0:0:0:0:
48,232,73155,1,0,0:0:0:0:
104,292,73358,6,0,P|176:256|268:268,1,160,10|8,0:1|0:0,0:0:0:0:
316,316,73966,1,2,0:0:0:0:
388,280,74168,1,10,0:1:0:0:
388,248,74270,1,2,0:0:0:0:
388,216,74371,1,2,0:0:0:0:
388,216,74574,1,8,0:0:0:0:
452,164,74777,6,0,P|384:124|316:188,1,160,2|2,0:0|0:0,0:0:0:0:
284,232,75385,1,10,0:0:0:0:
212,264,75587,1,2,0:0:0:0:
148,216,75790,1,10,0:1:0:0:
148,216,75891,1,0,0:0:0:0:
76,244,76094,1,0,0:0:0:0:
76,244,76195,1,10,0:0:0:0:
136,296,76398,1,0,0:0:0:0:
212,264,76601,5,10,0:1:0:0:
227,236,76702,1,2,0:0:0:0:
244,208,76804,1,2,0:0:0:0:
200,124,77006,1,10,0:0:0:0:
160,192,77209,1,2,0:0:0:0:
120,108,77412,1,10,0:1:0:0:
135,80,77513,1,2,0:0:0:0:
152,52,77615,1,2,0:0:0:0:
228,36,77817,1,10,0:0:0:0:
276,100,78020,1,0,3:0:0:0:
308,100,78121,1,0,3:0:0:0:
340,100,78222,6,0,L|500:100,1,160,14|8,0:1|0:0,0:0:0:0:
460,172,78831,2,0,L|460:252,1,80,2|8,0:0|0:1,0:0:0:0:
380,252,79236,2,0,L|380:160,1,80,2|8,0:0|0:0,0:0:0:0:
496,324,79641,6,0,L|336:324,1,160,2|2,0:0|0:0,0:0:0:0:
256,324,80249,2,0,P|244:288|264:228,1,80,10|0,0:0|0:0,0:0:0:0:
308,192,80655,1,10,0:1:0:0:
316,160,80756,1,2,0:0:0:0:
308,128,80858,1,2,0:0:0:0:
252,72,81060,2,0,P|208:80|152:60,1,80,10|0,0:0|0:0,0:0:0:0:
96,92,81466,6,0,B|96:172|96:172|188:172,1,160,10|8,0:1|0:0,0:0:0:0:
256,172,82074,2,0,B|255:252|255:252|176:252,1,160,2|2,0:0|0:0,0:0:0:0:
96,248,82682,2,0,L|96:344,1,80,10|0,0:0|0:0,0:0:0:0:
176,384,83087,5,14,0:1:0:0:
272,364,83290,1,8,0:1:0:0:
328,284,83493,1,8,0:1:0:0:
304,192,83695,1,8,0:1:0:0:
220,144,83898,1,10,0:1:0:0:
220,144,84101,2,0,L|140:144,1,80,2|10,0:0|0:0,0:0:0:0:
60,140,84506,1,0,3:0:0:0:
40,140,84608,1,0,3:0:0:0:
20,140,84709,6,0,P|8:96|32:48,1,80,14|2,0:1|0:0,0:0:0:0:
84,20,85114,1,10,0:0:0:0:
160,48,85317,1,2,0:0:0:0:
240,32,85520,1,10,0:1:0:0:
240,32,85621,1,0,0:0:0:0:
296,96,85824,1,0,0:0:0:0:
296,96,85925,1,10,0:0:0:0:
376,96,86128,1,0,0:0:0:0:
424,160,86331,6,0,L|424:320,1,160,10|8,0:1|0:0,0:0:0:0:
364,372,86939,1,2,0:0:0:0:
304,320,87141,1,10,0:1:0:0:
272,320,87243,1,2,0:0:0:0:
240,320,87344,1,2,0:0:0:0:
160,320,87547,1,10,0:0:0:0:
80,320,87749,1,2,0:0:0:0:
80,320,87851,1,2,0:0:0:0:
80,320,87952,6,0,P|56:268|88:156,1,160,10|8,0:1|0:0,0:0:0:0:
196,64,88763,2,0,P|220:116|188:228,1,160,10|8,0:1|0:0,0:0:0:0:
280,352,89574,6,0,L|448:352,1,160,10|8,0:1|0:0,0:0:0:0:
440,272,90182,2,0,L|272:272,1,160,2|2,0:0|0:0,0:0:0:0:
208,312,90790,1,10,0:0:0:0:
148,276,90993,1,8,0:0:0:0:
148,276,91094,1,10,0:1:0:0:
148,276,91195,6,0,L|148:196,1,80,14|0,0:1|0:0,0:0:0:0:
288,168,91601,1,10,0:0:0:0:
228,116,91804,2,0,L|228:24,1,80,2|8,0:0|0:1,0:0:0:0:
148,36,92209,2,0,L|148:128,1,80,2|8,0:0|0:0,0:0:0:0:
68,116,92614,2,0,L|68:204,1,80,2|8,0:0|0:1,0:0:0:0:
64,276,93020,1,2,0:0:0:0:
64,276,93222,2,0,L|156:276,1,80,8|0,0:0|0:0,0:0:0:0:
224,276,93628,5,10,0:1:0:0:
240,304,93729,1,2,0:0:0:0:
256,276,93831,1,2,0:0:0:0:
328,240,94033,1,10,0:0:0:0:
355,256,94134,1,2,0:0:0:0:
355,224,94236,1,2,0:0:0:0:
304,164,94439,6,0,L|204:164,1,80,10|0,0:1|0:0,0:0:0:0:
188,60,94844,1,10,0:0:0:0:
132,116,95047,2,0,L|44:116,1,80,2|8,0:0|0:1,0:0:0:0:
56,196,95452,1,2,0:0:0:0:
88,196,95554,1,2,0:0:0:0:
120,196,95655,1,10,0:0:0:0:
168,260,95858,5,2,0:0:0:0:
168,260,96060,2,0,L|216:260,1,40,10|0,0:0|3:0,0:0:0:0:
264,324,96263,1,2,0:0:0:0:
264,324,96466,2,0,L|294:272,1,40,10|0,0:0|3:0,0:0:0:0:
268,212,96668,1,2,0:0:0:0:
192,180,96871,5,10,0:1:0:0:
180,100,97074,1,10,0:1:0:0:
232,36,97277,1,2,3:2:0:0:
260,36,97378,1,2,3:2:0:0:
288,36,97479,1,2,3:2:0:0:
316,36,97581,1,2,3:2:0:0:
344,36,97682,6,0,L|344:188,1,136.000002593994,12|8,0:1|0:0,0:0:0:0:
476,240,98493,1,2,0:1:0:0:
436,304,98695,1,2,0:0:0:0:
392,364,98898,1,10,0:0:0:0:
392,364,99101,1,2,0:0:0:0:
392,364,99304,6,0,P|327:349|261:362,1,136.000002593994,10|8,0:1|0:0,0:0:0:0:
136,280,100114,1,10,0:1:0:0:
176,216,100316,1,2,0:0:0:0:
220,156,100519,1,10,0:0:0:0:
220,156,100722,1,2,0:0:0:0:
220,156,100925,6,0,P|285:171|351:158,1,136.000002593994,10|8,0:1|0:0,0:0:0:0:
432,32,101736,1,10,0:1:0:0:
404,32,101837,1,2,0:0:0:0:
376,32,101939,1,2,0:0:0:0:
312,72,102141,1,10,0:0:0:0:
248,32,102344,1,2,0:0:0:0:
184,72,102547,1,10,0:1:0:0:
112,60,102749,6,0,L|112:204,1,136.000002593994,2|2,0:0|0:0,0:0:0:0:
112,276,103358,1,10,0:1:0:0:
112,276,103459,1,2,0:0:0:0:
112,276,103560,1,2,0:0:0:0:
176,236,103763,2,0,L|252:236,2,68.0000012969971,10|2|8,0:0|0:0|0:1,0:0:0:0:
48,316,104574,1,8,0:0:0:0:
12,172,104979,5,10,0:1:0:0:
84,184,105182,1,2,0:0:0:0:
136,128,105385,1,10,0:0:0:0:
136,128,105587,1,2,0:0:0:0:
136,128,105790,6,0,P|200:108|264:126,1,136.000002593994,10|8,0:1|0:0,0:0:0:0:
388,264,106601,1,10,0:1:0:0:
316,276,106804,1,2,0:0:0:0:
264,220,107007,1,10,0:0:0:0:
264,220,107209,1,2,0:0:0:0:
264,220,107412,6,0,P|199:199|135:217,1,136.000002593994,10|8,0:1|0:0,0:0:0:0:
32,324,108222,1,10,0:1:0:0:
56,340,108324,1,2,0:0:0:0:
84,340,108425,1,2,0:0:0:0:
144,296,108628,1,10,0:0:0:0:
216,316,108831,1,2,0:0:0:0:
268,264,109033,1,10,0:1:0:0:
296,264,109135,1,2,0:0:0:0:
324,264,109236,2,0,L|396:264,2,68.0000012969971,2|8|2,0:0|0:0|0:0,0:0:0:0:
300,192,109844,5,2,0:0:0:0:
280,192,109945,1,2,0:0:0:0:
260,192,110047,1,2,0:0:0:0:
240,192,110148,1,2,0:0:0:0:
220,192,110249,1,10,0:0:0:0:
200,192,110351,1,2,0:0:0:0:
180,192,110452,1,2,0:0:0:0:
160,192,110554,1,2,0:0:0:0:
140,192,110655,5,10,0:1:0:0:
72,160,110858,1,2,0:0:0:0:
100,100,111060,1,2,3:2:0:0:
100,100,111162,1,2,0:0:0:0:
100,100,111263,1,2,0:0:0:0:
100,100,111364,1,2,0:0:0:0:
100,100,111466,1,10,0:1:0:0:
172,108,111668,1,2,3:2:0:0:
220,52,111871,1,2,3:2:0:0:
240,52,111972,1,2,3:2:0:0:
260,52,112074,1,2,3:2:0:0:
280,52,112175,1,2,3:2:0:0:
300,52,112277,5,14,3:1:0:0:
408,120,112682,1,8,0:0:0:0:
408,120,113087,2,0,L|408:200,1,60.0000022888184,10|2,0:1|0:0,0:0:0:0:
384,244,113493,1,10,0:0:0:0:
324,268,113695,1,2,0:0:0:0:
263,235,113898,6,0,P|206:219|149:233,1,120.000004577637,10|10,0:1|0:0,0:0:0:0:
84,232,114506,2,0,P|67:174|81:117,1,120.000004577637,2|0,0:0|0:0,0:0:0:0:
136,80,115114,1,10,0:0:0:0:
192,116,115317,2,0,P|249:99|306:113,1,120.000004577637,2|2,0:0|0:0,0:0:0:0:
332,176,115925,2,0,P|389:192|446:178,4,120.000004577637,10|8|8|8|8,0:0|0:1|0:0|0:1|0:0,0:0:0:0:
268,60,117952,5,10,0:1:0:0:
244,60,118054,1,2,0:0:0:0:
220,60,118155,1,2,0:0:0:0:
168,20,118358,1,8,0:0:0:0:
116,60,118560,1,2,0:0:0:0:
116,60,118763,6,0,L|116:196,1,120.000004577637,8|8,0:1|0:0,0:0:0:0:
116,248,119371,1,2,0:0:0:0:
184,248,119574,2,0,L|184:112,1,120.000004577637,10|8,0:1|0:0,0:0:0:0:
184,60,120182,1,2,0:0:0:0:
244,96,120385,2,0,L|388:96,1,120.000004577637,10|8,0:1|0:0,0:0:0:0:
460,188,121195,1,10,0:1:0:0:
460,188,121297,1,2,0:0:0:0:
460,188,121398,1,2,0:0:0:0:
388,180,121601,2,0,P|344:196|340:276,1,120.000004577637,10|8,0:0|0:1,0:0:0:0:
388,304,122209,1,2,0:0:0:0:
388,304,122412,6,0,L|388:368,1,60.0000022888184,10|0,0:0|0:0,0:0:0:0:
324,380,122817,1,10,0:1:0:0:
304,366,122918,1,2,0:0:0:0:
280,360,123020,1,2,0:0:0:0:
212,360,123222,2,0,P|204:328|216:280,1,60.0000022888184,8|0,0:0|0:0,0:0:0:0:
268,268,123628,1,10,0:1:0:0:
279,251,123729,1,2,0:0:0:0:
285,232,123831,1,2,0:0:0:0:
287,212,123932,1,2,0:0:0:0:
282,192,124033,1,10,0:0:0:0:
272,174,124135,1,2,0:0:0:0:
256,161,124236,1,2,0:0:0:0:
237,153,124337,1,2,0:0:0:0:
217,153,124439,1,10,0:1:0:0:
148,172,124641,1,2,0:0:0:0:
148,172,124743,1,2,0:0:0:0:
148,172,124844,1,10,0:1:0:0:
96,224,125047,1,10,0:1:0:0:
96,248,125148,1,2,0:0:0:0:
96,272,125249,5,10,0:1:0:0:
348,352,126060,1,10,0:1:0:0:
408,316,126263,1,2,0:0:0:0:
408,316,126364,1,2,0:0:0:0:
408,316,126466,2,0,L|408:240,1,60.0000022888184,10|0,0:0|0:0,0:0:0:0:
472,228,126871,6,0,P|444:196|360:204,1,120.000004577637,10|10,0:1|0:0,0:0:0:0:
340,256,127479,2,0,P|312:288|228:280,1,120.000004577637,2|0,0:0|0:0,0:0:0:0:
192,240,128087,1,8,0:0:0:0:
220,180,128290,2,0,P|263:141|321:147,1,120.000004577637,2|2,0:0|0:0,0:0:0:0:
370,196,128898,2,0,L|494:196,4,120.000004577637,10|8|8|8|8,0:0|0:1|0:0|0:1|0:0,0:0:0:0:
320,72,130925,5,10,0:1:0:0:
292,80,131027,1,2,0:0:0:0:
268,72,131128,1,2,0:0:0:0:
224,20,131331,1,10,0:0:0:0:
160,40,131533,1,2,0:0:0:0:
160,40,131736,6,8,P|128:88|156:160,1,120.000004577637,8|8,0:1|0:0,0:1:0:0:
208,152,132344,1,2,0:0:0:0:
276,152,132547,2,0,P|308:200|280:272,1,120.000004577637,10|8,0:1|0:0,0:0:0:0:
240,296,133155,1,2,0:0:0:0:
240,296,133358,2,0,L|108:296,1,120.000004577637,10|8,0:1|0:0,0:0:0:0:
36,192,134168,2,0,B|44:160|44:160|36:132,1,60.0000022888184,10|0,0:1|0:0,0:0:0:0:
52,68,134574,6,0,B|96:84|96:84|184:64,1,120.000004577637,10|8,0:0|0:1,0:0:0:0:
204,132,135182,1,2,0:0:0:0:
204,132,135385,2,0,L|128:148,1,60.0000022888184,10|0,0:0|0:0,0:0:0:0:
80,160,135790,1,10,0:1:0:0:
76,184,135891,1,2,0:0:0:0:
80,208,135993,1,2,0:0:0:0:
136,244,136195,2,0,P|140:284|128:316,1,60.0000022888184,8|2,0:0|0:0,0:0:0:0:
92,352,136601,5,8,0:1:0:0:
156,372,136804,2,0,B|200:352|200:352|280:376,1,120.000004577637,2|2,0:0|0:0,0:0:0:0:
336,372,137412,1,10,0:1:0:0:
356,369,137513,1,2,0:0:0:0:
375,362,137614,1,2,0:0:0:0:
393,350,137716,1,2,0:0:0:0:
408,336,137817,1,10,0:0:0:0:
421,319,137918,1,2,0:0:0:0:
431,300,138020,2,0,P|435:274|434:254,2,30.0000011444092,10|2|14,0:0|0:0|0:1,0:0:0:0:
500,44,139033,5,10,0:1:0:0:
448,84,139236,1,2,0:0:0:0:
384,92,139439,1,10,0:0:0:0:
320,76,139641,1,2,0:0:0:0:
272,28,139844,6,0,L|148:28,1,120.000004577637,10|10,0:1|0:0,0:0:0:0:
84,24,140452,2,0,L|84:100,1,60.0000022888184,2|8,0:0|0:1,0:0:0:0:
16,84,140858,2,0,L|16:156,1,60.0000022888184,2|8,0:0|0:0,0:0:0:0:
16,212,141263,1,2,0:0:0:0:
64,260,141466,5,10,0:1:0:0:
88,260,141567,1,2,0:0:0:0:
112,260,141668,1,2,0:0:0:0:
160,212,141871,1,8,0:0:0:0:
224,232,142074,1,2,0:0:0:0:
276,192,142277,1,10,0:1:0:0:
300,192,142378,1,2,0:0:0:0:
324,192,142479,1,2,0:0:0:0:
384,160,142682,1,10,0:0:0:0:
408,100,142885,1,2,0:0:0:0:
380,40,143087,6,0,P|332:56|236:56,1,120.000004577637,10|10,0:1|0:0,0:0:0:0:
208,24,143695,1,2,0:0:0:0:
148,56,143898,1,10,0:1:0:0:
140,79,143999,1,2,0:0:0:0:
145,103,144101,1,2,0:0:0:0:
196,144,144304,1,10,0:0:0:0:
264,128,144506,1,10,0:1:0:0:
264,128,144608,1,2,0:0:0:0:
264,128,144709,6,0,L|400:128,1,120.000004577637,14|8,0:1|0:0,0:0:0:0:
452,128,145317,1,2,0:0:0:0:
452,152,145418,1,2,0:0:0:0:
452,176,145520,1,10,0:1:0:0:
384,248,145722,1,2,0:0:0:0:
384,224,145823,1,2,0:0:0:0:
384,200,145925,1,10,0:0:0:0:
316,272,146128,6,0,L|316:340,1,60.0000022888184,2|8,0:0|0:1,0:0:0:0:
248,248,146533,2,0,L|248:180,1,60.0000022888184,10|8,0:1|0:1,0:0:0:0:
384,152,146939,1,10,0:1:0:0:
384,176,147040,1,2,0:0:0:0:
384,200,147141,1,10,0:1:0:0:
316,116,147344,2,0,L|316:48,2,60.0000022888184,10|8|10,0:1|0:0|0:1,0:0:0:0:
268,172,147952,5,10,0:1:0:0:
251,184,148054,1,2,0:0:0:0:
231,192,148155,1,2,0:0:0:0:
210,196,148256,1,2,0:0:0:0:
188,196,148358,1,10,0:0:0:0:
167,192,148459,1,2,0:0:0:0:
148,182,148560,1,2,0:0:0:0:
127,178,148662,1,2,0:0:0:0:
106,178,148763,1,10,0:1:0:0:
85,183,148864,1,8,0:1:0:0:
67,195,148966,1,8,0:1:0:0:
52,209,149067,1,8,0:1:0:0:
45,229,149168,1,10,0:0:0:0:
42,250,149270,1,10,0:1:0:0:
44,270,149371,1,10,0:1:0:0:
52,289,149472,1,10,0:1:0:0:
64,306,149574,6,0,L|99:338,1,30.0000011444092,8|2,3:1|0:0,0:0:0:0:
108,326,149777,2,0,L|143:294,1,30.0000011444092,8|2,3:1|0:0,0:0:0:0:
152,306,149979,2,0,L|187:338,1,30.0000011444092,8|2,3:1|0:0,0:0:0:0:
196,326,150182,2,0,L|231:294,1,30.0000011444092,8|2,3:1|0:0,0:0:0:0:
240,290,150385,1,2,0:0:0:0:
240,290,150587,1,2,0:0:0:0:
348,380,150993,1,2,0:0:0:0:
348,380,151094,1,2,0:0:0:0:
348,380,151195,6,0,L|440:380,1,80,14|2,0:1|0:0,0:0:0:0:
496,340,151601,1,10,0:0:0:0:
488,260,151804,1,2,0:0:0:0:
416,240,152006,1,10,0:1:0:0:
416,240,152108,1,0,0:0:0:0:
372,180,152310,1,0,0:0:0:0:
372,180,152412,1,10,0:0:0:0:
408,108,152614,1,0,0:0:0:0:
348,56,152817,6,0,P|276:68|176:48,1,160,10|8,0:1|0:0,0:0:0:0:
128,4,153425,1,2,0:0:0:0:
68,60,153628,1,10,0:1:0:0:
68,88,153729,1,2,0:0:0:0:
68,116,153831,1,2,0:0:0:0:
68,116,154033,1,8,0:0:0:0:
3,163,154236,6,0,P|68:203|133:164,1,160,2|2,0:0|0:0,0:0:0:0:
208,136,154844,1,10,0:0:0:0:
268,188,155047,1,2,0:0:0:0:
228,256,155249,1,10,0:1:0:0:
228,256,155351,1,0,0:0:0:0:
276,324,155554,1,0,0:0:0:0:
276,324,155655,1,10,0:0:0:0:
356,324,155858,1,0,0:0:0:0:
412,264,156060,5,10,0:1:0:0:
424,232,156162,1,2,0:0:0:0:
412,200,156263,1,2,0:0:0:0:
340,168,156466,1,10,0:0:0:0:
272,208,156668,1,2,0:0:0:0:
200,176,156871,1,10,0:1:0:0:
188,144,156973,1,2,0:0:0:0:
200,112,157074,1,2,0:0:0:0:
268,72,157277,1,10,0:0:0:0:
216,12,157479,1,0,3:0:0:0:
184,12,157581,1,0,3:0:0:0:
152,12,157682,6,0,P|76:36|36:108,1,160,14|8,0:1|0:0,0:0:0:0:
44,180,158290,2,0,L|132:180,1,80,2|8,0:0|0:1,0:0:0:0:
124,260,158695,2,0,L|44:260,1,80,2|8,0:0|0:0,0:0:0:0:
216,296,159101,6,0,P|199:218|214:139,1,160,2|0,0:0|0:0,0:0:0:0:
264,80,159709,2,0,L|352:80,1,80,10|0,0:0|0:0,0:0:0:0:
424,80,160114,1,10,0:1:0:0:
424,48,160216,1,2,0:0:0:0:
424,16,160317,1,2,0:0:0:0:
504,16,160520,2,0,L|504:104,1,80,10|0,0:0|0:0,0:0:0:0:
504,176,160925,6,0,B|424:176|424:176|424:272,1,160,10|8,0:1|0:0,0:0:0:0:
344,256,161533,2,0,B|344:176|344:176|264:176,1,160,2|2,0:0|0:0,0:0:0:0:
184,176,162141,2,0,L|184:92,1,80,10|0,0:0|0:0,0:0:0:0:
100,36,162547,5,14,0:1:0:0:
100,116,162749,1,8,0:1:0:0:
100,196,162952,1,8,0:1:0:0:
100,276,163155,1,8,0:1:0:0:
100,356,163358,1,10,0:1:0:0:
100,356,163560,2,0,L|180:356,1,80,2|10,0:0|0:0,0:0:0:0:
260,356,163966,1,0,3:0:0:0:
280,356,164067,1,0,3:0:0:0:
300,356,164168,6,0,P|312:312|296:268,1,80,14|2,0:1|0:0,0:0:0:0:
248,224,164574,1,10,0:0:0:0:
172,252,164777,1,2,0:0:0:0:
104,208,164979,1,10,0:1:0:0:
104,208,165081,1,0,0:0:0:0:
108,128,165283,1,0,0:0:0:0:
108,128,165385,1,10,0:0:0:0:
172,80,165587,1,0,0:0:0:0:
240,124,165790,5,10,0:1:0:0:
272,124,165891,1,2,0:0:0:0:
304,124,165993,1,2,0:0:0:0:
384,124,166195,1,10,0:0:0:0:
464,124,166398,1,2,0:0:0:0:
464,204,166601,1,10,0:1:0:0:
464,236,166702,1,2,0:0:0:0:
464,268,166804,1,2,0:0:0:0:
464,348,167006,1,10,0:0:0:0:
384,348,167209,1,2,0:0:0:0:
384,348,167310,1,2,0:0:0:0:
384,348,167412,6,0,P|320:300|220:300,1,160,10|8,0:1|0:0,0:0:0:0:
108,208,168222,2,0,P|172:160|272:160,1,160,10|8,0:1|0:0,0:0:0:0:
408,176,169033,6,0,L|408:12,1,160,10|8,0:1|0:0,0:0:0:0:
328,16,169641,2,0,L|328:180,1,160,2|2,0:0|0:0,0:0:0:0:
328,256,170249,1,10,0:0:0:0:
260,300,170452,1,8,0:0:0:0:
260,300,170554,1,10,0:1:0:0:
260,300,170655,6,0,P|216:308|168:296,1,80,14|0,0:1|0:0,0:0:0:0:
112,164,171060,1,10,0:0:0:0:
72,232,171263,2,0,P|116:240|164:228,1,80,2|8,0:0|0:1,0:0:0:0:
192,168,171668,2,0,L|192:76,1,80,2|8,0:0|0:0,0:0:0:0:
112,92,172074,2,0,L|112:4,1,80,2|8,0:0|0:1,0:0:0:0:
32,12,172479,1,2,0:0:0:0:
32,12,172682,2,0,L|32:96,1,80,8|0,0:0|0:0,0:0:0:0:
32,172,173087,5,10,0:1:0:0:
32,204,173189,1,2,0:0:0:0:
60,188,173290,1,2,0:0:0:0:
88,264,173493,1,10,0:0:0:0:
115,280,173595,1,2,0:0:0:0:
115,247,173696,1,2,0:0:0:0:
140,172,173898,6,0,L|140:92,1,80,10|0,0:1|0:0,0:0:0:0:
208,48,174304,1,10,0:0:0:0:
272,172,174506,2,0,L|272:92,1,80,2|8,0:0|0:1,0:0:0:0:
352,172,174912,1,2,0:0:0:0:
352,140,175013,1,2,0:0:0:0:
352,108,175114,1,10,0:0:0:0:
432,92,175317,5,2,0:0:0:0:
432,92,175520,2,0,L|432:148,1,40,10|0,0:0|3:0,0:0:0:0:
500,180,175722,1,2,0:0:0:0:
500,180,175925,2,0,L|500:228,1,40,10|0,0:0|3:0,0:0:0:0:
500,300,176128,1,2,0:0:0:0:
428,336,176331,5,10,0:1:0:0:
356,300,176533,1,10,0:1:0:0:
360,220,176736,1,2,3:2:0:0:
344,196,176837,1,2,3:2:0:0:
319,182,176939,1,2,3:2:0:0:
291,176,177040,1,2,3:2:0:0:
264,183,177141,5,14,0:1:0:0:
264,176,183628,6,0,L|128:176,1,120.000004577637,10|10,0:1|0:1,0:0:0:0:
144,176,184236,1,2,0:0:0:0:
80,176,184439,1,10,0:1:0:0:
80,176,184540,1,2,0:0:0:0:
80,176,184641,1,2,0:0:0:0:
18,212,184844,1,10,0:1:0:0:
18,212,185047,1,2,0:0:0:0:
24,284,185249,5,10,0:1:0:0:
24,284,185351,1,2,0:0:0:0:
24,284,185452,1,2,0:0:0:0:
88,311,185655,1,10,0:1:0:0:
88,311,185858,1,2,0:0:0:0:
147,270,186060,1,10,0:1:0:0:
147,270,186162,1,2,0:0:0:0:
147,270,186263,1,2,0:0:0:0:
215,273,186466,1,10,0:1:0:0:
215,273,186668,1,2,0:0:0:0:
236,208,186871,6,0,B|268:216|268:216|304:204,1,60.0000022888184,10|0,0:1|0:0,0:0:0:0:
344,164,187277,1,10,0:1:0:0:
344,164,187479,1,2,0:0:0:0:
288,124,187682,1,10,0:1:0:0:
283,104,187783,1,2,0:0:0:0:
289,82,187885,1,2,0:0:0:0:
332,32,188087,2,0,B|356:32|356:32|368:28|368:28|392:28,1,60.0000022888184,10|0,0:1|0:0,0:0:0:0:
464,40,188493,6,0,L|456:148,1,90.0000034332277,10|2,0:1|0:0,0:0:0:0:
500,188,188999,2,0,L|508:272,1,60.0000022888184,10|2,0:1|0:0,0:0:0:0:
476,324,189405,1,2,0:0:0:0:
464,316,189506,1,2,0:0:0:0:
452,324,189608,1,2,0:0:0:0:
440,316,189709,1,2,0:0:0:0:
432,328,189810,1,2,0:0:0:0:
425,316,189912,1,2,0:0:0:0:
416,328,190013,1,2,0:0:0:0:
404,320,190114,6,0,P|328:312|268:248,3,160,14|8|8|8,0:1|0:0|0:1|0:0,0:0:0:0:
304,192,191533,1,2,0:0:0:0:
360,148,191736,5,10,0:1:0:0:
360,148,191837,1,0,0:0:0:0:
292,124,192040,1,2,0:0:0:0:
292,124,192141,1,8,0:0:0:0:
232,164,192344,1,2,0:0:0:0:
160,164,192547,1,10,0:1:0:0:
140,164,192648,1,2,0:0:0:0:
120,164,192749,1,2,0:0:0:0:
100,164,192851,1,2,0:0:0:0:
80,164,192952,2,0,P|48:132|40:92,1,80,10|0,0:0|0:0,0:0:0:0:
40,28,193358,5,10,0:1:0:0:
116,12,193560,1,2,0:0:0:0:
116,12,193662,1,2,0:0:0:0:
116,12,193763,2,0,L|196:12,1,80,10|0,0:0|0:0,0:0:0:0:
268,16,194168,1,10,0:1:0:0:
281,30,194270,1,2,0:0:0:0:
299,38,194371,1,2,0:0:0:0:
317,30,194472,1,2,0:0:0:0:
331,16,194574,1,10,0:0:0:0:
331,16,194777,1,2,0:0:0:0:
388,56,194979,6,0,L|388:224,1,160,10|8,0:1|0:0,0:0:0:0:
316,268,195587,2,0,L|316:100,1,160,2|2,0:0|0:0,0:0:0:0:
316,36,196195,1,8,0:0:0:0:
248,12,196398,1,10,0:0:0:0:
220,12,196499,1,10,0:0:0:0:
192,12,196601,6,0,P|152:16|104:48,1,80,14|0,0:1|0:0,0:0:0:0:
96,56,196905,1,2,0:0:0:0:
96,56,197006,2,0,L|96:148,1,80,10|0,0:0|0:0,0:0:0:0:
96,208,197412,1,10,0:1:0:0:
96,236,197513,1,2,0:0:0:0:
96,264,197614,1,2,0:0:0:0:
96,336,197817,1,10,0:0:0:0:
120,324,197918,1,2,0:0:0:0:
144,336,198020,1,2,0:0:0:0:
168,324,198121,1,2,0:0:0:0:
192,336,198222,6,0,L|244:336,1,40,10|0,0:1|0:0,0:0:0:0:
260,336,198425,1,2,0:0:0:0:
288,336,198527,1,2,0:0:0:0:
316,336,198628,2,0,L|368:336,1,40,10|0,0:0|0:0,0:0:0:0:
388,336,198831,1,2,0:0:0:0:
416,336,198932,2,0,P|464:280|464:224,1,120,2|2,0:0|0:0,0:0:0:0:
412,192,199439,1,8,0:0:0:0:
244,84,199844,6,0,L|232:184,1,80,14|0,0:1|0:0,0:0:0:0:
296,204,200249,2,0,L|308:268,1,53.3333333333333,10|0,0:0|0:0,0:0:0:0:
288,300,200520,1,2,0:0:0:0:
256,336,200655,2,0,L|192:348,1,53.3333333333333,10|0,0:1|0:0,0:0:0:0:
168,376,200925,1,2,0:0:0:0:
124,356,201060,2,0,L|112:292,1,53.3333333333333,10|0,0:0|0:0,0:0:0:0:
104,256,201331,1,2,0:0:0:0:
124,212,201466,6,0,P|200:196|256:120,1,160,10|8,0:1|0:0,0:0:0:0:
260,64,202074,1,2,0:0:0:0:
260,64,202175,1,2,0:0:0:0:
260,64,202277,2,0,L|356:64,1,80,10|2,0:1|0:0,0:0:0:0:
412,64,202682,1,8,0:0:0:0:
484,64,202885,1,8,0:0:0:0:
484,92,202986,1,8,0:0:0:0:
484,120,203087,6,0,L|484:280,1,160,14|8,0:1|0:0,0:0:0:0:
340,212,203898,1,10,0:1:0:0:
316,224,203999,1,2,0:0:0:0:
292,212,204101,1,2,0:0:0:0:
268,224,204202,1,2,0:0:0:0:
244,212,204303,1,10,0:0:0:0:
220,224,204405,1,2,0:0:0:0:
196,212,204506,1,2,0:0:0:0:
172,224,204608,1,2,0:0:0:0:
148,212,204709,6,0,L|148:168,2,40,8|8|0,0:0|0:0|0:0,0:0:0:0:
220,144,205114,2,0,L|220:100,2,40,8|8|0,0:0|0:0|0:0,0:0:0:0:
284,196,205520,1,10,0:1:0:0:
284,196,205722,1,10,0:1:0:0:
336,136,205925,1,10,0:0:0:0:
364,136,206027,1,8,0:0:0:0:
392,136,206128,1,10,0:0:0:0:
420,136,206229,1,8,0:0:0:0:
448,136,206331,5,12,0:1:0:0:
504,256,206736,1,2,0:0:0:0:
412,352,207141,1,2,0:0:0:0:
288,304,207547,1,2,0:0:0:0:
172,360,207952,5,10,0:1:0:0:
172,360,208155,2,0,L|164:292,1,60.0000022888184,2|2,0:0|0:0,0:0:0:0:
228,276,208560,2,0,L|236:140,1,120.000004577637,2|0,0:0|0:0,0:0:0:0:
244,28,209371,5,2,0:0:0:0:
244,28,209574,1,10,0:1:0:0:
112,40,209979,1,2,0:0:0:0:
36,148,210385,1,2,0:0:0:0:
56,280,210790,1,2,0:0:0:0:
168,352,211195,5,10,0:1:0:0:
168,352,211398,2,0,L|236:344,1,60.0000022888184,2|0,0:0|0:0,0:0:0:0:
252,284,211804,1,2,0:0:0:0:
252,284,212006,2,0,L|320:292,1,60.0000022888184,2|0,0:0|0:0,0:0:0:0:
376,300,212412,1,10,0:1:0:0:
488,228,212817,6,0,P|500:168|488:92,1,120.000004577637,14|2,0:1|0:0,0:0:0:0:
456,56,213425,1,2,0:0:0:0:
392,44,213628,1,2,0:0:0:0:
392,44,213729,1,2,0:0:0:0:
392,44,213831,1,2,0:0:0:0:
344,88,214033,1,2,0:0:0:0:
280,68,214236,1,2,0:0:0:0:
280,68,214337,1,2,0:0:0:0:
280,68,214439,6,0,L|200:68,1,60.0000022888184,10|0,0:1|0:0,0:0:0:0:
152,68,214844,1,2,0:0:0:0:
152,68,215047,1,2,0:0:0:0:
84,68,215249,1,2,0:0:0:0:
84,68,215351,1,2,0:0:0:0:
84,68,215452,1,2,0:0:0:0:
28,104,215655,1,2,0:0:0:0:
16,168,215858,1,2,0:0:0:0:
52,224,216060,6,0,B|100:208|100:208|188:224,1,120.000004577637,10|2,0:1|0:0,0:0:0:0:
176,288,216668,2,0,B|224:272|224:272|312:288,2,120.000004577637,2|2|2,0:0|0:0|0:0,0:0:0:0:
124,328,217682,1,10,0:1:0:0:
60,316,217885,1,0,3:2:0:0:
60,316,218087,1,0,3:2:0:0:
60,316,218290,1,0,3:2:0:0:
36,248,218493,5,2,0:0:0:0:
36,248,218695,1,2,0:0:0:0:
112,124,219101,1,2,0:0:0:0:
112,124,219202,1,2,0:0:0:0:
112,124,219304,6,0,L|212:124,1,80,14|2,0:1|0:0,0:0:0:0:
268,152,219709,1,10,0:0:0:0:
336,112,219912,1,2,0:0:0:0:
344,36,220114,1,10,0:1:0:0:
344,36,220216,1,0,0:0:0:0:
424,12,220418,1,0,0:0:0:0:
424,12,220520,1,10,0:0:0:0:
484,64,220722,1,0,0:0:0:0:
412,96,220925,5,10,0:1:0:0:
418,127,221027,1,2,0:0:0:0:
425,158,221128,1,2,0:0:0:0:
352,192,221331,1,10,0:0:0:0:
368,268,221534,1,2,0:0:0:0:
292,288,221736,1,10,0:1:0:0:
298,319,221838,1,2,0:0:0:0:
305,350,221939,1,2,0:0:0:0:
380,380,222141,1,10,0:0:0:0:
452,344,222344,1,2,0:0:0:0:
452,344,222445,1,2,0:0:0:0:
452,344,222547,6,0,P|452:264|504:184,1,160,10|8,0:1|0:0,0:0:0:0:
428,28,223358,2,0,P|428:108|376:188,1,160,10|8,0:1|0:0,0:0:0:0:
156,220,224168,6,0,L|320:220,1,160,10|8,0:1|0:0,0:0:0:0:
316,140,224777,2,0,L|152:140,1,160,2|2,0:0|0:0,0:0:0:0:
84,180,225385,1,10,0:0:0:0:
156,220,225587,1,8,0:0:0:0:
156,240,225689,1,10,0:1:0:0:
156,260,225790,6,0,L|156:360,1,80,14|0,0:1|0:0,0:0:0:0:
240,140,226195,1,10,0:0:0:0:
240,220,226398,2,0,L|320:220,1,80,2|8,0:0|0:1,0:0:0:0:
400,216,226804,2,0,L|400:128,1,80,2|8,0:0|0:0,0:0:0:0:
480,136,227209,2,0,L|480:48,1,80,2|8,0:0|0:1,0:0:0:0:
400,56,227614,1,2,0:0:0:0:
400,56,227817,2,0,L|300:56,1,80,8|0,0:0|0:0,0:0:0:0:
240,56,228222,5,10,0:1:0:0:
209,68,228323,1,2,0:0:0:0:
236,87,228425,1,2,0:0:0:0:
264,162,228627,1,10,0:0:0:0:
245,187,228728,1,2,0:0:0:0:
277,190,228830,1,2,0:0:0:0:
184,144,229033,5,10,0:1:0:0:
108,172,229236,1,10,0:1:0:0:
80,248,229439,1,10,0:1:0:0:
104,324,229641,1,10,0:1:0:0:
176,360,229844,1,10,0:1:0:0:
256,352,230047,1,10,0:1:0:0:
324,312,230249,1,10,0:1:0:0:
336,232,230452,5,10,0:1:0:0:
336,232,230655,2,0,L|336:180,1,40,8|0,0:0|3:0,0:0:0:0:
264,164,230858,1,2,0:0:0:0:
264,164,231061,2,0,L|264:112,1,40,8|0,0:0|3:0,0:0:0:0:
332,84,231263,1,2,0:0:0:0:
220,40,231466,5,10,0:1:0:0:
152,84,231668,1,10,0:1:0:0:
180,160,231871,1,2,3:2:0:0:
180,188,231972,1,2,3:2:0:0:
180,216,232074,1,2,3:2:0:0:
180,244,232175,1,2,3:2:0:0:
180,272,232277,6,0,B|260:240|256:300|348:272,1,160,14|8,0:1|0:0,0:0:0:0:
400,244,232885,2,0,L|410:148,1,80,2|2,0:0|0:0,0:0:0:0:
360,112,233290,1,2,0:0:0:0:
292,136,233493,1,10,0:0:0:0:
248,80,233695,2,0,L|152:80,1,80,2|8,0:0|0:1,0:0:0:0:
120,160,234101,2,0,L|292:160,1,160,2|2,0:0|0:0,0:0:0:0:
352,160,234709,2,0,P|380:228|336:320,2,160,2|8|8,0:0|0:0|0:1,0:0:0:0:
160,305,235722,6,0,P|130:232|160:159,1,160,2|2,0:0|0:0,0:0:0:0:
228,132,236331,1,2,0:0:0:0:
288,184,236533,1,2,0:0:0:0:
288,184,236635,1,2,0:0:0:0:
288,184,236736,2,0,L|380:184,1,80,10|2,0:0|0:0,0:0:0:0:
460,320,237141,5,10,0:1:0:0:
436,320,237243,1,2,0:0:0:0:
412,320,237344,1,2,0:0:0:0:
356,368,237547,1,10,0:0:0:0:
280,356,237749,1,2,0:0:0:0:
280,356,237851,1,2,0:0:0:0:
280,356,237952,1,10,0:1:0:0:
264,288,238155,1,2,0:0:0:0:
316,236,238358,1,10,0:0:0:0:
384,252,238560,1,2,0:0:0:0:
280,356,238763,5,6,0:0:0:0:
188,296,238966,1,2,0:0:0:0:
188,296,239067,1,2,0:0:0:0:
188,296,239168,2,0,P|180:240|192:204,1,80,10|2,0:0|0:0,0:0:0:0:
328,216,239574,2,0,P|334:255|325:294,1,80,2|0,0:1|0:0,0:0:0:0:
256,192,239979,2,0,L|256:108,1,80,10|0,0:0|0:0,0:0:0:0:
256,76,240283,1,2,0:0:0:0:
256,76,240385,5,10,0:1:0:0:
32,280,240993,1,2,0:0:0:0:
32,280,241094,1,2,0:0:0:0:
32,280,241195,1,2,0:0:0:0:
84,328,241398,1,2,0:0:0:0:
152,308,241601,2,0,L|244:308,1,80,10|2,0:0|0:0,0:0:0:0:
304,308,242006,6,0,B|320:268|320:268|296:212,1,80,10|0,0:1|0:0,0:0:0:0:
228,152,242412,2,0,B|212:192|212:192|236:248,1,80,8|0,0:0|0:0,0:0:0:0:
396,308,242817,2,0,L|396:228,1,80,2|0,0:0|0:0,0:0:0:0:
396,192,243121,1,2,0:0:0:0:
396,192,243222,1,10,0:0:0:0:
240,132,243527,1,2,0:0:0:0:
240,132,243628,6,0,P|168:172|80:172,1,160,10|8,0:1|0:0,0:0:0:0:
243,234,244236,2,0,P|315:194|403:194,1,160,2|2,0:0|0:0,0:0:0:0:
452,228,244844,1,10,0:0:0:0:
500,172,245047,1,10,0:0:0:0:
500,136,245148,1,10,0:0:0:0:
500,100,245249,1,14,0:1:0:0:
440,64,245452,1,2,0:0:0:0:
440,64,245554,1,2,0:0:0:0:
440,64,245655,6,0,P|360:56|276:0,1,160,10|2,0:0|0:0,0:0:0:0:
220,16,246263,2,0,P|152:56|73:63,1,160,2|2,0:0|0:0,0:0:0:0:
20,112,246871,1,10,0:1:0:0:
20,112,246972,1,2,0:0:0:0:
20,112,247074,1,2,0:0:0:0:
72,160,247277,2,0,L|81:244,1,80,10|0,0:0|0:0,0:0:0:0:
84,280,247581,1,2,0:0:0:0:
84,280,247682,1,2,0:0:0:0:
216,372,248087,1,8,0:0:0:0:
418,330,248493,5,10,0:1:0:0:
418,330,248594,2,0,P|346:234|186:266,1,280,2|2,0:0|0:0,0:0:0:0:
140,292,249506,2,0,P|68:268|16:184,1,160,2|2,0:0|0:0,0:0:0:0:
20,124,250114,5,10,0:1:0:0:
20,124,250216,1,2,0:0:0:0:
20,124,250317,1,2,0:0:0:0:
54,58,250520,1,10,0:0:0:0:
119,91,250723,1,2,0:0:0:0:
141,206,250925,1,2,0:0:0:0:
205,169,251128,1,2,0:0:0:0:
190,99,251331,1,10,0:0:0:0:
119,91,251533,1,2,0:0:0:0:
87,157,251736,1,10,0:1:0:0:
404,320,252344,1,2,0:0:0:0:
464,280,252547,5,2,0:0:0:0:
464,256,252648,1,2,0:0:0:0:
464,232,252749,1,2,0:0:0:0:
464,208,252851,1,2,0:0:0:0:
464,184,252952,1,10,0:0:0:0:
464,112,253155,1,2,0:0:0:0:
464,112,253256,1,2,0:0:0:0:
464,112,253358,6,0,P|420:96|376:100,1,80,10|0,0:1|0:0,0:0:0:0:
356,120,253662,1,2,0:0:0:0:
356,120,253763,2,0,L|356:212,2,80,10|2|10,0:0|0:0|0:1,0:0:0:0:
292,232,254574,1,10,0:0:0:0:
128,28,254979,5,10,0:1:0:0:
128,28,255182,1,10,0:1:0:0:
204,36,255385,1,10,0:0:0:0:
204,36,255587,1,10,0:1:0:0:
264,88,255790,1,10,0:1:0:0:
273,110,255891,1,2,0:0:0:0:
275,134,255993,1,2,0:0:0:0:
270,157,256094,1,2,0:0:0:0:
260,178,256195,2,0,L|228:213,1,40,10|2,0:0|0:0,0:0:0:0:
216,224,256398,2,0,L|170:213,1,40,2|2,0:0|0:0,0:0:0:0:
152,208,256601,5,10,0:1:0:0:
129,208,256702,1,10,0:1:0:0:
108,218,256804,1,10,0:1:0:0:
90,232,256905,1,10,0:1:0:0:
68,224,257006,1,10,0:1:0:0:
48,211,257108,1,10,0:1:0:0:
35,190,257209,1,10,0:1:0:0:
31,166,257310,1,10,0:1:0:0:
34,141,257412,2,0,L|52:109,6,20,10|0|10|0|10|0|10,0:1|0:0|0:1|0:0|0:1|0:0|0:1,0:0:0:0:
58,100,257817,2,0,L|76:89,6,20,10|0|10|0|10|0|10,0:1|0:0|0:1|0:0|0:1|0:0|0:1,0:0:0:0:
106,85,258222,5,2,0:0:0:0:
