osu file format v14

[General]
AudioFilename: allbecomesokay.mp3
AudioLeadIn: 0
PreviewTime: 77017
Countdown: 0
SampleSet: Soft
StackLeniency: 0.3
Mode: 0
LetterboxInBreaks: 0
WidescreenStoryboard: 1

[Editor]
Bookmarks: 47650,67860,77965,118386
DistanceSpacing: 1
BeatDivisor: 8
GridSize: 4
TimelineZoom: 1.5

[Metadata]
Title:Last Day . . .
TitleUnicode:Last Day . . .
Artist:shallou
ArtistUnicode:shallou
Creator:- Heatwave -
Version:Hard
Source:
Tags:day... ... all becomes okay instrumental electronic ambient chill
BeatmapID:3063036
BeatmapSetID:1442208

[Difficulty]
HPDrainRate:4
CircleSize:4
OverallDifficulty:6
ApproachRate:7
SliderMultiplier:1.9
SliderTickRate:1

[Events]
//Background and Video events
0,0,"allbecomesokay.png",0,0
//Break Periods
//Storyboard Layer 0 (Background)
//Storyboard Layer 1 (Fail)
//Storyboard Layer 2 (Pass)
//Storyboard Layer 3 (Foreground)
//Storyboard Layer 4 (Overlay)
//Storyboard Sound Samples

[TimingPoints]
-351,631.578947368421,4,2,1,25,1,0
6596,-100,4,2,1,5,0,0
7227,-100,4,2,1,25,0,0
29964,-150.15015015015,4,2,1,25,0,0
32649,-100,4,2,1,25,0,0
35017,-150.15015015015,4,2,1,25,0,0
37543,-100,4,2,1,25,0,0
42596,-150.15015015015,4,2,1,25,0,0
47649,-100,4,2,1,45,0,0
67859,-100,4,2,1,35,0,0
73543,-100,4,2,1,45,0,0
77017,-100,4,2,1,35,0,0
77333,-100,4,2,1,45,0,0
77649,-100,4,2,1,55,0,0
77964,-100,4,2,2,65,0,0
78596,-100,4,2,2,65,0,0
98175,-100,4,2,2,75,0,0
118385,-100,4,2,1,25,0,0
127861,-100,4,2,1,5,0,0

[Colours]
Combo1 : 97,97,222
Combo2 : 198,198,227
Combo3 : 126,126,192
Combo4 : 184,184,241

[HitObjects]
256,192,43,12,0,6596,0:0:0:0:
104,138,7227,6,0,P|63:132|39:37,2,142.5,2|0|0,2:2|0:0|0:0,0:0:0:0:
191,33,8649,1,2,2:2:0:0:
191,33,8806,1,2,2:2:0:0:
220,226,9754,6,0,L|182:373,2,142.5,2|0|0,2:2|0:0|0:0,0:0:0:0:
350,159,11175,1,2,2:2:0:0:
350,159,11333,1,2,2:2:0:0:
155,8,12280,6,0,B|233:-6|203:54|288:38,2,142.5,2|0|0,2:2|0:0|0:0,0:0:0:0:
120,184,13859,2,0,P|69:152|-10:127,2,142.5,0|0|2,0:0|0:0|2:2,0:0:0:0:
116,194,16070,6,0,P|133:248|183:254,1,95,2|0,2:2|0:0,0:0:0:0:
262,191,16701,1,0,0:0:0:0:
262,191,16859,1,0,0:0:0:0:
351,343,17333,6,0,B|256:329|256:329|248:352|222:358,2,142.5,2|0|0,2:2|0:0|0:0,0:0:0:0:
438,289,18754,1,2,2:2:0:0:
438,289,18912,1,2,2:2:0:0:
339,135,19859,6,0,L|497:157,2,142.5,2|0|0,2:2|0:0|0:0,0:0:0:0:
246,28,21280,1,2,2:2:0:0:
246,28,21438,1,2,2:2:0:0:
160,234,22385,6,0,P|211:250|255:166,2,142.5,2|0|0,2:2|0:0|0:0,0:0:0:0:
31,94,23964,2,0,P|92:102|183:124,2,142.5,0|0|2,0:0|0:0|2:2,0:0:0:0:
29,94,26175,6,0,P|29:63|95:37,1,95,2|0,2:2|0:0,0:0:0:0:
174,100,26806,1,0,0:0:0:0:
174,100,26964,1,0,0:0:0:0:
92,238,27438,5,2,2:2:0:0:
92,238,27596,2,0,L|199:211,1,95,0|2,0:0|2:2,0:0:0:0:
271,260,28227,1,2,2:2:0:0:
252,346,28543,1,0,0:0:0:0:
252,346,28701,1,2,2:2:0:0:
252,346,28859,2,0,L|358:323,1,95,0|2,0:0|2:2,0:0:0:0:
448,304,29491,1,2,2:2:0:0:
448,304,29964,6,0,B|482:203|388:130|339:208|237:121|299:10,1,379.62,2|0,2:2|0:0,0:0:0:0:
297,13,32491,5,2,2:2:0:0:
297,13,32649,2,0,L|396:32,1,95,0|2,0:0|2:2,0:0:0:0:
431,120,33280,1,2,2:2:0:0:
366,186,33596,1,0,0:0:0:0:
366,186,33754,1,2,2:2:0:0:
366,186,33912,2,0,L|259:201,1,95,0|2,0:0|2:2,0:0:0:0:
175,176,34543,1,2,2:2:0:0:
175,176,35017,6,0,B|121:167|81:124|81:124|9:192|50:259|99:231|126:307|69:363,1,379.62,2|0,2:2|0:0,0:0:0:0:
70,363,37543,6,0,P|116:348|256:338,1,190,2|0,2:2|0:0,0:0:0:0:
336,280,38491,1,0,0:0:0:0:
173,192,39122,1,0,0:0:0:0:
173,192,40070,6,0,P|198:152|261:142,1,95,2|0,2:2|0:0,0:0:0:0:
313,29,40859,2,0,P|338:42|457:59,1,142.5
449,59,42596,6,0,B|503:71|535:154|518:215|412:213|423:135,1,253.08,2|0,2:2|0:0,0:0:0:0:
425,137,45280,1,2,2:2:0:0:
148,8,47649,6,0,P|181:17|195:79,1,95,2|0,1:2|0:0,0:0:0:0:
176,95,48122,1,2,2:2:0:0:
49,162,48596,1,2,2:2:0:0:
49,162,48754,1,0,0:0:0:0:
49,162,48912,2,0,L|191:180,1,142.5,8|0,0:2|0:0,0:0:0:0:
208,199,49543,1,0,0:0:0:0:
208,199,49859,1,0,0:0:0:0:
169,306,50175,6,0,P|195:338|262:332,1,95,2|0,1:2|0:0,0:0:0:0:
269,323,50649,1,2,2:2:0:0:
399,360,51122,1,2,2:2:0:0:
399,360,51280,1,0,0:0:0:0:
399,360,51438,2,0,L|378:207,1,142.5,8|0,0:2|0:0,0:0:0:0:
362,204,52070,1,0,0:0:0:0:
363,204,52385,1,0,0:0:0:0:
453,119,52701,6,0,P|408:112|351:90,1,95,2|0,1:2|0:0,0:0:0:0:
353,78,53175,1,2,2:2:0:0:
206,7,53649,1,2,2:2:0:0:
206,7,53806,1,0,0:0:0:0:
206,7,53964,1,8,0:2:0:0:
136,108,54280,2,0,P|181:95|282:81,2,142.5,2|2|2,2:2|2:2|1:2,0:0:0:0:
136,108,56491,6,0,P|96:112|72:169,1,95,8|2,2:2|2:2,0:0:0:0:
166,220,57122,1,2,2:2:0:0:
166,220,57280,1,2,2:2:0:0:
50,342,57754,6,0,P|93:333|157:326,1,95,2|0,1:2|0:0,0:0:0:0:
160,338,58227,1,2,2:2:0:0:
342,358,58701,1,2,2:2:0:0:
342,358,58859,1,0,0:0:0:0:
342,358,59017,2,0,P|303:359|266:269,1,142.5,8|0,0:2|0:0,0:0:0:0:
282,254,59649,1,0,0:0:0:0:
282,254,59964,1,0,0:0:0:0:
357,158,60280,6,0,P|311:146|245:136,1,95,2|0,1:2|0:0,0:0:0:0:
241,148,60754,1,2,2:2:0:0:
134,35,61227,1,2,2:2:0:0:
134,35,61385,1,0,0:0:0:0:
134,35,61543,2,0,P|94:45|92:135,1,142.5,8|0,0:2|0:0,0:0:0:0:
117,143,62175,1,0,0:0:0:0:
116,143,62491,1,0,0:0:0:0:
219,75,62806,6,0,P|260:69|326:61,1,95,2|0,1:2|0:0,0:0:0:0:
329,47,63280,1,2,2:2:0:0:
476,77,63754,1,2,2:2:0:0:
476,77,63912,1,0,0:0:0:0:
476,77,64070,1,8,0:2:0:0:
475,173,64385,2,0,P|407:172|375:112,2,142.5,2|2|2,2:2|2:2|1:2,0:0:0:0:
475,173,66596,6,0,P|465:199|452:268,1,95,8|2,2:2|2:2,0:0:0:0:
462,361,67227,1,2,2:2:0:0:
462,361,67385,1,2,2:2:0:0:
284,373,67859,6,0,P|255:349|261:290,1,95,2|0,2:2|0:0,0:0:0:0:
350,233,68491,1,2,2:2:0:0:
271,142,68806,2,0,P|207:142|81:195,1,190,2|2,2:2|2:2,0:0:0:0:
54,312,69754,1,0,0:0:0:0:
54,312,70385,6,0,P|133:278|105:197,2,190,2|0|0,2:2|0:0|0:0,0:0:0:0:
6,92,72280,2,0,P|35:94|101:117,1,95,2|2,2:2|2:2,0:0:0:0:
185,55,72912,6,0,P|215:72|334:83,1,142.5
340,65,73543,2,0,P|377:67|400:119,1,95,2|0,2:2|0:0,0:0:0:0:
339,201,74175,1,2,2:2:0:0:
339,201,74806,1,0,0:0:0:0:
256,192,75438,12,0,77333,0:0:0:0:
70,142,77964,6,0,P|77:91|163:78,1,142.5,2|2,1:2|2:2,0:0:0:0:
171,97,78596,1,8,1:2:0:0:
274,35,78912,1,0,0:0:0:0:
274,35,79070,1,2,2:2:0:0:
274,35,79227,2,0,P|275:58|259:137,1,95,2|0,1:2|0:0,0:0:0:0:
272,163,79701,2,0,P|261:209|260:256,1,95,2|2,2:2|2:2,0:0:0:0:
239,277,80175,1,0,0:0:0:0:
331,378,80491,6,0,P|382:364|369:278,1,142.5,0|0,1:2|0:0,0:0:0:0:
358,276,81122,1,8,1:2:0:0:
401,187,81438,1,0,0:0:0:0:
496,217,81754,2,0,P|472:152|460:70,1,142.5,0|0,1:2|0:0,0:0:0:0:
470,53,82385,1,8,1:2:0:0:
470,53,82701,1,0,0:0:0:0:
356,13,83017,6,0,P|293:42|296:121,1,142.5,2|2,1:2|2:2,0:0:0:0:
305,130,83649,1,8,1:2:0:0:
248,225,83964,1,0,0:0:0:0:
248,225,84122,1,2,2:2:0:0:
248,225,84280,2,0,P|178:242|111:266,1,142.5,2|2,1:2|2:2,0:0:0:0:
91,287,84912,1,8,1:2:0:0:
17,222,85227,1,0,0:0:0:0:
88,153,85543,6,0,P|38:113|126:52,1,190,0|8,1:2|1:2,0:0:0:0:
247,10,86649,2,0,P|290:50|250:103,1,95,0|0,1:2|0:0,0:0:0:0:
249,114,87122,1,0,1:2:0:0:
249,114,87280,1,0,1:2:0:0:
219,209,87596,1,0,1:2:0:0:
219,209,87754,1,0,1:2:0:0:
311,244,88070,6,0,L|455:214,1,142.5,2|2,1:2|2:2,0:0:0:0:
468,189,88701,1,8,1:2:0:0:
501,77,89017,1,0,0:0:0:0:
501,77,89175,1,2,2:2:0:0:
501,77,89333,2,0,L|407:60,1,95,2|0,1:2|0:0,0:0:0:0:
380,32,89806,2,0,L|286:48,1,95,2|2,2:2|2:2,0:0:0:0:
273,74,90280,1,0,0:0:0:0:
186,23,90596,6,0,P|103:48|115:128,1,142.5,0|0,1:2|0:0,0:0:0:0:
112,116,91227,1,8,1:2:0:0:
208,147,91543,1,0,0:0:0:0:
183,253,91859,2,0,P|227:242|342:220,1,142.5,0|0,1:2|0:0,0:0:0:0:
339,208,92491,1,8,1:2:0:0:
403,274,92806,1,0,0:0:0:0:
365,366,93122,6,0,B|285:373|315:312|237:320,1,142.5,2|2,1:2|2:2,0:0:0:0:
226,333,93754,1,8,1:2:0:0:
120,290,94070,1,0,0:0:0:0:
120,290,94227,1,2,2:2:0:0:
120,290,94385,2,0,P|99:245|158:183,1,142.5,2|2,1:2|2:2,0:0:0:0:
168,193,95017,1,8,1:2:0:0:
266,139,95333,1,0,0:0:0:0:
214,46,95649,6,0,P|155:50|61:80,1,142.5,0|0,1:2|0:0,0:0:0:0:
67,99,96280,1,8,1:2:0:0:
11,176,96596,1,0,0:0:0:0:
72,250,96912,2,0,P|119:243|181:229,1,95,0|0,1:2|1:2,0:0:0:0:
197,256,97385,2,0,P|243:246|290:239,1,95,0|0,1:2|1:2,0:0:0:0:
310,208,97859,1,0,1:2:0:0:
433,308,98175,6,0,P|487:290|480:209,1,142.5,2|2,1:2|2:2,0:0:0:0:
450,197,98806,1,8,1:2:0:0:
485,78,99122,1,0,0:0:0:0:
485,78,99280,1,2,2:2:0:0:
485,78,99438,2,0,P|436:62|331:54,1,142.5,2|2,1:2|2:2,0:0:0:0:
330,68,100070,1,8,1:2:0:0:
243,2,100385,1,0,0:0:0:0:
182,89,100701,6,0,P|187:138|280:152,1,142.5,0|0,1:2|0:0,0:0:0:0:
295,161,101333,1,8,1:2:0:0:
341,246,101649,1,0,0:0:0:0:
278,321,101964,2,0,P|214:305|136:298,1,142.5,0|0,1:2|0:0,0:0:0:0:
116,318,102596,1,8,1:2:0:0:
26,243,102912,1,0,0:0:0:0:
26,243,103070,1,0,0:0:0:0:
26,243,103227,6,0,P|85:229|93:144,1,142.5,2|2,1:2|2:2,0:0:0:0:
76,134,103859,1,8,1:2:0:0:
50,36,104175,1,0,0:0:0:0:
149,12,104491,2,0,B|193:3|216:37|197:50|224:84|264:78,1,142.5,2|2,1:2|2:2,0:0:0:0:
277,71,105122,1,8,1:2:0:0:
403,33,105438,1,0,0:0:0:0:
403,33,105596,1,0,0:0:0:0:
403,33,105754,6,0,L|377:177,1,142.5,0|0,1:2|0:0,0:0:0:0:
384,189,106385,1,8,1:2:0:0:
485,316,106859,2,0,P|464:358|419:369,1,95,0|0,1:2|0:0,0:0:0:0:
397,355,107333,1,0,1:2:0:0:
397,355,107491,1,0,1:2:0:0:
324,276,107806,1,0,1:2:0:0:
324,276,107964,1,0,1:2:0:0:
224,332,108280,6,0,L|69:351,1,142.5,2|2,1:2|2:2,0:0:0:0:
65,338,108912,1,8,1:2:0:0:
13,244,109227,1,0,0:0:0:0:
13,244,109385,1,2,2:2:0:0:
13,244,109543,2,0,P|65:227|174:174,1,142.5,2|2,1:2|2:2,0:0:0:0:
150,173,110175,1,8,1:2:0:0:
119,69,110491,1,0,0:0:0:0:
216,22,110806,6,0,P|270:27|274:111,1,142.5,0|0,1:2|0:0,0:0:0:0:
259,122,111438,1,8,1:2:0:0:
332,229,111754,1,0,0:0:0:0:
332,229,111912,1,0,0:0:0:0:
332,229,112070,2,0,P|398:210|482:196,1,142.5,0|0,1:2|0:0,0:0:0:0:
483,210,112701,1,8,1:2:0:0:
512,318,113017,1,0,0:0:0:0:
409,376,113333,6,0,P|372:327|293:339,1,142.5,2|2,1:2|2:2,0:0:0:0:
288,363,113964,1,8,1:2:0:0:
178,345,114280,1,0,0:0:0:0:
205,235,114596,2,0,P|195:190|188:89,1,142.5,2|2,1:2|2:2,0:0:0:0:
177,71,115227,1,8,1:2:0:0:
74,11,115543,1,0,0:0:0:0:
74,11,115701,1,0,0:0:0:0:
74,11,115859,6,0,P|27:37|51:121,1,142.5,0|0,1:2|0:0,0:0:0:0:
66,127,116491,1,8,1:2:0:0:
121,222,116806,1,0,0:0:0:0:
41,305,117122,2,0,P|86:322|132:332,1,95,0|0,1:2|1:2,0:0:0:0:
156,361,117596,2,0,P|200:344|246:334,1,95,0|0,1:2|1:2,0:0:0:0:
266,324,118070,1,0,1:2:0:0:
376,360,118385,6,0,P|427:345|417:260,1,142.5,0|0,1:2|0:0,0:0:0:0:
401,257,119017,1,2,2:2:0:0:
356,166,119333,1,0,0:0:0:0:
512,68,119964,1,2,2:2:0:0:
512,68,120912,6,0,P|446:55|402:29,1,95,2|2,2:2|2:2,0:0:0:0:
267,0,121701,2,0,P|241:34|317:86,1,142.5,2|2,2:2|2:2,0:0:0:0:
317,84,123438,5,2,2:2:0:0:
317,83,124701,2,0,P|300:128|289:174,1,95,2|2,2:2|2:2,0:0:0:0:
256,192,127859,12,0,136070,0:0:0:0:
