osu file format v14

[General]
AudioFilename: Shakugan_no_Shana_S_-_All_In_Good_Time_TV_Size.mp3
AudioLeadIn: 0
PreviewTime: -1
Countdown: 1
SampleSet: Soft
StackLeniency: 0.7
Mode: 3
LetterboxInBreaks: 1
SpecialStyle: 1
WidescreenStoryboard: 1

[Editor]
DistanceSpacing: 1
BeatDivisor: 2
GridSize: 16
TimelineZoom: 1.6

[Metadata]
Title:Shana Collection
TitleUnicode:Shana Collection
Artist:
ArtistUnicode:
Creator:ecafree2
Version:(LN)Kawada Mami - All in good time (TV Size)
Source:Shakugan No Shana
Tags:
BeatmapID:1126921
BeatmapSetID:531752

[Difficulty]
HPDrainRate:7
CircleSize:4
OverallDifficulty:7
ApproachRate:5
SliderMultiplier:1.4
SliderTickRate:1

[Events]
//Background and Video events
0,0,"shakugan-no-shana-61.jpg",0,0
//Break Periods
//Storyboard Layer 0 (Background)
//Storyboard Layer 1 (Fail)
//Storyboard Layer 2 (Pass)
//Storyboard Layer 3 (Foreground)
//Storyboard Sound Samples

[TimingPoints]
459,384.615384615385,4,2,0,5,1,0
24305,-66.6666666666667,4,2,0,5,0,0
24369,-133.333333333333,4,2,0,5,0,0
24497,-10000,4,2,0,5,0,0
24561,-66.6666666666667,4,2,0,5,0,0
24689,-66.6666666666667,4,2,0,5,0,0
24753,-133.333333333333,4,2,0,5,0,0
24882,-10000,4,2,0,5,0,0
24946,-66.6666666666667,4,2,0,5,0,0
25074,-100,4,2,0,5,0,0
25362,-100,4,2,0,5,0,1
49689,-100,4,2,0,5,0,0

[HitObjects]
448,192,459,5,0,0:0:0:0:
64,192,459,1,0,0:0:0:0:
64,192,843,1,0,0:0:0:0:
192,192,843,1,0,0:0:0:0:
320,192,1035,1,0,0:0:0:0:
448,192,1228,1,0,0:0:0:0:
192,192,1228,1,0,0:0:0:0:
64,192,1228,1,0,0:0:0:0:
320,192,1612,1,0,0:0:0:0:
192,192,1612,1,0,0:0:0:0:
64,192,1805,1,0,0:0:0:0:
64,192,1997,1,0,0:0:0:0:
320,192,2189,1,0,0:0:0:0:
64,192,2382,1,0,0:0:0:0:
192,192,2766,1,0,0:0:0:0:
448,192,2766,1,0,0:0:0:0:
64,192,2766,1,0,0:0:0:0:
320,192,2959,1,0,0:0:0:0:
192,192,3151,1,0,0:0:0:0:
64,192,3343,1,0,0:0:0:0:
192,192,3535,1,0,0:0:0:0:
320,192,3535,1,0,0:0:0:0:
192,192,3920,1,0,0:0:0:0:
448,192,3920,1,0,0:0:0:0:
448,192,4305,1,0,0:0:0:0:
320,192,4305,1,0,0:0:0:0:
64,192,4305,1,0,0:0:0:0:
320,192,4689,1,0,0:0:0:0:
64,192,4689,1,0,0:0:0:0:
192,192,4882,1,0,0:0:0:0:
192,192,5074,1,0,0:0:0:0:
320,192,5266,1,0,0:0:0:0:
192,192,5459,1,0,0:0:0:0:
448,192,5459,1,0,0:0:0:0:
64,192,5651,1,0,0:0:0:0:
448,192,5843,1,0,0:0:0:0:
192,192,5843,1,0,0:0:0:0:
320,192,5843,1,0,0:0:0:0:
320,192,6035,1,0,0:0:0:0:
64,192,6035,1,0,0:0:0:0:
448,192,6228,1,0,0:0:0:0:
64,192,6612,1,0,0:0:0:0:
448,192,6612,1,0,0:0:0:0:
64,192,6997,1,0,0:0:0:0:
192,192,6997,1,0,0:0:0:0:
320,192,7189,1,0,0:0:0:0:
64,192,7382,1,0,0:0:0:0:
448,192,7382,1,0,0:0:0:0:
192,192,7382,1,0,0:0:0:0:
320,192,7766,1,0,0:0:0:0:
192,192,7766,1,0,0:0:0:0:
64,192,7959,1,0,0:0:0:0:
64,192,8151,1,0,0:0:0:0:
320,192,8343,1,0,0:0:0:0:
64,192,8535,1,0,0:0:0:0:
192,192,8535,1,0,0:0:0:0:
64,192,8920,1,0,0:0:0:0:
448,192,8920,1,0,0:0:0:0:
320,192,8920,1,0,0:0:0:0:
192,192,9112,1,0,0:0:0:0:
64,192,9305,1,0,0:0:0:0:
192,192,9689,1,0,0:0:0:0:
448,192,9689,1,0,0:0:0:0:
320,192,10074,1,0,0:0:0:0:
192,192,10074,1,0,0:0:0:0:
64,192,10459,1,0,0:0:0:0:
448,192,10459,1,0,0:0:0:0:
192,192,10459,1,0,0:0:0:0:
320,192,10843,1,0,0:0:0:0:
192,192,10843,1,0,0:0:0:0:
64,192,11035,1,0,0:0:0:0:
64,192,11228,1,0,0:0:0:0:
448,192,11420,1,0,0:0:0:0:
64,192,11612,1,0,0:0:0:0:
320,192,11612,1,0,0:0:0:0:
192,192,11805,1,0,0:0:0:0:
448,192,11805,1,0,0:0:0:0:
64,192,11997,1,0,0:0:0:0:
448,192,11997,1,0,0:0:0:0:
320,192,11997,1,0,0:0:0:0:
192,192,12189,1,0,0:0:0:0:
320,192,12189,1,0,0:0:0:0:
64,192,12382,1,0,0:0:0:0:
448,192,12382,1,0,0:0:0:0:
320,192,12574,1,0,0:0:0:0:
64,192,12766,1,0,0:0:0:0:
448,192,12766,1,0,0:0:0:0:
192,192,12766,128,0,13920:0:0:0:0:
64,192,13151,128,0,13535:0:0:0:0:
448,192,13151,1,0,0:0:0:0:
320,192,13343,128,0,13535:0:0:0:0:
448,192,13535,128,0,13920:0:0:0:0:
64,192,13920,128,0,15843:0:0:0:0:
320,192,13920,128,0,14689:0:0:0:0:
192,192,14112,1,0,0:0:0:0:
192,192,14305,1,0,0:0:0:0:
448,192,14305,1,0,0:0:0:0:
192,192,14689,128,0,15843:0:0:0:0:
448,192,14689,1,0,0:0:0:0:
448,192,15074,1,0,0:0:0:0:
320,192,15074,1,0,0:0:0:0:
320,192,15266,1,0,0:0:0:0:
448,192,15459,1,0,0:0:0:0:
320,192,15651,1,0,0:0:0:0:
448,192,15843,128,0,16997:0:0:0:0:
320,192,15843,128,0,16612:0:0:0:0:
64,192,16228,128,0,16612:0:0:0:0:
192,192,16228,1,0,0:0:0:0:
192,192,16612,128,0,17766:0:0:0:0:
64,192,16997,128,0,18920:0:0:0:0:
448,192,17189,1,0,0:0:0:0:
448,192,17382,1,0,0:0:0:0:
320,192,17382,1,0,0:0:0:0:
320,192,17766,1,0,0:0:0:0:
448,192,17766,128,0,17959:0:0:0:0:
192,192,17959,1,0,0:0:0:0:
192,192,18151,128,0,18535:0:0:0:0:
320,192,18151,1,0,0:0:0:0:
448,192,18343,128,0,18535:0:0:0:0:
320,192,18535,128,0,20074:0:0:0:0:
192,192,18920,128,0,19689:0:0:0:0:
448,192,18920,1,0,0:0:0:0:
448,192,19305,1,0,0:0:0:0:
64,192,19497,1,0,0:0:0:0:
448,192,19689,1,0,0:0:0:0:
64,192,19689,1,0,0:0:0:0:
448,192,20074,128,0,21997:0:0:0:0:
64,192,20074,128,0,21228:0:0:0:0:
192,192,20074,1,0,0:0:0:0:
320,192,20266,1,0,0:0:0:0:
320,192,20459,1,0,0:0:0:0:
192,192,20651,1,0,0:0:0:0:
320,192,20843,1,0,0:0:0:0:
192,192,21035,1,0,0:0:0:0:
320,192,21228,128,0,21612:0:0:0:0:
64,192,21420,128,0,21612:0:0:0:0:
192,192,21612,128,0,21997:0:0:0:0:
320,192,21805,128,0,21997:0:0:0:0:
64,192,21997,128,0,23151:0:0:0:0:
448,192,22382,128,0,23151:0:0:0:0:
192,192,22382,1,0,0:0:0:0:
192,192,22766,128,0,23151:0:0:0:0:
320,192,22766,1,0,0:0:0:0:
320,192,23151,128,0,23920:0:0:0:0:
64,192,23343,1,0,0:0:0:0:
64,192,23535,1,0,0:0:0:0:
448,192,23728,1,0,0:0:0:0:
192,192,23920,128,0,24305:0:0:0:0:
64,192,23920,1,0,0:0:0:0:
320,192,24112,1,0,0:0:0:0:
320,192,24305,1,0,0:0:0:0:
448,192,24305,1,0,0:0:0:0:
64,192,24305,1,0,0:0:0:0:
192,192,24497,1,0,0:0:0:0:
320,192,24497,1,0,0:0:0:0:
64,192,24497,1,0,0:0:0:0:
448,192,24497,1,0,0:0:0:0:
320,192,24689,1,0,0:0:0:0:
192,192,24689,1,0,0:0:0:0:
448,192,24689,1,0,0:0:0:0:
64,192,24689,1,0,0:0:0:0:
192,192,24882,1,0,0:0:0:0:
320,192,24882,1,0,0:0:0:0:
64,192,24882,1,0,0:0:0:0:
448,192,24882,1,0,0:0:0:0:
64,192,25074,1,0,0:0:0:0:
192,192,25074,1,0,0:0:0:0:
320,192,25074,1,0,0:0:0:0:
448,192,25074,128,0,25843:0:0:0:0:
320,192,25459,128,0,25651:0:0:0:0:
64,192,25651,1,0,0:0:0:0:
192,192,25651,1,0,0:0:0:0:
64,192,25843,128,0,26228:0:0:0:0:
192,192,25843,1,0,0:0:0:0:
320,192,25843,1,0,0:0:0:0:
192,192,26035,1,0,0:0:0:0:
320,192,26228,128,0,26420:0:0:0:0:
448,192,26228,1,0,0:0:0:0:
64,192,26420,128,0,26997:0:0:0:0:
192,192,26420,1,0,0:0:0:0:
448,192,26420,128,0,26997:0:0:0:0:
320,192,26612,1,0,0:0:0:0:
192,192,26997,1,0,0:0:0:0:
320,192,26997,128,0,27382:0:0:0:0:
192,192,27189,1,0,0:0:0:0:
64,192,27382,128,0,27766:0:0:0:0:
448,192,27382,128,0,27766:0:0:0:0:
192,192,27766,1,0,0:0:0:0:
320,192,27766,1,0,0:0:0:0:
192,192,27959,1,0,0:0:0:0:
320,192,27959,1,0,0:0:0:0:
320,192,28151,1,0,0:0:0:0:
64,192,28151,1,0,0:0:0:0:
448,192,28151,128,0,28920:0:0:0:0:
320,192,28535,128,0,28728:0:0:0:0:
64,192,28728,128,0,28920:0:0:0:0:
192,192,28728,1,0,0:0:0:0:
320,192,28920,1,0,0:0:0:0:
192,192,28920,128,0,29112:0:0:0:0:
64,192,29112,128,0,29305:0:0:0:0:
320,192,29112,1,0,0:0:0:0:
448,192,29305,128,0,30074:0:0:0:0:
192,192,29305,128,0,29689:0:0:0:0:
320,192,29305,1,0,0:0:0:0:
320,192,29497,1,0,0:0:0:0:
64,192,29689,128,0,29882:0:0:0:0:
320,192,30074,1,0,0:0:0:0:
64,192,30074,128,0,30459:0:0:0:0:
320,192,30266,1,0,0:0:0:0:
192,192,30266,1,0,0:0:0:0:
448,192,30459,128,0,30843:0:0:0:0:
320,192,30459,128,0,30651:0:0:0:0:
64,192,30651,128,0,30843:0:0:0:0:
320,192,30843,1,0,0:0:0:0:
192,192,30843,1,0,0:0:0:0:
320,192,31035,1,0,0:0:0:0:
192,192,31035,1,0,0:0:0:0:
64,192,31228,128,0,31997:0:0:0:0:
448,192,31228,1,0,0:0:0:0:
320,192,31228,1,0,0:0:0:0:
448,192,31612,128,0,31805:0:0:0:0:
320,192,31805,1,0,0:0:0:0:
192,192,31997,1,0,0:0:0:0:
320,192,31997,128,0,32382:0:0:0:0:
448,192,31997,1,0,0:0:0:0:
448,192,32189,1,0,0:0:0:0:
64,192,32382,128,0,33151:0:0:0:0:
448,192,32382,128,0,32574:0:0:0:0:
192,192,32382,1,0,0:0:0:0:
320,192,32574,128,0,33151:0:0:0:0:
192,192,32574,1,0,0:0:0:0:
192,192,33151,1,0,0:0:0:0:
448,192,33151,128,0,33343:0:0:0:0:
192,192,33343,1,0,0:0:0:0:
64,192,33535,128,0,33920:0:0:0:0:
320,192,33535,1,0,0:0:0:0:
448,192,33535,128,0,33920:0:0:0:0:
192,192,33920,1,0,0:0:0:0:
320,192,33920,1,0,0:0:0:0:
192,192,34112,1,0,0:0:0:0:
320,192,34112,1,0,0:0:0:0:
320,192,34305,128,0,35074:0:0:0:0:
448,192,34305,1,0,0:0:0:0:
64,192,34305,1,0,0:0:0:0:
448,192,34689,128,0,34882:0:0:0:0:
64,192,34882,1,0,0:0:0:0:
192,192,35074,1,0,0:0:0:0:
448,192,35074,1,0,0:0:0:0:
192,192,35266,1,0,0:0:0:0:
320,192,35459,128,0,36228:0:0:0:0:
64,192,35459,128,0,36228:0:0:0:0:
448,192,35459,1,0,0:0:0:0:
448,192,35651,1,0,0:0:0:0:
192,192,35843,1,0,0:0:0:0:
192,192,36228,1,0,0:0:0:0:
448,192,36228,128,0,36612:0:0:0:0:
192,192,36420,1,0,0:0:0:0:
320,192,36612,128,0,36997:0:0:0:0:
192,192,36612,1,0,0:0:0:0:
64,192,36612,128,0,36997:0:0:0:0:
448,192,36805,1,0,0:0:0:0:
192,192,36997,1,0,0:0:0:0:
448,192,36997,1,0,0:0:0:0:
192,192,37189,1,0,0:0:0:0:
448,192,37382,128,0,38151:0:0:0:0:
320,192,37382,1,0,0:0:0:0:
64,192,37382,1,0,0:0:0:0:
192,192,37766,128,0,37959:0:0:0:0:
64,192,37959,1,0,0:0:0:0:
320,192,38151,1,0,0:0:0:0:
192,192,38151,128,0,38535:0:0:0:0:
320,192,38343,1,0,0:0:0:0:
448,192,38535,128,0,39305:0:0:0:0:
64,192,38535,1,0,0:0:0:0:
192,192,38728,128,0,39305:0:0:0:0:
64,192,38728,1,0,0:0:0:0:
320,192,38920,1,0,0:0:0:0:
320,192,39305,1,0,0:0:0:0:
64,192,39305,128,0,39689:0:0:0:0:
320,192,39497,1,0,0:0:0:0:
448,192,39689,128,0,40074:0:0:0:0:
192,192,39689,1,0,0:0:0:0:
320,192,39689,1,0,0:0:0:0:
320,192,40074,1,0,0:0:0:0:
64,192,40074,1,0,0:0:0:0:
192,192,40459,128,0,41228:0:0:0:0:
448,192,40459,1,0,0:0:0:0:
64,192,40459,1,0,0:0:0:0:
448,192,40843,128,0,41035:0:0:0:0:
64,192,41035,128,0,41228:0:0:0:0:
320,192,41035,1,0,0:0:0:0:
320,192,41228,1,0,0:0:0:0:
448,192,41228,128,0,41420:0:0:0:0:
320,192,41420,1,0,0:0:0:0:
64,192,41420,128,0,41612:0:0:0:0:
192,192,41612,128,0,41997:0:0:0:0:
320,192,41612,128,0,41805:0:0:0:0:
448,192,41612,1,0,0:0:0:0:
448,192,41805,128,0,42382:0:0:0:0:
64,192,41805,1,0,0:0:0:0:
320,192,41997,1,0,0:0:0:0:
64,192,42189,128,0,42382:0:0:0:0:
320,192,42382,1,0,0:0:0:0:
192,192,42382,1,0,0:0:0:0:
320,192,42574,1,0,0:0:0:0:
192,192,42574,1,0,0:0:0:0:
64,192,42766,128,0,43151:0:0:0:0:
320,192,42766,1,0,0:0:0:0:
448,192,42766,128,0,43151:0:0:0:0:
320,192,43151,128,0,43535:0:0:0:0:
448,192,43535,1,0,0:0:0:0:
192,192,43535,1,0,0:0:0:0:
64,192,43535,128,0,44112:0:0:0:0:
320,192,43920,128,0,44112:0:0:0:0:
192,192,44112,1,0,0:0:0:0:
448,192,44112,1,0,0:0:0:0:
64,192,44305,1,0,0:0:0:0:
192,192,44305,1,0,0:0:0:0:
320,192,44305,128,0,44497:0:0:0:0:
64,192,44497,1,0,0:0:0:0:
64,192,44689,128,0,45459:0:0:0:0:
192,192,44689,128,0,44882:0:0:0:0:
320,192,44689,1,0,0:0:0:0:
448,192,44882,128,0,45459:0:0:0:0:
320,192,44882,1,0,0:0:0:0:
192,192,45074,1,0,0:0:0:0:
192,192,45459,1,0,0:0:0:0:
320,192,45459,1,0,0:0:0:0:
192,192,45651,1,0,0:0:0:0:
320,192,45651,128,0,45843:0:0:0:0:
64,192,45843,128,0,46228:0:0:0:0:
448,192,45843,1,0,0:0:0:0:
192,192,45843,1,0,0:0:0:0:
448,192,46035,128,0,46228:0:0:0:0:
192,192,46228,1,0,0:0:0:0:
320,192,46228,128,0,46420:0:0:0:0:
192,192,46420,1,0,0:0:0:0:
448,192,46420,128,0,46612:0:0:0:0:
320,192,46612,128,0,47382:0:0:0:0:
64,192,46612,1,0,0:0:0:0:
192,192,46612,1,0,0:0:0:0:
448,192,46997,1,0,0:0:0:0:
64,192,46997,128,0,47382:0:0:0:0:
192,192,47382,1,0,0:0:0:0:
448,192,47382,1,0,0:0:0:0:
192,192,47574,1,0,0:0:0:0:
448,192,47766,128,0,48535:0:0:0:0:
320,192,47766,128,0,47959:0:0:0:0:
64,192,47959,128,0,48535:0:0:0:0:
192,192,48151,1,0,0:0:0:0:
320,192,48535,1,0,0:0:0:0:
320,192,48728,1,0,0:0:0:0:
64,192,48728,1,0,0:0:0:0:
448,192,48920,128,0,49689:0:0:0:0:
192,192,48920,1,0,0:0:0:0:
320,192,48920,1,0,0:0:0:0:
64,192,49112,128,0,49689:0:0:0:0:
320,192,49689,128,0,52766:0:0:0:0:
192,192,49689,128,0,49882:0:0:0:0:
64,192,49882,128,0,50266:0:0:0:0:
192,192,50074,128,0,50266:0:0:0:0:
448,192,50266,128,0,50459:0:0:0:0:
64,192,50459,128,0,50651:0:0:0:0:
192,192,50459,128,0,50651:0:0:0:0:
448,192,50651,128,0,50843:0:0:0:0:
64,192,50843,1,0,0:0:0:0:
192,192,50843,128,0,51035:0:0:0:0:
64,192,51035,128,0,51420:0:0:0:0:
448,192,51035,128,0,51228:0:0:0:0:
192,192,51228,128,0,51420:0:0:0:0:
448,192,51420,128,0,51805:0:0:0:0:
192,192,51612,1,0,0:0:0:0:
64,192,51612,128,0,51805:0:0:0:0:
192,192,51805,128,0,51997:0:0:0:0:
448,192,51997,128,0,52382:0:0:0:0:
64,192,51997,128,0,52189:0:0:0:0:
192,192,52189,128,0,52574:0:0:0:0:
64,192,52382,128,0,52574:0:0:0:0:
448,192,52574,1,0,0:0:0:0:
64,192,52766,128,0,54305:0:0:0:0:
448,192,52766,128,0,52959:0:0:0:0:
192,192,52766,128,0,53343:0:0:0:0:
320,192,52959,128,0,53151:0:0:0:0:
448,192,53151,128,0,53343:0:0:0:0:
320,192,53343,128,0,53728:0:0:0:0:
192,192,53535,1,0,0:0:0:0:
448,192,53535,128,0,53728:0:0:0:0:
192,192,53728,128,0,54112:0:0:0:0:
448,192,53920,1,0,0:0:0:0:
320,192,53920,1,0,0:0:0:0:
320,192,54112,128,0,54305:0:0:0:0:
448,192,54112,128,0,54497:0:0:0:0:
192,192,54305,128,0,55843:0:0:0:0:
320,192,54497,128,0,54882:0:0:0:0:
448,192,54689,1,0,0:0:0:0:
64,192,54689,1,0,0:0:0:0:
64,192,54882,128,0,55074:0:0:0:0:
320,192,55074,128,0,55266:0:0:0:0:
448,192,55074,128,0,55459:0:0:0:0:
64,192,55266,128,0,55651:0:0:0:0:
320,192,55459,128,0,55651:0:0:0:0:
448,192,55651,1,0,0:0:0:0:
448,192,55843,128,0,57382:0:0:0:0:
64,192,55843,128,0,56228:0:0:0:0:
320,192,55843,128,0,56035:0:0:0:0:
192,192,56035,128,0,56420:0:0:0:0:
320,192,56228,128,0,56420:0:0:0:0:
64,192,56420,128,0,56805:0:0:0:0:
320,192,56612,1,0,0:0:0:0:
192,192,56612,128,0,56805:0:0:0:0:
320,192,56805,128,0,57189:0:0:0:0:
192,192,56997,1,0,0:0:0:0:
64,192,56997,1,0,0:0:0:0:
64,192,57189,128,0,57574:0:0:0:0:
192,192,57189,128,0,57382:0:0:0:0:
320,192,57382,128,0,58920:0:0:0:0:
192,192,57574,128,0,57766:0:0:0:0:
64,192,57766,128,0,58151:0:0:0:0:
448,192,57766,128,0,57959:0:0:0:0:
192,192,57959,1,0,0:0:0:0:
192,192,58151,128,0,58343:0:0:0:0:
448,192,58151,128,0,58535:0:0:0:0:
64,192,58343,128,0,58728:0:0:0:0:
192,192,58535,128,0,58728:0:0:0:0:
448,192,58728,1,0,0:0:0:0:
64,192,58920,128,0,61228:0:0:0:0:
448,192,58920,1,0,0:0:0:0:
192,192,58920,1,0,0:0:0:0:
192,192,59112,128,0,59305:0:0:0:0:
448,192,59112,128,0,59305:0:0:0:0:
320,192,59305,128,0,59497:0:0:0:0:
448,192,59497,1,0,0:0:0:0:
192,192,59497,128,0,59689:0:0:0:0:
320,192,59689,128,0,59882:0:0:0:0:
448,192,59689,128,0,60074:0:0:0:0:
192,192,59882,128,0,60074:0:0:0:0:
320,192,60074,128,0,60266:0:0:0:0:
192,192,60266,128,0,60651:0:0:0:0:
448,192,60266,128,0,60459:0:0:0:0:
320,192,60459,128,0,60651:0:0:0:0:
448,192,60651,128,0,60843:0:0:0:0:
192,192,60843,128,0,61035:0:0:0:0:
320,192,60843,128,0,61035:0:0:0:0:
448,192,61035,1,0,0:0:0:0:
192,192,61228,128,0,61997:0:0:0:0:
320,192,61228,1,0,0:0:0:0:
448,192,61228,128,0,61612:0:0:0:0:
320,192,61420,1,0,0:0:0:0:
64,192,61420,1,0,0:0:0:0:
64,192,61612,128,0,61805:0:0:0:0:
320,192,61612,128,0,61805:0:0:0:0:
448,192,61805,1,0,0:0:0:0:
64,192,61997,128,0,62189:0:0:0:0:
320,192,61997,128,0,62189:0:0:0:0:
448,192,61997,128,0,62574:0:0:0:0:
192,192,62189,128,0,62382:0:0:0:0:
320,192,62382,128,0,63151:0:0:0:0:
64,192,62382,128,0,62574:0:0:0:0:
192,192,62574,128,0,62766:0:0:0:0:
64,192,62766,128,0,62959:0:0:0:0:
448,192,62766,128,0,62959:0:0:0:0:
192,192,62959,1,0,0:0:0:0:
64,192,63151,128,0,65074:0:0:0:0:
448,192,63151,1,0,0:0:0:0:
192,192,63151,1,0,0:0:0:0:
192,192,63343,128,0,63535:0:0:0:0:
448,192,63343,128,0,63535:0:0:0:0:
320,192,63535,128,0,63920:0:0:0:0:
192,192,63728,1,0,0:0:0:0:
448,192,63728,1,0,0:0:0:0:
448,192,63920,128,0,64305:0:0:0:0:
192,192,63920,128,0,64112:0:0:0:0:
320,192,64112,1,0,0:0:0:0:
192,192,64305,128,0,64689:0:0:0:0:
320,192,64305,128,0,64497:0:0:0:0:
448,192,64497,128,0,64882:0:0:0:0:
320,192,64689,128,0,64882:0:0:0:0:
192,192,64882,1,0,0:0:0:0:
320,192,65074,128,0,68151:0:0:0:0:
192,192,65074,1,0,0:0:0:0:
448,192,65074,128,0,65459:0:0:0:0:
192,192,65266,128,0,65651:0:0:0:0:
64,192,65459,128,0,65651:0:0:0:0:
448,192,65651,128,0,65843:0:0:0:0:
64,192,65843,128,0,66035:0:0:0:0:
192,192,65843,128,0,66420:0:0:0:0:
448,192,66035,1,0,0:0:0:0:
64,192,66228,1,0,0:0:0:0:
448,192,66228,1,0,0:0:0:0:
64,192,66420,128,0,66805:0:0:0:0:
448,192,66420,128,0,66612:0:0:0:0:
192,192,66612,128,0,66805:0:0:0:0:
448,192,66805,128,0,67189:0:0:0:0:
192,192,66997,1,0,0:0:0:0:
64,192,66997,128,0,67189:0:0:0:0:
192,192,67189,128,0,67382:0:0:0:0:
64,192,67382,128,0,67574:0:0:0:0:
448,192,67382,128,0,67766:0:0:0:0:
192,192,67574,128,0,67959:0:0:0:0:
64,192,67766,128,0,67959:0:0:0:0:
448,192,67959,1,0,0:0:0:0:
64,192,68151,128,0,69305:0:0:0:0:
192,192,68151,128,0,68343:0:0:0:0:
448,192,68151,128,0,68535:0:0:0:0:
320,192,68343,128,0,68728:0:0:0:0:
192,192,68535,128,0,68728:0:0:0:0:
448,192,68728,128,0,68920:0:0:0:0:
192,192,68920,128,0,69112:0:0:0:0:
320,192,68920,128,0,69112:0:0:0:0:
448,192,69112,1,0,0:0:0:0:
448,192,69305,128,0,71228:0:0:0:0:
320,192,69305,1,0,0:0:0:0:
192,192,69305,1,0,0:0:0:0:
320,192,69497,128,0,69882:0:0:0:0:
192,192,69497,128,0,69689:0:0:0:0:
64,192,69689,128,0,69882:0:0:0:0:
192,192,69882,128,0,70074:0:0:0:0:
64,192,70074,128,0,70266:0:0:0:0:
320,192,70074,128,0,70459:0:0:0:0:
192,192,70266,1,0,0:0:0:0:
64,192,70459,128,0,70651:0:0:0:0:
192,192,70459,128,0,70843:0:0:0:0:
320,192,70651,128,0,71035:0:0:0:0:
64,192,70843,128,0,71035:0:0:0:0:
192,192,71035,128,0,71420:0:0:0:0:
64,192,71228,128,0,74305:0:0:0:0:
320,192,71228,1,0,0:0:0:0:
320,192,71420,128,0,71612:0:0:0:0:
448,192,71612,128,0,71805:0:0:0:0:
192,192,71612,128,0,71805:0:0:0:0:
320,192,71805,128,0,71997:0:0:0:0:
192,192,71997,128,0,72189:0:0:0:0:
448,192,71997,128,0,72382:0:0:0:0:
320,192,72189,128,0,72382:0:0:0:0:
192,192,72382,128,0,72574:0:0:0:0:
448,192,72574,128,0,72766:0:0:0:0:
320,192,72574,128,0,73343:0:0:0:0:
192,192,72766,128,0,72959:0:0:0:0:
448,192,72959,1,0,0:0:0:0:
448,192,73151,128,0,73343:0:0:0:0:
192,192,73151,128,0,73535:0:0:0:0:
448,192,73535,128,0,73728:0:0:0:0:
320,192,73535,1,0,0:0:0:0:
192,192,73728,1,0,0:0:0:0:
320,192,73728,128,0,74112:0:0:0:0:
192,192,73920,128,0,74305:0:0:0:0:
448,192,73920,1,0,0:0:0:0:
448,192,74112,1,0,0:0:0:0:
320,192,74305,1,0,0:0:0:0:
448,192,74305,128,0,78920:0:0:0:0:
320,192,74689,1,0,0:0:0:0:
192,192,75074,1,0,0:0:0:0:
64,192,75459,1,0,0:0:0:0:
