osu file format v14

[General]
AudioFilename: audio.mp3
AudioLeadIn: 0
PreviewTime: 43092
Countdown: 0
SampleSet: Normal
StackLeniency: 0.7
Mode: 1
LetterboxInBreaks: 0
WidescreenStoryboard: 0

[Editor]
Bookmarks: 16490,25543
DistanceSpacing: 1
BeatDivisor: 4
GridSize: 4
TimelineZoom: 0.7

[Metadata]
Title:Whenever, Wherever
TitleUnicode:Whenever, Wherever
Artist:Shakira
ArtistUnicode:Shakira
Creator:Regraz
Version:Prophecy's Muzukashii
Source:
Tags:Laundry Service Tim Mitchell latin worldbeat PatZar Prophecy Genocide Gero
BeatmapID:973994
BeatmapSetID:453334

[Difficulty]
HPDrainRate:8
CircleSize:5
OverallDifficulty:5
ApproachRate:5
SliderMultiplier:1.4
SliderTickRate:1

[Events]
//Background and Video events
0,0,"BG.jpg",0,65
//Break Periods
//Storyboard Layer 0 (Background)
//Storyboard Layer 1 (Fail)
//Storyboard Layer 2 (Pass)
//Storyboard Layer 3 (Foreground)
//Storyboard Sound Samples

[TimingPoints]
7716,557.103064066852,4,1,0,100,1,0
43370,-100,4,1,0,100,0,1
61197,-100,4,1,0,100,0,0

[HitObjects]
255,194,7715,5,4,0:0:0:0:
255,194,8273,1,8,0:0:0:0:
255,194,9108,1,0,0:0:0:0:
255,194,9387,1,8,0:0:0:0:
255,194,9944,1,0,0:0:0:0:
255,194,10501,1,8,0:0:0:0:
255,194,11058,1,0,0:0:0:0:
255,194,11337,1,0,0:0:0:0:
255,194,11615,1,8,0:0:0:0:
255,194,12172,1,0,0:0:0:0:
255,194,12729,1,8,0:0:0:0:
255,194,13008,1,8,0:0:0:0:
255,194,13287,1,0,0:0:0:0:
255,194,13844,1,8,0:0:0:0:
255,194,14401,1,0,0:0:0:0:
255,194,15236,1,8,0:0:0:0:
255,194,15515,1,0,0:0:0:0:
255,194,16351,1,8,0:0:0:0:
255,194,16629,1,4,0:0:0:0:
255,194,17186,1,8,0:0:0:0:
255,194,17465,1,0,0:0:0:0:
255,194,17743,1,8,0:0:0:0:
255,194,18300,1,8,0:0:0:0:
255,194,18579,1,8,0:0:0:0:
255,194,19136,1,0,0:0:0:0:
255,194,19415,1,8,0:0:0:0:
255,194,19693,1,8,0:0:0:0:
255,194,19972,1,0,0:0:0:0:
255,194,20529,1,8,0:0:0:0:
255,194,21086,1,0,0:0:0:0:
255,194,21365,1,0,0:0:0:0:
255,194,21643,1,8,0:0:0:0:
255,194,22200,1,0,0:0:0:0:
255,194,22479,1,0,0:0:0:0:
255,194,22757,1,8,0:0:0:0:
255,194,23036,1,8,0:0:0:0:
255,194,23871,1,8,0:0:0:0:
255,194,24150,1,8,0:0:0:0:
255,194,24429,1,0,0:0:0:0:
255,194,24986,1,8,0:0:0:0:
255,194,25543,1,4,0:0:0:0:
255,194,26100,1,8,0:0:0:0:
255,194,26657,1,8,0:0:0:0:
255,194,27214,1,8,0:0:0:0:
255,194,27493,1,0,0:0:0:0:
255,194,28050,1,0,0:0:0:0:
255,194,28328,1,8,0:0:0:0:
255,194,28607,1,8,0:0:0:0:
255,194,28885,1,0,0:0:0:0:
255,194,29443,1,8,0:0:0:0:
255,194,30000,1,0,0:0:0:0:
255,194,30278,1,0,0:0:0:0:
255,194,30557,1,8,0:0:0:0:
255,194,31114,1,0,0:0:0:0:
255,194,31671,1,8,0:0:0:0:
255,194,31949,1,0,0:0:0:0:
255,194,32228,1,0,0:0:0:0:
255,194,32785,1,8,0:0:0:0:
255,194,33064,1,8,0:0:0:0:
255,194,33342,1,0,0:0:0:0:
255,194,33899,1,8,0:0:0:0:
255,194,34456,1,0,0:0:0:0:
255,194,35014,1,8,0:0:0:0:
255,194,35431,1,0,0:0:0:0:
255,194,36128,1,8,0:0:0:0:
255,194,36685,1,0,0:0:0:0:
255,194,37242,1,8,0:0:0:0:
255,194,37660,1,8,0:0:0:0:
255,194,38356,1,8,0:0:0:0:
255,194,38913,1,0,0:0:0:0:
255,194,39331,1,0,0:0:0:0:
255,194,39749,1,8,0:0:0:0:
255,194,40027,1,0,0:0:0:0:
255,194,40306,1,0,0:0:0:0:
255,194,40585,1,8,0:0:0:0:
255,194,41142,1,4,0:0:0:0:
255,194,41560,1,4,0:0:0:0:
255,194,41977,1,12,0:0:0:0:
255,194,42256,1,12,0:0:0:0:
255,194,42813,1,8,0:0:0:0:
255,194,43370,1,4,0:0:0:0:
255,194,43649,1,8,0:0:0:0:
255,194,43788,1,8,0:0:0:0:
255,194,43927,1,8,0:0:0:0:
255,194,44206,1,0,0:0:0:0:
255,194,44763,1,8,0:0:0:0:
255,194,44902,1,8,0:0:0:0:
255,194,45041,1,8,0:0:0:0:
255,194,45320,1,0,0:0:0:0:
255,194,45877,1,8,0:0:0:0:
255,194,46156,1,8,0:0:0:0:
255,194,46434,1,0,0:0:0:0:
255,194,46713,1,8,0:0:0:0:
255,194,47270,1,8,0:0:0:0:
255,194,47827,1,0,0:0:0:0:
255,194,48384,1,8,0:0:0:0:
255,194,48941,1,0,0:0:0:0:
255,194,49220,1,0,0:0:0:0:
255,194,49498,1,8,0:0:0:0:
255,194,50055,1,0,0:0:0:0:
255,194,50334,1,0,0:0:0:0:
255,194,50473,1,0,0:0:0:0:
255,194,50612,1,0,0:0:0:0:
255,194,50891,1,8,0:0:0:0:
255,194,51170,1,0,0:0:0:0:
255,194,51727,1,8,0:0:0:0:
255,194,52284,1,12,0:0:0:0:
256,195,52562,1,8,0:0:0:0:
256,195,52702,1,8,0:0:0:0:
256,195,52841,1,8,0:0:0:0:
256,195,53119,1,0,0:0:0:0:
256,195,53677,1,8,0:0:0:0:
256,195,53816,1,8,0:0:0:0:
256,195,53955,1,8,0:0:0:0:
256,195,54234,1,0,0:0:0:0:
256,195,54791,1,0,0:0:0:0:
256,195,55069,1,0,0:0:0:0:
256,195,55348,1,0,0:0:0:0:
256,195,55626,1,8,0:0:0:0:
256,195,56183,1,8,0:0:0:0:
256,195,56462,1,0,0:0:0:0:
256,195,56741,1,0,0:0:0:0:
256,195,57298,1,0,0:0:0:0:
256,195,57576,1,8,0:0:0:0:
256,195,57855,1,0,0:0:0:0:
256,195,58133,1,0,0:0:0:0:
256,195,58412,1,8,0:0:0:0:
256,195,58969,1,0,0:0:0:0:
256,195,59248,1,8,0:0:0:0:
256,195,59387,1,8,0:0:0:0:
256,195,59526,1,8,0:0:0:0:
256,195,59805,1,0,0:0:0:0:
256,195,60083,1,8,0:0:0:0:
256,195,60362,1,8,0:0:0:0:
256,195,60640,1,0,0:0:0:0:
256,195,61197,1,4,0:0:0:0:
