osu file format v14

[General]
AudioFilename: audio.mp3
AudioLeadIn: 0
PreviewTime: 43092
Countdown: 0
SampleSet: Normal
StackLeniency: 0.7
Mode: 1
LetterboxInBreaks: 0
WidescreenStoryboard: 0

[Editor]
DistanceSpacing: 1
BeatDivisor: 4
GridSize: 4
TimelineZoom: 1

[Metadata]
Title:Whenever, Wherever
TitleUnicode:Whenever, Wherever
Artist:Shakira
ArtistUnicode:Shakira
Creator:Regraz
Version:Kantan
Source:
Tags:Laundry Service Tim Mitchell latin worldbeat PatZar Prophecy Genocide Gero
BeatmapID:972256
BeatmapSetID:453334

[Difficulty]
HPDrainRate:9
CircleSize:4
OverallDifficulty:3
ApproachRate:4
SliderMultiplier:1.4
SliderTickRate:1

[Events]
//Background and Video events
0,0,"BG.jpg",0,65
//Break Periods
//Storyboard Layer 0 (Background)
//Storyboard Layer 1 (Fail)
//Storyboard Layer 2 (Pass)
//Storyboard Layer 3 (Foreground)
//Storyboard Sound Samples

[TimingPoints]
7716,557.103064066852,4,1,0,100,1,0
43370,-100,4,1,0,100,0,1
61197,-100,4,1,0,100,0,0

[HitObjects]
253,193,7715,5,0,0:0:0:0:
253,193,8273,1,8,0:0:0:0:
253,193,9387,1,8,0:0:0:0:
253,193,10501,1,8,0:0:0:0:
253,193,11615,1,8,0:0:0:0:
253,193,12172,1,0,0:0:0:0:
253,193,12729,1,8,0:0:0:0:
253,193,13844,1,8,0:0:0:0:
253,193,14401,1,0,0:0:0:0:
253,193,15515,1,0,0:0:0:0:
253,193,16629,1,4,0:0:0:0:
253,193,17186,1,8,0:0:0:0:
253,193,18300,1,8,0:0:0:0:
253,193,18858,1,0,0:0:0:0:
253,193,19972,1,8,0:0:0:0:
253,193,21086,1,0,0:0:0:0:
253,193,21643,1,8,0:0:0:0:
253,193,22757,1,8,0:0:0:0:
253,193,23314,1,0,0:0:0:0:
253,193,24429,1,0,0:0:0:0:
253,193,25543,1,4,0:0:0:0:
253,193,26100,1,8,0:0:0:0:
253,193,27214,1,8,0:0:0:0:
253,193,27771,1,0,0:0:0:0:
253,193,28885,1,8,0:0:0:0:
253,193,30000,1,0,0:0:0:0:
253,193,30557,1,8,0:0:0:0:
253,193,31671,1,8,0:0:0:0:
253,193,32228,1,0,0:0:0:0:
253,193,33342,1,8,0:0:0:0:
253,193,34456,1,4,0:0:0:0:
253,193,35014,1,8,0:0:0:0:
253,193,36128,1,8,0:0:0:0:
253,193,36685,1,0,0:0:0:0:
253,193,38356,1,8,0:0:0:0:
253,193,38913,1,0,0:0:0:0:
253,193,40585,1,8,0:0:0:0:
253,193,41142,1,4,0:0:0:0:
253,193,42256,1,0,0:0:0:0:
253,193,42813,1,8,0:0:0:0:
253,193,43370,1,4,0:0:0:0:
253,193,43927,1,8,0:0:0:0:
253,193,45041,1,8,0:0:0:0:
253,193,45599,1,0,0:0:0:0:
253,193,46156,1,8,0:0:0:0:
253,193,47270,1,8,0:0:0:0:
253,193,47827,1,0,0:0:0:0:
253,193,48941,1,0,0:0:0:0:
253,193,49498,1,8,0:0:0:0:
253,193,50055,1,0,0:0:0:0:
253,193,51170,1,8,0:0:0:0:
253,193,51727,1,8,0:0:0:0:
253,193,52284,1,4,0:0:0:0:
253,193,52841,1,8,0:0:0:0:
253,193,53955,1,8,0:0:0:0:
253,193,54512,1,0,0:0:0:0:
253,193,55069,1,8,0:0:0:0:
253,193,56183,1,8,0:0:0:0:
253,193,56741,1,0,0:0:0:0:
253,193,57855,1,0,0:0:0:0:
253,193,58412,1,8,0:0:0:0:
253,193,58969,1,0,0:0:0:0:
253,193,60083,1,8,0:0:0:0:
253,193,60640,1,8,0:0:0:0:
253,193,61197,1,4,0:0:0:0:
