osu file format v14

[General]
AudioFilename: audio.mp3
AudioLeadIn: 0
PreviewTime: 43092
Countdown: 0
SampleSet: Normal
StackLeniency: 0.7
Mode: 1
LetterboxInBreaks: 0
WidescreenStoryboard: 1

[Editor]
Bookmarks: 7715,61197
DistanceSpacing: 1
BeatDivisor: 4
GridSize: 32
TimelineZoom: 1

[Metadata]
Title:Whenever, Wherever
TitleUnicode:Whenever, Wherever
Artist:Shakira
ArtistUnicode:Shakira
Creator:Regraz
Version:Gero's Oni
Source:
Tags:Laundry Service Tim Mitchell latin worldbeat PatZar Prophecy Genocide Gero
BeatmapID:1095691
BeatmapSetID:453334

[Difficulty]
HPDrainRate:7
CircleSize:4
OverallDifficulty:6
ApproachRate:10
SliderMultiplier:1.4
SliderTickRate:1

[Events]
//Background and Video events
0,0,"BG.jpg",0,65
//Break Periods
//Storyboard Layer 0 (Background)
//Storyboard Layer 1 (Fail)
//Storyboard Layer 2 (Pass)
//Storyboard Layer 3 (Foreground)
//Storyboard Sound Samples

[TimingPoints]
7716,557.103064066852,4,1,0,100,1,0
43370,-100,4,1,0,100,0,1
61197,-100,4,1,0,100,0,0

[HitObjects]
256,192,7715,5,4,0:0:0:0:
256,192,8133,1,0,0:0:0:0:
256,192,8273,1,8,0:0:0:0:
256,192,8551,1,8,0:0:0:0:
256,192,8830,1,0,0:0:0:0:
256,192,9108,1,0,0:0:0:0:
256,192,9248,1,8,0:0:0:0:
256,192,9387,1,0,0:0:0:0:
256,192,9526,1,0,0:0:0:0:
256,192,9665,1,8,0:0:0:0:
256,192,9944,1,0,0:0:0:0:
256,192,10362,1,0,0:0:0:0:
256,192,10501,1,8,0:0:0:0:
256,192,10780,1,8,0:0:0:0:
256,192,11058,1,0,0:0:0:0:
256,192,11337,1,8,0:0:0:0:
256,192,11476,1,8,0:0:0:0:
256,192,11615,1,0,0:0:0:0:
256,192,11754,1,0,0:0:0:0:
256,192,11894,1,8,0:0:0:0:
256,192,12172,1,0,0:0:0:0:
256,192,12590,1,0,0:0:0:0:
256,192,12729,1,8,0:0:0:0:
256,192,13008,1,8,0:0:0:0:
256,192,13287,1,0,0:0:0:0:
256,192,13565,1,0,0:0:0:0:
256,192,13704,1,8,0:0:0:0:
256,192,13844,1,0,0:0:0:0:
256,192,13983,1,0,0:0:0:0:
256,192,14122,1,8,0:0:0:0:
256,192,14401,1,0,0:0:0:0:
256,192,14819,1,8,0:0:0:0:
256,192,15236,1,0,0:0:0:0:
256,192,15515,1,0,0:0:0:0:
256,192,15933,1,8,0:0:0:0:
256,192,16072,1,0,0:0:0:0:
256,192,16211,1,0,0:0:0:0:
256,192,16351,1,8,0:0:0:0:
256,192,16629,1,0,0:0:0:0:
256,192,16768,1,0,0:0:0:0:
256,192,16908,1,8,0:0:0:0:
256,192,17047,1,8,0:0:0:0:
256,192,17186,1,0,0:0:0:0:
256,192,17465,1,8,0:0:0:0:
256,192,17743,1,0,0:0:0:0:
256,192,18022,1,0,0:0:0:0:
256,192,18161,1,8,0:0:0:0:
256,192,18300,1,0,0:0:0:0:
256,192,18579,1,8,0:0:0:0:
256,192,18858,1,0,0:0:0:0:
256,192,19136,1,8,0:0:0:0:
256,192,19275,1,8,0:0:0:0:
256,192,19415,1,0,0:0:0:0:
256,192,19693,1,8,0:0:0:0:
256,192,19972,1,0,0:0:0:0:
256,192,20250,1,8,0:0:0:0:
256,192,20390,1,0,0:0:0:0:
256,192,20529,1,0,0:0:0:0:
256,192,20668,1,8,0:0:0:0:
256,192,20807,1,0,0:0:0:0:
256,192,21086,1,0,0:0:0:0:
256,192,21225,1,0,0:0:0:0:
256,192,21365,1,8,0:0:0:0:
256,192,21504,1,8,0:0:0:0:
256,192,21643,1,0,0:0:0:0:
256,192,21922,1,8,0:0:0:0:
256,192,22200,1,0,0:0:0:0:
256,192,22479,1,8,0:0:0:0:
256,192,22618,1,8,0:0:0:0:
256,192,22757,1,0,0:0:0:0:
256,192,23036,1,8,0:0:0:0:
256,192,23314,1,0,0:0:0:0:
256,192,23454,1,0,0:0:0:0:
256,192,23593,1,8,0:0:0:0:
256,192,23732,1,0,0:0:0:0:
256,192,23871,1,8,0:0:0:0:
256,192,24150,1,0,0:0:0:0:
256,192,24429,1,8,0:0:0:0:
256,192,24846,1,8,0:0:0:0:
256,192,24986,1,0,0:0:0:0:
256,192,25264,1,8,0:0:0:0:
256,192,25543,1,0,0:0:0:0:
256,192,25682,1,8,0:0:0:0:
256,192,25821,1,0,0:0:0:0:
256,192,25961,1,0,0:0:0:0:
256,192,26100,1,8,0:0:0:0:
256,192,26378,1,8,0:0:0:0:
256,192,26656,1,0,0:0:0:0:
256,192,26935,1,0,0:0:0:0:
256,192,27074,1,8,0:0:0:0:
256,192,27213,1,0,0:0:0:0:
256,192,27492,1,8,0:0:0:0:
256,192,27771,1,0,0:0:0:0:
256,192,27910,1,0,0:0:0:0:
256,192,28049,1,8,0:0:0:0:
256,192,28188,1,8,0:0:0:0:
256,192,28328,1,0,0:0:0:0:
256,192,28606,1,8,0:0:0:0:
256,192,28885,1,0,0:0:0:0:
256,192,29163,1,8,0:0:0:0:
256,192,29303,1,0,0:0:0:0:
256,192,29442,1,0,0:0:0:0:
256,192,29581,1,8,0:0:0:0:
256,192,29720,1,0,0:0:0:0:
256,192,29999,1,0,0:0:0:0:
256,192,30138,1,0,0:0:0:0:
256,192,30278,1,8,0:0:0:0:
256,192,30417,1,8,0:0:0:0:
256,192,30556,1,0,0:0:0:0:
256,192,30835,1,8,0:0:0:0:
256,192,31113,1,0,0:0:0:0:
256,192,31392,1,8,0:0:0:0:
256,192,31531,1,8,0:0:0:0:
256,192,31670,1,0,0:0:0:0:
256,192,31949,1,8,0:0:0:0:
256,192,32227,1,0,0:0:0:0:
256,192,32367,1,0,0:0:0:0:
256,192,32506,1,8,0:0:0:0:
256,192,32645,1,0,0:0:0:0:
256,192,32784,1,8,0:0:0:0:
256,192,33063,1,0,0:0:0:0:
256,192,33342,1,8,0:0:0:0:
256,192,33759,1,8,0:0:0:0:
256,192,33899,1,0,0:0:0:0:
256,192,34177,1,8,0:0:0:0:
256,192,34317,1,8,0:0:0:0:
256,192,34456,1,0,0:0:0:0:
256,192,34596,1,8,0:0:0:0:
256,192,34874,1,0,0:0:0:0:
256,192,35014,1,8,0:0:0:0:
256,192,35292,1,8,0:0:0:0:
256,192,35431,1,0,0:0:0:0:
256,192,35710,1,0,0:0:0:0:
256,192,35849,1,0,0:0:0:0:
256,192,35988,1,8,0:0:0:0:
256,192,36128,1,0,0:0:0:0:
256,192,36406,1,8,0:0:0:0:
256,192,36685,1,0,0:0:0:0:
256,192,36824,1,8,0:0:0:0:
256,192,37103,1,0,0:0:0:0:
256,192,37242,1,8,0:0:0:0:
256,192,37521,1,8,0:0:0:0:
256,192,37660,1,0,0:0:0:0:
256,192,37938,1,0,0:0:0:0:
256,192,38078,1,0,0:0:0:0:
256,192,38217,1,8,0:0:0:0:
256,192,38356,1,0,0:0:0:0:
256,192,38635,1,8,0:0:0:0:
256,192,38913,1,0,0:0:0:0:
256,192,39331,1,0,0:0:0:0:
256,192,39470,1,8,0:0:0:0:
256,192,39749,1,0,0:0:0:0:
256,192,40027,1,8,0:0:0:0:
256,192,40306,1,8,0:0:0:0:
256,192,40445,1,8,0:0:0:0:
256,192,40585,1,0,0:0:0:0:
256,192,40724,1,8,0:0:0:0:
256,192,40863,1,0,0:0:0:0:
256,192,41142,1,4,0:0:0:0:
256,192,41560,1,4,0:0:0:0:
256,192,41977,1,12,0:0:0:0:
256,192,42256,1,4,0:0:0:0:
256,192,42674,1,8,0:0:0:0:
256,192,42813,1,0,0:0:0:0:
256,192,43092,1,8,0:0:0:0:
256,192,43370,1,4,0:0:0:0:
256,192,43649,1,0,0:0:0:0:
256,192,43788,1,0,0:0:0:0:
256,192,43927,1,8,0:0:0:0:
256,192,44206,1,8,0:0:0:0:
256,192,44484,1,0,0:0:0:0:
256,192,44763,1,0,0:0:0:0:
256,192,44902,1,8,0:0:0:0:
256,192,45041,1,8,0:0:0:0:
256,192,45320,1,8,0:0:0:0:
256,192,45599,1,0,0:0:0:0:
256,192,45877,1,0,0:0:0:0:
256,192,46016,1,0,0:0:0:0:
256,192,46156,1,8,0:0:0:0:
256,192,46434,1,0,0:0:0:0:
256,192,46573,1,8,0:0:0:0:
256,192,46713,1,0,0:0:0:0:
256,192,46991,1,0,0:0:0:0:
256,192,47131,1,8,0:0:0:0:
256,192,47270,1,0,0:0:0:0:
256,192,47409,1,0,0:0:0:0:
256,192,47548,1,8,0:0:0:0:
256,192,47827,1,0,0:0:0:0:
256,192,48105,1,8,0:0:0:0:
256,192,48245,1,0,0:0:0:0:
256,192,48523,1,0,0:0:0:0:
256,192,48663,1,8,0:0:0:0:
256,192,48941,1,0,0:0:0:0:
256,192,49220,1,8,0:0:0:0:
256,192,49359,1,8,0:0:0:0:
256,192,49498,1,0,0:0:0:0:
256,192,49777,1,8,0:0:0:0:
256,192,50055,1,0,0:0:0:0:
256,192,50334,1,0,0:0:0:0:
256,192,50473,1,8,0:0:0:0:
256,192,50612,1,0,0:0:0:0:
256,192,50752,1,0,0:0:0:0:
256,192,50891,1,8,0:0:0:0:
256,192,51170,1,0,0:0:0:0:
256,192,51448,1,8,0:0:0:0:
256,192,51587,1,8,0:0:0:0:
256,192,51727,1,8,0:0:0:0:
256,192,51866,1,8,0:0:0:0:
256,192,52005,1,8,0:0:0:0:
256,192,52144,1,8,0:0:0:0:
256,192,52284,1,4,0:0:0:0:
256,192,52562,1,0,0:0:0:0:
256,192,52702,1,0,0:0:0:0:
256,192,52841,1,8,0:0:0:0:
256,192,53119,1,8,0:0:0:0:
256,192,53398,1,0,0:0:0:0:
256,192,53677,1,0,0:0:0:0:
256,192,53816,1,8,0:0:0:0:
256,192,53955,1,8,0:0:0:0:
256,192,54234,1,8,0:0:0:0:
256,192,54512,1,0,0:0:0:0:
256,192,54791,1,0,0:0:0:0:
256,192,54930,1,8,0:0:0:0:
256,192,55069,1,0,0:0:0:0:
256,192,55348,1,8,0:0:0:0:
256,192,55626,1,0,0:0:0:0:
256,192,55905,1,8,0:0:0:0:
256,192,56044,1,0,0:0:0:0:
256,192,56183,1,0,0:0:0:0:
256,192,56323,1,8,0:0:0:0:
256,192,56462,1,0,0:0:0:0:
256,192,56741,1,0,0:0:0:0:
256,192,57019,1,8,0:0:0:0:
256,192,57158,1,0,0:0:0:0:
256,192,57437,1,0,0:0:0:0:
256,192,57576,1,8,0:0:0:0:
256,192,57855,1,0,0:0:0:0:
256,192,58133,1,8,0:0:0:0:
256,192,58273,1,8,0:0:0:0:
256,192,58412,1,0,0:0:0:0:
256,192,58690,1,8,0:0:0:0:
256,192,58969,1,0,0:0:0:0:
256,192,59248,1,8,0:0:0:0:
256,192,59387,1,0,0:0:0:0:
256,192,59526,1,0,0:0:0:0:
256,192,59665,1,8,0:0:0:0:
256,192,59805,1,0,0:0:0:0:
256,192,60083,1,0,0:0:0:0:
256,192,60222,1,0,0:0:0:0:
256,192,60362,1,0,0:0:0:0:
256,192,60501,1,0,0:0:0:0:
256,192,60640,1,8,0:0:0:0:
256,192,60780,1,8,0:0:0:0:
256,192,60919,1,8,0:0:0:0:
256,192,61058,1,8,0:0:0:0:
256,192,61197,1,4,0:0:0:0:
