osu file format v14

[General]
AudioFilename: audio.mp3
AudioLeadIn: 0
PreviewTime: 43193
Countdown: 0
SampleSet: Soft
StackLeniency: 0.7
Mode: 0
LetterboxInBreaks: 0
WidescreenStoryboard: 1

[Editor]
DistanceSpacing: 1.4
BeatDivisor: 4
GridSize: 32
TimelineZoom: 1.9

[Metadata]
Title:Whenever, Wherever
TitleUnicode:Whenever, Wherever
Artist:Shakira
ArtistUnicode:Shakira
Creator:greenhue
Version:Wherever
Source:
Tags:Mao Heatwave -Heatwave- English Pop
BeatmapID:2643271
BeatmapSetID:1272029

[Difficulty]
HPDrainRate:7
CircleSize:4.5
OverallDifficulty:8
ApproachRate:9
SliderMultiplier:1.8
SliderTickRate:1

[Events]
//Background and Video events
0,0,"Shakira.jpg",0,0
Video,-490,"video.mp4"
//Break Periods
2,125896,134010
//Storyboard Layer 0 (Background)
//Storyboard Layer 1 (Fail)
//Storyboard Layer 2 (Pass)
//Storyboard Layer 3 (Foreground)
//Storyboard Layer 4 (Overlay)
//Storyboard Sound Samples

[TimingPoints]
7591,557.103064066852,4,2,0,60,1,0
7591,-83.3333333333333,4,2,0,60,0,0
16504,-62.5,4,2,0,60,0,0
41017,-47.6190476190476,4,2,0,60,0,0
41435,-200,4,2,0,60,0,0
41852,-47.6190476190476,4,2,0,60,0,0
42131,-200,4,2,0,60,0,0
43106,-43.4782608695652,4,2,0,60,0,0
43245,-50,4,2,0,60,0,1
43453,-50,4,2,1,80,0,1
45891,-200,4,2,1,80,0,1
46309,-50,4,2,1,80,0,1
52297,-50,4,2,0,80,0,1
52367,-50,4,2,1,80,0,1
54805,-200,4,2,1,80,0,1
55223,-50,4,2,1,80,0,1
60166,-50,4,2,0,80,0,1
60862,-50,4,2,1,80,0,1
61002,-50,4,2,1,80,0,1
61072,-50,4,2,1,60,0,0
61141,-50,4,2,1,70,0,0
61280,-50,4,2,0,80,0,0
62744,-76.9230769230769,4,2,0,80,0,0
72214,-62.5,4,2,0,80,0,0
72422,-62.5,4,2,0,60,0,0
96727,-47.6190476190476,4,2,0,60,0,0
97145,-200,4,2,0,60,0,0
97562,-47.6190476190476,4,2,0,60,0,0
97841,-200,4,2,0,60,0,0
98816,-43.4782608695652,4,2,0,60,0,0
98955,-50,4,2,0,60,0,1
99163,-50,4,2,1,80,0,1
101601,-200,4,2,1,80,0,1
102019,-50,4,2,1,80,0,1
108007,-50,4,2,0,80,0,1
108077,-50,4,2,1,80,0,1
110515,-200,4,2,1,80,0,1
110933,-50,4,2,1,80,0,1
115876,-50,4,2,0,80,0,1
116573,-50,4,2,1,80,0,1
116712,-50,4,2,1,80,0,1
116783,-50,4,2,1,57,0,0
116851,-50,4,2,1,80,0,0
116991,-50,4,2,0,80,0,0
125904,-50,4,2,0,50,0,0
134610,-83.3333333333333,4,2,0,50,0,0
134818,-83.3333333333333,4,2,0,60,0,0
143524,-83.3333333333333,4,2,0,39,0,0
144638,-83.3333333333333,4,2,0,26,0,0
145752,-50,4,2,0,80,0,1
145960,-50,4,2,1,80,0,1
148398,-200,4,2,1,80,0,1
148816,-50,4,2,1,80,0,1
154804,-50,4,2,0,80,0,1
154874,-50,4,2,1,80,0,1
157102,-50,4,2,1,80,0,1
159609,-50,4,2,1,80,0,1
163718,-50,4,2,0,80,0,1
163787,-50,4,2,1,80,0,1
166226,-200,4,2,1,80,0,1
166643,-50,4,2,1,80,0,1
172631,-50,4,2,0,80,0,1
172701,-50,4,2,1,80,0,1
174929,-50,4,2,1,100,0,1
177158,-50,4,2,1,80,0,1
181407,-76.9230769230769,4,2,1,80,0,0
181614,-76.9230769230769,4,2,0,80,0,0
188439,-76.9230769230769,4,2,0,45,0,0
188510,-100,4,2,0,45,0,0
195334,-100,4,2,0,5,0,0

[Colours]
Combo1 : 98,120,227
Combo2 : 235,222,197
Combo3 : 188,209,235
Combo4 : 195,195,195

[HitObjects]
432,98,7590,6,0,P|438:151|442:207,1,90,0|0,1:0|0:0,0:0:0:0:
424,236,8008,1,0,0:0:0:0:
424,236,8148,1,0,3:0:0:0:
512,145,8426,1,0,0:0:0:0:
238,139,8705,2,0,P|262:169|330:149,1,107.999996704102,0|0,1:0|0:0,0:0:0:0:
347,129,9123,1,0,0:0:0:0:
347,129,9262,2,0,P|338:94|333:67,1,53.9999983520508,0|0,3:0|0:0,0:0:0:0:
384,18,9540,1,0,0:0:0:0:
338,285,9819,6,0,P|283:278|226:271,1,107.999996704102,0|0,1:0|0:0,0:0:0:0:
209,302,10237,1,0,0:0:0:0:
209,302,10376,1,0,3:0:0:0:
275,368,10655,1,0,0:0:0:0:
424,236,10933,2,0,P|429:289|436:349,1,107.999996704102,0|0,1:0|0:0,0:0:0:0:
414,371,11351,1,0,0:0:0:0:
414,371,11490,1,0,3:0:0:0:
508,272,11769,1,0,0:0:0:0:
325,164,12047,6,0,B|297:170|283:192|283:192|257:205|224:196,1,107.999996704102,0|0,1:0|0:0,0:0:0:0:
196,177,12465,1,0,0:0:0:0:
196,177,12604,1,0,3:0:0:0:
355,242,12883,1,0,0:0:0:0:
409,27,13162,2,0,P|354:45|364:93,1,107.999996704102,0|0,1:0|0:0,0:0:0:0:
398,116,13579,1,0,0:0:0:0:
398,116,13719,2,0,P|430:110|461:104,1,53.9999983520508,0|0,3:0|0:0,0:0:0:0:
512,154,13997,1,0,0:0:0:0:
287,12,14276,5,0,1:0:0:0:
287,12,14694,1,0,1:0:0:0:
287,12,14833,1,0,0:0:0:0:
287,12,15111,1,0,3:0:0:0:
253,202,15390,1,0,1:0:0:0:
253,202,15808,1,0,1:0:0:0:
253,202,15947,1,0,0:0:0:0:
253,202,16226,1,0,1:0:0:0:
95,133,16504,5,6,1:2:0:0:
95,133,16643,1,2,0:0:0:0:
95,133,16783,2,0,P|137:138|180:123,1,72,2|2,0:0|0:0,0:0:0:0:
239,8,17061,1,10,0:2:0:0:
248,17,17340,2,0,P|248:57|256:110,1,72,2|0,0:0|0:0,0:0:0:0:
323,204,17618,1,2,1:2:0:0:
335,208,17897,2,0,P|337:164|343:115,1,72,2|0,0:0|0:0,0:0:0:0:
399,0,18175,1,10,0:2:0:0:
412,5,18454,2,0,P|415:46|420:98,1,72,2|0,0:0|0:0,0:0:0:0:
502,250,18733,6,0,B|461:230|426:240|426:240|416:274|369:294,1,144,0|2,1:0|0:0,0:0:0:0:
236,383,19150,1,2,0:0:0:0:
236,383,19290,2,0,P|231:315|227:235,1,144,10|2,0:2|0:0,0:0:0:0:
376,151,19847,2,0,P|360:187|309:217,1,72,2|0,1:2|0:0,0:0:0:0:
216,246,20125,1,2,0:0:0:0:
228,240,20404,2,0,P|259:257|286:294,1,72,10|0,0:2|0:0,0:0:0:0:
289,380,20682,1,2,0:0:0:0:
120,351,20961,5,2,1:2:0:0:
120,351,21100,1,2,0:2:0:0:
120,351,21240,2,0,P|161:347|219:343,1,72,2|2,0:2|0:2,0:0:0:0:
0,239,21518,2,0,B|44:285|101:259|101:259|124:199,1,144,10|2,0:2|0:0,0:0:0:0:
279,59,22075,2,0,P|213:121|153:97,1,144,2|2,1:2|0:0,0:0:0:0:
101,53,22493,1,0,0:0:0:0:
101,53,22632,2,0,P|22:54|-8:113,1,144,10|2,0:0|0:0,0:0:0:0:
113,239,23189,5,2,1:2:0:0:
90,148,23329,1,2,0:0:0:0:
90,148,23468,1,2,0:0:0:0:
90,148,23607,1,2,3:0:0:0:
90,148,23746,1,10,0:2:0:0:
90,148,24025,1,2,3:2:0:0:
203,191,24304,5,2,3:2:0:0:
203,191,24582,1,2,0:2:0:0:
203,191,24721,1,2,3:0:0:0:
203,191,24861,1,10,0:2:0:0:
203,191,25139,1,2,0:2:0:0:
103,310,25418,5,2,1:2:0:0:
103,310,25557,1,2,0:2:0:0:
103,310,25696,2,0,P|108:273|116:208,1,72,2|2,0:2|0:2,0:0:0:0:
352,151,25975,2,0,P|312:143|259:133,1,72,10|0,0:2|0:0,0:0:0:0:
275,121,26253,2,0,P|231:110|191:102,1,72,2|0,0:0|0:0,0:0:0:0:
189,334,26532,2,0,P|195:267|206:157,1,144,2|2,1:2|0:0,0:0:0:0:
395,329,26950,1,0,0:0:0:0:
458,275,27089,2,0,B|454:237|409:222|409:222|382:247|342:246,1,144,10|2,0:2|0:0,0:0:0:0:
289,33,27646,6,0,P|237:79|250:146,1,144,0|2,1:0|0:0,0:0:0:0:
352,151,28064,1,2,0:0:0:0:
352,151,28203,2,0,P|373:117|353:61,1,72,10|0,0:2|0:0,0:0:0:0:
286,15,28482,1,2,0:0:0:0:
288,32,28760,2,0,P|260:58|214:59,1,72,2|0,1:2|0:0,0:0:0:0:
149,167,29039,1,2,0:0:0:0:
162,156,29318,2,0,P|134:130|88:129,1,72,10|0,0:2|0:0,0:0:0:0:
40,44,29596,1,2,0:0:0:0:
15,231,29875,5,2,1:2:0:0:
15,231,30014,1,2,0:2:0:0:
15,231,30153,2,0,P|49:229|92:225,1,72,2|2,0:2|0:2,0:0:0:0:
232,369,30432,2,0,P|235:329|240:284,1,72,10|0,0:2|0:0,0:0:0:0:
227,287,30710,2,0,P|230:244|235:205,1,72,2|0,0:0|0:0,0:0:0:0:
383,100,30989,2,0,B|365:151|310:152|310:152|291:131|257:125,1,144,2|2,1:2|0:0,0:0:0:0:
65,153,31407,1,0,0:0:0:0:
102,82,31546,2,0,P|166:85|159:156,1,144,10|2,0:2|0:0,0:0:0:0:
27,305,32103,6,0,B|26:365|90:378|90:378|130:365,1,144,0|2,1:0|0:0,0:0:0:0:
303,251,32521,1,2,0:0:0:0:
224,242,32660,2,0,P|193:268|187:313,1,72,8|0,0:0|0:0,0:0:0:0:
215,374,32939,1,2,0:0:0:0:
222,384,33217,2,0,P|260:380|315:375,1,72,2|0,1:2|0:0,0:0:0:0:
423,286,33496,1,2,0:0:0:0:
416,272,33774,2,0,P|372:268|323:263,1,72,10|0,0:2|0:0,0:0:0:0:
246,161,34053,1,2,0:0:0:0:
457,32,34331,5,2,1:2:0:0:
383,0,34471,2,0,P|350:80|415:122,1,144,2|2,0:0|0:0,0:0:0:0:
512,215,34889,2,0,B|504:166|456:154|456:154|439:186|408:192,1,144,8|2,0:0|0:0,0:0:0:0:
270,163,35306,2,0,B|326:159|335:214|335:214|289:243|318:295|318:295|327:285|351:278,1,216,2|0,0:0|3:0,0:0:0:0:
416,272,35863,1,0,3:0:0:0:
416,272,36003,1,8,0:0:0:0:
381,356,36281,1,0,3:0:0:0:
179,315,36560,5,2,1:2:0:0:
230,242,36699,2,0,P|155:232|58:223,1,144,2|2,0:0|0:0,0:0:0:0:
33,301,37117,2,0,B|53:329|58:370|58:370|70:335|105:309,1,144,10|2,0:0|0:0,0:0:0:0:
134,147,37535,2,0,B|94:105|88:49|88:49|78:104|31:142,1,216,2|0,0:0|3:0,0:0:0:0:
86,226,38092,1,0,3:0:0:0:
86,226,38231,1,8,0:0:0:0:
86,226,38510,1,0,3:0:0:0:
186,63,38788,6,0,B|241:25|292:57|291:66|292:73|340:107|395:59,1,216,2|2,1:2|0:0,0:0:0:0:
446,12,39345,1,8,0:0:0:0:
322,160,39624,2,0,P|325:201|329:245,1,72,2|0,0:0|0:0,0:0:0:0:
484,343,39902,2,0,B|461:347|436:323|436:323|419:211,1,144,0|0,1:0|3:0,0:0:0:0:
478,164,40320,1,0,3:0:0:0:
478,164,40460,1,8,0:0:0:0:
353,320,40738,1,0,3:0:0:0:
171,159,41017,6,0,P|256:165|390:177,1,188.999994232178,8|0,3:3|0:0,0:0:0:0:
432,73,41435,6,0,P|424:100|413:118,1,45,8|0,3:3|0:0,0:0:0:0:
370,331,41852,6,0,P|350:286|309:252,1,94.499997116089,8|0,3:3|0:0,0:0:0:0:
355,31,42131,6,0,P|345:68|327:95,1,67.5,8|4,3:3|3:3,0:0:0:0:
219,262,42688,5,8,3:3:0:0:
219,262,42967,1,8,3:3:0:0:
137,85,43245,6,0,B|173:58|173:58|248:96|204:181,1,180,0|2,1:0|0:2,0:0:0:0:
10,116,43663,2,0,P|49:194|127:161,1,180,2|0,0:0|0:0,0:0:0:0:
256,16,44081,1,2,0:2:0:0:
246,7,44359,2,0,P|303:-22|401:32,1,180,0|2,1:0|0:2,0:0:0:0:
435,234,44777,2,0,B|401:279|401:279|330:250|353:176,1,180,2|0,0:0|0:0,0:0:0:0:
505,78,45195,1,2,0:2:0:0:
509,92,45474,6,0,P|421:98|316:107,1,180,0|2,1:0|0:2,0:0:0:0:
247,2,45891,2,0,P|252:29|257:56,1,45,2|0,0:0|0:0,0:0:0:0:
242,152,46309,2,0,P|249:103|257:31,1,90,2|0,0:2|0:0,0:0:0:0:
77,50,46588,2,0,P|124:45|214:35,1,90,2|0,1:2|0:0,0:0:0:0:
400,52,46866,2,0,P|355:69|330:112,1,90,2|0,0:2|0:0,0:0:0:0:
166,328,47145,1,10,0:2:0:0:
159,246,47284,1,0,0:0:0:0:
149,171,47423,2,0,P|142:215|135:269,1,90,2|0,0:2|0:0,0:0:0:0:
374,209,47702,6,0,B|353:201|338:182|338:182|260:216|280:298,1,180,2|2,1:2|2:0,0:0:0:0:
482,242,48120,2,0,P|443:320|365:287,1,180,2|0,0:0|0:0,0:0:0:0:
401,125,48538,1,2,0:2:0:0:
403,112,48816,2,0,P|453:131|473:170,1,90,2|0,1:2|0:0,0:0:0:0:
512,18,49095,2,0,P|471:35|429:22,1,90,2|0,0:2|0:0,0:0:0:0:
308,238,49373,2,0,P|303:154|296:58,1,180,10|0,0:2|3:0,0:0:0:0:
351,0,49791,1,0,3:0:0:0:
351,0,49930,5,0,1:0:0:0:
54,74,50209,1,2,0:2:0:0:
54,74,50348,1,2,0:2:0:0:
202,152,50627,1,0,0:0:0:0:
202,152,50766,1,2,0:2:0:0:
139,0,51045,2,0,P|143:52|146:101,1,90,2|0,1:2|0:0,0:0:0:0:
76,244,51323,2,0,P|68:191|93:153,1,90,2|0,0:2|0:0,0:0:0:0:
220,31,51602,1,10,0:2:0:0:
220,31,51880,1,2,1:2:0:0:
202,152,52019,1,0,1:0:0:0:
186,274,52159,6,0,P|244:337|325:311,1,180,4|2,1:0|0:2,0:0:0:0:
512,225,52577,2,0,B|489:286|406:280|406:280|381:238|352:241,1,180,2|0,0:0|0:0,0:0:0:0:
430,190,52994,1,2,0:2:0:0:
438,178,53273,2,0,P|391:105|300:159,1,180,0|2,1:0|0:2,0:0:0:0:
187,275,53691,2,0,P|217:200|291:232,1,180,2|0,0:0|0:0,0:0:0:0:
336,336,54109,1,2,0:2:0:0:
335,320,54387,6,0,B|221:298|280:373|152:354,1,180,0|2,1:0|0:2,0:0:0:0:
81,176,54805,2,0,P|86:201|90:235,1,45,2|0,0:0|0:0,0:0:0:0:
78,323,55223,2,0,P|85:270|97:189,1,90,2|0,0:2|0:0,0:0:0:0:
0,72,55501,2,0,P|36:95|100:81,1,90,2|0,1:2|0:0,0:0:0:0:
234,0,55780,2,0,P|191:12|164:47,1,90,2|0,0:2|0:0,0:0:0:0:
224,249,56058,1,10,0:2:0:0:
236,162,56198,1,0,0:0:0:0:
247,85,56337,2,0,P|253:133|261:183,1,90,2|0,0:2|0:0,0:0:0:0:
460,7,56616,6,0,P|360:62|314:28,1,180,2|2,1:2|2:0,0:0:0:0:
16,97,57033,2,0,P|95:65|159:122,1,180,2|0,0:0|0:0,0:0:0:0:
117,189,57451,1,2,0:2:0:0:
112,201,57730,2,0,P|66:204|19:177,1,90,2|0,1:2|0:0,0:0:0:0:
60,55,58008,2,0,P|105:51|152:78,1,90,2|0,0:2|0:0,0:0:0:0:
237,263,58287,2,0,P|334:310|403:265,1,180,10|0,0:2|3:0,0:0:0:0:
415,170,58705,1,0,3:0:0:0:
415,170,58844,6,0,P|360:125|249:143,1,180,0|2,1:0|0:2,0:0:0:0:
158,276,59262,1,2,0:2:0:0:
158,276,59540,1,0,0:0:0:0:
158,276,59680,1,2,0:2:0:0:
4,155,59958,1,2,1:2:0:0:
1,171,60237,2,0,P|49:165|112:157,1,90,0|0,3:0|3:0,0:0:0:0:
242,29,60515,5,0,3:0:0:0:
206,70,60655,1,0,3:0:0:0:
272,126,60794,1,0,3:0:0:0:
176,183,60933,1,0,3:0:0:0:
266,294,61072,5,6,1:2:0:0:
252,296,61351,1,2,2:0:0:0:
292,236,61490,1,2,2:0:0:0:
363,227,61629,1,10,2:0:0:0:
427,258,61769,1,2,2:0:0:0:
444,333,61908,1,2,2:0:0:0:
444,333,62187,1,2,1:2:0:0:
444,333,62465,1,2,2:2:0:0:
512,109,62744,2,0,B|398:91|459:163|332:146,1,175.499991966248,10|0,0:2|0:0,0:0:0:0:
354,0,63301,5,6,1:2:0:0:
367,5,63579,2,0,P|371:42|359:83,1,58.4999973220826,2|2,2:0|2:0,0:0:0:0:
307,232,63858,1,10,2:0:0:0:
272,165,63997,1,2,2:0:0:0:
200,158,64136,1,2,2:0:0:0:
200,158,64415,1,2,1:2:0:0:
200,158,64694,1,2,2:2:0:0:
497,244,64972,2,0,P|426:212|390:288,1,175.499991966248,10|0,0:2|0:0,0:0:0:0:
426,361,65529,5,6,1:2:0:0:
426,361,65808,1,2,2:0:0:0:
352,361,65947,1,2,2:0:0:0:
281,354,66086,1,10,2:0:0:0:
210,350,66226,1,2,2:0:0:0:
142,350,66365,1,2,2:0:0:0:
142,350,66643,1,2,1:2:0:0:
142,350,66922,1,2,2:2:0:0:
157,132,67201,2,0,B|155:93|224:85|265:169|181:216,1,175.499991966248,10|0,0:2|0:0,0:0:0:0:
122,233,67758,5,6,1:2:0:0:
112,227,68036,2,0,P|93:196|96:166,1,58.4999973220826,2|2,2:0|2:0,0:0:0:0:
250,40,68315,1,10,2:0:0:0:
307,87,68454,1,2,2:0:0:0:
319,167,68593,1,2,2:0:0:0:
319,167,68872,1,2,1:2:0:0:
319,167,69150,1,2,2:2:0:0:
484,258,69429,2,0,P|421:253|352:247,1,116.999994644165,10|2,0:2|3:0,0:0:0:0:
295,242,69847,1,0,0:0:0:0:
295,242,69986,5,8,3:0:0:0:
295,242,70265,1,4,3:0:0:0:
295,242,70404,1,8,3:0:0:0:
295,242,70682,1,4,3:0:0:0:
295,242,70822,1,8,3:0:0:0:
358,362,71100,1,8,3:0:0:0:
232,362,71379,1,4,3:0:0:0:
232,362,71518,1,8,3:0:0:0:
232,362,71797,1,0,3:0:0:0:
232,362,71936,1,8,3:0:0:0:
64,300,72214,5,6,1:2:0:0:
119,235,72354,1,2,0:0:0:0:
70,311,72493,2,0,P|107:326|147:318,1,72,2|2,0:0|0:0,0:0:0:0:
210,264,72772,2,0,P|215:225|203:179,1,72,10|0,0:2|0:0,0:0:0:0:
74,124,73050,1,2,0:0:0:0:
74,136,73329,2,0,P|112:131|163:127,1,72,2|0,1:2|0:0,0:0:0:0:
230,45,73607,1,2,0:0:0:0:
230,33,73886,2,0,P|267:36|319:42,1,72,10|0,0:2|0:0,0:0:0:0:
403,112,74164,1,2,0:0:0:0:
389,106,74443,6,0,P|348:178|382:273,1,144,0|2,1:0|0:0,0:0:0:0:
476,334,74861,1,0,0:0:0:0:
476,334,75000,2,0,B|450:302|410:308|410:308|382:333|344:326,1,144,10|2,0:2|0:0,0:0:0:0:
269,139,75557,2,0,P|261:179|268:220,1,72,2|0,1:2|0:0,0:0:0:0:
346,326,75836,1,2,0:0:0:0:
349,313,76114,2,0,P|311:315|266:318,1,72,10|0,0:2|0:0,0:0:0:0:
175,352,76393,1,2,0:0:0:0:
178,365,76671,6,0,P|136:363|95:360,1,72,2|2,1:2|0:2,0:0:0:0:
32,288,76950,1,2,0:2:0:0:
0,200,77089,1,2,0:2:0:0:
20,278,77228,2,0,B|74:279|74:279|115:226|70:172,1,144,10|2,0:2|0:0,0:0:0:0:
224,80,77785,2,0,P|160:67|148:140,1,144,2|2,1:2|0:0,0:0:0:0:
213,191,78203,1,0,0:0:0:0:
213,191,78343,1,10,0:0:0:0:
213,191,78621,1,2,0:0:0:0:
111,256,78900,5,2,1:2:0:0:
90,158,79039,1,2,0:0:0:0:
90,158,79178,1,2,0:0:0:0:
90,158,79318,1,2,3:0:0:0:
90,158,79457,1,10,0:2:0:0:
90,158,79735,1,2,3:2:0:0:
173,259,80014,1,2,3:2:0:0:
173,259,80292,1,2,0:2:0:0:
173,259,80432,1,2,3:0:0:0:
173,259,80571,1,10,0:2:0:0:
173,259,80850,1,2,0:2:0:0:
342,141,81128,5,2,1:2:0:0:
414,116,81267,1,2,0:2:0:0:
336,127,81407,2,0,P|291:122|231:115,1,72,2|2,0:2|0:2,0:0:0:0:
184,0,81685,2,0,P|187:36|193:87,1,72,10|0,0:2|0:0,0:0:0:0:
177,86,81964,2,0,P|182:126|186:164,1,72,2|0,0:0|0:0,0:0:0:0:
0,101,82242,2,0,P|39:37|105:35,1,144,2|2,1:2|0:0,0:0:0:0:
307,36,82660,1,0,0:0:0:0:
373,90,82799,2,0,B|369:128|324:143|324:143|298:115|257:119,1,144,10|2,0:2|0:0,0:0:0:0:
115,231,83357,6,0,P|180:224|268:215,1,144,0|2,1:0|0:0,0:0:0:0:
346,229,83774,1,2,0:0:0:0:
346,229,83914,2,0,P|336:269|305:291,1,72,10|0,0:2|0:0,0:0:0:0:
158,335,84192,1,2,0:0:0:0:
158,320,84471,2,0,P|195:300|232:309,1,72,2|0,1:2|0:0,0:0:0:0:
330,384,84749,1,2,0:0:0:0:
337,368,85028,2,0,P|376:364|434:359,1,72,10|0,0:2|0:0,0:0:0:0:
512,384,85306,1,2,0:0:0:0:
465,168,85585,5,2,1:2:0:0:
408,228,85724,2,0,P|328:213|302:154,1,144,2|2,0:2|0:2,0:0:0:0:
362,27,86142,2,0,B|391:60|391:60|379:193,1,144,10|2,0:2|0:0,0:0:0:0:
224,300,86699,2,0,P|231:232|241:134,1,144,2|2,1:2|0:0,0:0:0:0:
289,54,87117,1,0,0:0:0:0:
289,54,87256,2,0,P|254:78|209:79,1,72,10|0,0:2|0:0,0:0:0:0:
61,50,87535,1,2,0:0:0:0:
66,38,87813,6,0,P|119:59|145:149,1,144,0|2,1:0|0:0,0:0:0:0:
84,206,88231,1,2,0:0:0:0:
84,206,88370,2,0,P|79:260|99:293,1,72,8|0,0:0|0:0,0:0:0:0:
195,272,88649,2,0,P|199:217|179:184,1,72,2|0,0:0|0:0,0:0:0:0:
5,109,88928,1,2,1:2:0:0:
0,119,89206,2,0,P|39:114|96:108,1,72,2|0,0:0|0:0,0:0:0:0:
154,49,89485,1,10,0:2:0:0:
149,39,89763,2,0,P|188:43|245:50,1,72,2|0,0:0|0:0,0:0:0:0:
435,52,90042,5,2,1:2:0:0:
375,5,90181,2,0,P|313:54|324:124,1,144,2|2,0:0|0:0,0:0:0:0:
125,173,90599,2,0,P|191:137|259:176,1,144,8|2,0:0|0:0,0:0:0:0:
345,337,91017,2,0,B|291:275|334:199|334:199|358:228|404:226,1,216,2|0,0:0|3:0,0:0:0:0:
475,185,91574,1,0,3:0:0:0:
475,185,91713,1,8,0:0:0:0:
392,143,91992,1,0,3:0:0:0:
351,337,92270,5,2,1:2:0:0:
291,384,92409,2,0,P|229:335|240:265,1,144,2|2,0:0|0:0,0:0:0:0:
0,209,92827,2,0,P|64:258|132:220,1,144,8|2,0:0|0:0,0:0:0:0:
273,175,93245,2,0,B|220:211|174:179|174:171|174:162|116:136|67:175,1,216,2|0,0:0|3:0,0:0:0:0:
0,209,93802,1,0,3:0:0:0:
0,209,93941,1,8,0:0:0:0:
2,54,94220,2,0,P|6:94|13:157,1,72,0|0,3:0|0:0,0:0:0:0:
24,338,94499,6,0,B|78:257|78:257|195:266,1,216,2|2,1:2|0:0,0:0:0:0:
270,221,95056,1,8,0:0:0:0:
190,101,95334,2,0,P|195:142|199:181,1,72,2|0,0:0|0:0,0:0:0:0:
353,325,95613,2,0,B|316:298|280:304|280:304|267:338|215:355,1,144,0|0,1:0|3:0,0:0:0:0:
147,361,96031,1,0,3:0:0:0:
147,361,96170,1,8,0:0:0:0:
277,212,96448,1,0,3:0:0:0:
0,100,96727,6,0,P|46:198|146:118,1,188.999994232178,8|0,3:3|0:0,0:0:0:0:
190,101,97145,2,0,P|186:77|184:50,1,45,8|0,3:3|0:0,0:0:0:0:
323,0,97563,2,0,P|316:48|308:93,1,94.499997116089,8|0,3:3|0:0,0:0:0:0:
77,334,97841,2,0,P|97:307|128:295,1,67.5,8|4,3:3|3:3,0:0:0:0:
210,311,98398,1,8,3:3:0:0:
210,311,98677,1,8,3:3:0:0:
98,29,98955,6,0,B|105:100|105:100|97:128|97:128|108:215,1,180,0|2,1:0|0:2,0:0:0:0:
328,166,99373,2,0,P|270:229|199:189,1,180,2|0,0:0|0:0,0:0:0:0:
199,107,99791,1,2,0:2:0:0:
189,97,100070,2,0,P|251:41|319:88,1,180,0|2,1:0|0:2,0:0:0:0:
382,260,100487,2,0,P|450:307|512:251,1,180,2|0,0:0|0:0,0:0:0:0:
499,172,100905,1,2,0:2:0:0:
505,162,101184,6,0,P|436:114|374:170,1,180,0|2,1:0|0:2,0:0:0:0:
286,335,101602,2,0,P|289:310|293:283,1,45,2|0,0:0|0:0,0:0:0:0:
283,189,102019,2,0,P|289:240|300:338,1,90,2|0,0:2|0:0,0:0:0:0:
115,285,102298,2,0,P|162:279|231:271,1,90,2|0,1:2|0:0,0:0:0:0:
436,116,102577,2,0,P|393:132|374:170,1,90,2|0,0:2|0:0,0:0:0:0:
482,353,102855,1,10,0:2:0:0:
474,277,102994,1,0,0:0:0:0:
466,202,103134,2,0,P|462:250|457:317,1,90,2|0,0:2|0:0,0:0:0:0:
181,132,103412,6,0,B|157:166|157:166|217:229|297:181,1,180,2|2,1:2|2:0,0:0:0:0:
33,34,103830,2,0,B|79:53|79:53|71:198,1,180,2|0,0:0|0:0,0:0:0:0:
57,266,104248,1,2,0:2:0:0:
66,274,104526,2,0,P|117:259|147:216,1,90,2|0,1:2|0:0,0:0:0:0:
0,223,104805,2,0,P|32:264|83:274,1,90,2|0,0:2|0:0,0:0:0:0:
303,378,105084,2,0,P|217:303|163:323,1,180,10|0,0:2|3:0,0:0:0:0:
111,384,105501,1,0,3:0:0:0:
111,384,105641,5,0,1:0:0:0:
78,192,105919,1,2,0:2:0:0:
78,192,106058,1,2,0:2:0:0:
32,350,106337,1,0,0:0:0:0:
32,350,106476,1,2,0:2:0:0:
233,208,106755,2,0,P|186:205|141:164,1,90,2|0,1:2|0:0,0:0:0:0:
0,229,107033,1,2,0:2:0:0:
0,229,107312,2,0,P|43:221|77:191,1,90,10|0,0:2|0:0,0:0:0:0:
219,126,107590,1,2,1:2:0:0:
0,145,107730,1,0,1:0:0:0:
135,354,107869,6,0,P|127:266|116:151,1,180,4|2,1:0|0:2,0:0:0:0:
34,38,108287,2,0,B|64:105|130:95|130:95|146:64|181:53,1,180,2|0,0:0|0:0,0:0:0:0:
272,52,108705,1,2,0:2:0:0:
271,38,108983,2,0,P|333:82|281:172,1,180,0|2,1:0|0:2,0:0:0:0:
98,191,109401,2,0,P|171:210|207:112,1,180,2|0,0:0|0:0,0:0:0:0:
192,36,109819,1,2,0:2:0:0:
189,47,110097,6,0,P|101:50|-28:57,1,180,0|2,1:0|0:2,0:0:0:0:
1,10,110515,2,0,P|5:30|10:60,1,45,2|0,0:0|0:0,0:0:0:0:
0,164,110933,2,0,P|6:117|9:68,1,90,2|0,0:2|0:0,0:0:0:0:
198,123,111212,2,0,P|143:124|83:126,1,90,2|0,1:2|0:0,0:0:0:0:
30,282,111490,2,0,P|52:240|110:222,1,90,2|0,0:2|0:0,0:0:0:0:
273,319,111769,1,10,0:2:0:0:
191,312,111908,1,0,0:0:0:0:
116,302,112047,2,0,P|163:295|214:288,1,90,2|0,0:2|0:0,0:0:0:0:
359,125,112326,6,0,P|335:208|249:189,1,180,2|2,1:2|2:0,0:0:0:0:
482,153,112744,2,0,P|408:191|359:125,1,180,2|0,0:0|0:0,0:0:0:0:
405,36,113162,1,2,0:2:0:0:
414,29,113440,2,0,P|369:30|306:33,1,90,2|0,1:2|0:0,0:0:0:0:
192,95,113719,2,0,P|247:94|290:136,1,90,2|0,0:2|0:0,0:0:0:0:
124,157,113997,2,0,P|111:48|166:4,1,180,10|0,0:2|3:0,0:0:0:0:
246,0,114415,1,0,3:0:0:0:
246,0,114554,5,0,1:0:0:0:
32,20,114833,1,2,0:2:0:0:
32,20,114972,1,2,0:2:0:0:
192,95,115251,1,0,0:0:0:0:
192,95,115390,1,2,0:2:0:0:
63,120,115668,2,0,P|61:163|59:214,1,90,2|0,1:2|0:0,0:0:0:0:
61,297,115947,1,0,3:0:0:0:
54,306,116226,5,0,3:0:0:0:
141,271,116365,1,0,3:0:0:0:
209,343,116504,1,0,3:0:0:0:
290,253,116643,1,0,3:0:0:0:
355,375,116783,6,0,P|444:324|533:365,1,180,6|2,1:2|2:0,0:0:0:0:
512,200,117201,1,2,2:0:0:0:
449,243,117340,1,10,2:0:0:0:
376,234,117479,1,2,2:0:0:0:
336,175,117618,1,2,2:0:0:0:
336,175,117897,1,2,1:2:0:0:
336,175,118175,1,2,2:2:0:0:
479,17,118454,2,0,B|486:50|525:74|525:74|470:138|409:113|409:113|419:80|401:51,1,270,10|0,0:2|0:0,0:0:0:0:
331,0,119011,6,0,B|226:-2|274:61|168:58,1,180,6|2,1:2|2:0,0:0:0:0:
86,0,119429,1,2,2:0:0:0:
24,35,119568,1,10,2:0:0:0:
0,102,119707,1,2,2:0:0:0:
30,178,119847,1,2,2:0:0:0:
30,178,120125,1,2,1:2:0:0:
30,178,120404,1,2,2:2:0:0:
168,160,120682,2,0,P|205:260|102:210,1,270,10|0,0:2|0:0,0:0:0:0:
193,0,121240,6,0,P|191:73|279:84,1,180,6|2,1:2|2:0,0:0:0:0:
345,27,121657,1,2,2:0:0:0:
417,25,121797,1,10,2:0:0:0:
477,63,121936,1,2,2:0:0:0:
493,140,122075,1,2,2:0:0:0:
493,140,122354,1,2,1:2:0:0:
493,140,122632,1,2,2:2:0:0:
411,271,122911,2,0,B|342:235|341:144|402:114|402:114|395:169|419:196,1,270,10|0,0:2|0:0,0:0:0:0:
512,241,123468,5,6,1:2:0:0:
512,241,123746,1,2,2:0:0:0:
512,241,123886,1,2,2:0:0:0:
511,241,124164,1,2,2:0:0:0:
511,241,124304,1,2,2:0:0:0:
512,241,124582,1,2,1:2:0:0:
512,241,124861,1,2,2:2:0:0:
511,241,125139,5,0,3:0:0:0:
456,347,125279,1,0,3:0:0:0:
390,267,125418,1,0,3:0:0:0:
342,325,125557,1,0,3:0:0:0:
296,292,125696,1,4,0:0:0:0:
395,330,134610,5,2,1:2:0:0:
360,260,134749,2,0,P|301:248|240:283,1,107.999996704102,2|2,0:0|0:0,0:0:0:0:
210,184,135167,2,0,P|258:147|255:70,1,107.999996704102,8|2,0:0|0:0,0:0:0:0:
351,101,135585,2,0,P|362:156|420:197,2,107.999996704102,2|0|0,0:0|0:0|3:0,0:0:0:0:
375,27,136281,1,8,0:0:0:0:
375,27,136560,1,0,3:0:0:0:
209,0,136838,6,0,B|109:-5|152:46|47:30,1,161.999995056153,2|2,1:2|0:0,0:0:0:0:
6,106,137396,2,0,P|47:116|76:115,1,53.9999983520508,8|0,0:0|0:0,0:0:0:0:
195,89,137674,2,0,P|147:121|132:184,1,107.999996704102,2|0,0:0|1:0,0:0:0:0:
130,254,138092,1,0,0:0:0:0:
278,116,138370,2,0,P|275:188|195:257,1,161.999995056153,0|0,3:0|3:0,0:0:0:0:
215,250,139067,6,0,P|285:229|370:260,1,161.999995056153,2|2,1:2|0:0,0:0:0:0:
422,321,139624,2,0,L|413:374,1,53.9999983520508,8|0,0:0|0:0,0:0:0:0:
454,210,139902,1,2,0:0:0:0:
469,218,140181,2,0,P|465:139|459:44,1,161.999995056153,0|0,1:0|3:0,0:0:0:0:
509,0,140738,1,8,0:0:0:0:
482,117,141017,1,0,3:0:0:0:
286,15,141295,6,0,P|252:45|169:50,1,107.999996704102,2|0,2:2|2:2,2:2:0:0:
106,0,141713,2,0,P|110:48|115:111,1,107.999996704102,2|0,2:2|2:2,2:2:0:0:
125,207,142131,1,2,2:2:0:0:
244,134,142409,6,0,P|136:130|12:125,2,215.999993408203,12|8|4,2:3|3:3|2:0,0:0:0:0:
327,90,143663,5,0,3:0:0:0:
337,124,143802,1,0,3:0:0:0:
316,157,143941,1,0,3:0:0:0:
327,189,144081,1,0,3:0:0:0:
312,218,144220,1,0,3:0:0:0:
322,252,144359,1,0,3:0:0:0:
309,281,144499,1,0,3:0:0:0:
239,345,144638,5,4,3:0:0:0:
232,328,144777,1,4,3:0:0:0:
235,308,144916,1,4,3:0:0:0:
229,295,145056,1,4,3:0:0:0:
232,274,145195,5,4,3:0:0:0:
212,226,145334,1,4,3:0:0:0:
140,197,145474,1,4,3:0:0:0:
68,248,145613,1,4,3:0:0:0:
79,336,145752,6,0,P|146:360|238:300,1,180,0|2,1:0|0:2,0:0:0:0:
79,148,146170,2,0,P|129:77|171:133,1,180,2|0,0:0|0:0,0:0:0:0:
11,267,146588,1,2,0:2:0:0:
0,260,146866,2,0,P|85:249|190:237,1,180,0|2,1:0|0:2,0:0:0:0:
327,326,147284,2,0,P|268:377|234:306,1,180,2|0,0:0|0:0,0:0:0:0:
443,198,147702,1,2,0:2:0:0:
449,180,147980,6,0,B|326:168|385:254|223:212,1,180,0|2,1:0|0:2,0:0:0:0:
284,7,148398,2,0,L|291:57,1,45,2|0,0:0|0:0,0:0:0:0:
300,140,148816,2,0,P|294:93|289:42,1,90,2|0,0:2|0:0,0:0:0:0:
107,23,149095,2,0,P|153:25|234:31,1,90,2|0,1:2|0:0,0:0:0:0:
472,100,149373,2,0,P|426:97|383:95,1,90,2|0,0:2|0:0,0:0:0:0:
219,272,149652,1,10,0:2:0:0:
212,190,149791,1,0,0:0:0:0:
202,115,149930,2,0,P|196:155|188:213,1,90,2|0,0:2|0:0,0:0:0:0:
17,46,150209,6,0,P|105:37|210:27,1,180,2|2,1:2|2:0,0:0:0:0:
8,246,150627,2,0,P|11:163|93:154,1,180,2|0,0:0|0:0,0:0:0:0:
103,332,151045,1,2,0:2:0:0:
113,342,151323,2,0,P|110:299|107:248,1,90,2|0,1:2|0:0,0:0:0:0:
266,236,151602,2,0,P|224:234|182:188,1,90,2|0,0:2|0:0,0:0:0:0:
314,37,151880,2,0,B|315:104|241:117|241:117|209:96|178:108,1,180,10|0,0:2|3:0,0:0:0:0:
93,154,152298,1,0,3:0:0:0:
93,154,152437,5,0,1:0:0:0:
93,154,152716,1,2,0:2:0:0:
93,154,152855,1,2,0:2:0:0:
229,24,153134,1,0,0:0:0:0:
229,24,153273,1,2,0:2:0:0:
6,78,153552,2,0,P|55:73|120:67,1,90,2|0,1:2|0:0,0:0:0:0:
329,106,153830,2,0,P|287:102|215:95,1,90,2|0,0:2|0:0,0:0:0:0:
38,0,154109,1,10,0:2:0:0:
38,0,154387,1,2,1:2:0:0:
93,154,154526,1,0,1:0:0:0:
374,42,154666,6,0,P|290:34|236:122,1,180,4|2,1:0|0:2,0:0:0:0:
267,223,155084,2,0,B|297:241|297:241|372:195|328:118,1,180,2|0,0:0|0:0,0:0:0:0:
137,31,155501,1,2,0:2:0:0:
121,39,155780,2,0,P|151:114|250:87,1,180,0|2,1:0|0:2,0:0:0:0:
24,0,156198,2,0,P|-29:87|10:143,1,180,2|0,0:0|0:0,0:0:0:0:
28,226,156616,2,0,P|72:219|117:213,1,90,2|0,0:2|0:0,0:0:0:0:
343,296,156894,6,0,B|232:282|282:358|167:342,1,180,0|0,1:0|0:0,0:0:0:0:
195,176,157312,1,2,0:0:0:0:
195,176,157451,2,0,P|208:225|186:267,1,90,8|0,0:0|0:0,0:0:0:0:
99,383,157730,2,0,P|91:326|113:289,1,90,2|0,0:2|0:0,0:0:0:0:
404,211,158008,2,0,P|317:209|273:136,1,180,2|2,1:2|0:2,0:0:0:0:
401,4,158426,1,0,0:0:0:0:
421,77,158565,2,0,P|399:118|356:135,1,90,10|0,0:2|0:0,0:0:0:0:
122,61,158844,1,2,0:2:0:0:
119,137,158983,6,0,P|153:168|204:174,1,90,2|2,0:0|1:2,0:0:0:0:
254,47,159262,1,0,0:0:0:0:
254,47,159401,1,2,2:0:0:0:
254,47,159680,2,0,P|262:92|275:148,1,90,10|0,0:2|0:0,0:0:0:0:
314,313,159958,2,0,P|303:265|289:203,1,90,2|0,0:2|0:0,0:0:0:0:
98,85,160237,2,0,P|143:93|206:104,1,90,2|0,1:2|0:0,0:0:0:0:
449,150,160515,2,0,P|399:141|341:131,1,90,2|0,0:2|0:0,0:0:0:0:
94,302,160794,2,0,P|103:220|194:234,1,180,10|0,0:2|3:0,0:0:0:0:
210,333,161212,1,0,3:0:0:0:
210,333,161351,5,0,1:0:0:0:
210,333,161629,1,2,0:2:0:0:
210,333,161769,1,2,0:2:0:0:
210,333,161908,1,10,0:0:0:0:
210,333,162047,1,2,0:0:0:0:
210,333,162187,1,2,0:2:0:0:
210,333,162326,1,2,0:0:0:0:
210,333,162465,1,2,1:2:0:0:
210,333,162744,1,0,3:0:0:0:
210,333,163022,5,0,3:0:0:0:
235,303,163162,1,0,3:0:0:0:
185,244,163301,1,0,3:0:0:0:
250,183,163440,1,0,3:0:0:0:
159,101,163579,6,0,B|95:54|27:103|27:103|35:150,1,180,4|2,1:0|0:2,0:0:0:0:
367,23,163997,2,0,P|412:78|323:95,1,180,2|0,0:0|0:0,0:0:0:0:
231,9,164415,1,2,0:2:0:0:
241,3,164694,2,0,P|245:93|251:204,1,180,0|2,1:0|0:2,0:0:0:0:
71,280,165111,2,0,P|155:315|157:221,1,180,2|0,0:0|0:0,0:0:0:0:
54,111,165529,1,2,0:2:0:0:
39,116,165808,6,0,P|77:186|147:145,1,180,0|2,1:0|0:2,0:0:0:0:
226,55,166226,2,0,P|225:30|224:11,1,45,2|0,0:0|0:0,0:0:0:0:
226,55,166643,2,0,P|228:105|230:145,1,90,2|0,0:2|0:0,0:0:0:0:
53,29,166922,2,0,P|104:35|172:42,1,90,2|0,1:2|0:0,0:0:0:0:
396,77,167201,2,0,P|354:71|307:65,1,90,2|0,0:2|0:0,0:0:0:0:
125,282,167479,1,10,0:2:0:0:
135,202,167618,1,0,0:0:0:0:
147,127,167758,2,0,P|149:173|152:224,1,90,2|0,0:2|0:0,0:0:0:0:
0,27,168036,6,0,B|34:77|86:61|86:61|121:27|175:46,1,180,2|2,1:2|2:0,0:0:0:0:
316,132,168454,2,0,P|249:88|237:162,1,180,2|0,0:0|0:0,0:0:0:0:
305,210,168872,1,2,0:2:0:0:
305,210,169150,2,0,P|350:205|384:168,1,90,2|0,1:2|0:0,0:0:0:0:
442,18,169429,2,0,P|446:63|451:107,1,90,2|0,0:2|0:0,0:0:0:0:
511,353,169707,2,0,P|457:286|364:302,1,180,10|0,0:2|3:0,0:0:0:0:
324,369,170125,1,0,3:0:0:0:
324,369,170265,5,0,1:0:0:0:
466,202,170543,1,2,0:2:0:0:
466,202,170683,1,2,0:2:0:0:
429,372,170961,1,0,0:0:0:0:
429,372,171100,1,2,0:2:0:0:
429,372,171379,2,0,P|426:332|423:283,1,90,2|0,1:2|0:0,0:0:0:0:
355,109,171657,1,2,0:2:0:0:
366,121,171936,2,0,P|361:165|359:213,1,90,10|0,0:2|0:0,0:0:0:0:
340,298,172214,1,2,1:2:0:0:
275,141,172354,1,0,1:0:0:0:
347,313,172493,6,0,P|274:352|225:285,1,180,4|2,1:0|0:2,0:0:0:0:
102,326,172911,2,0,P|177:356|224:279,1,180,2|0,0:0|0:0,0:0:0:0:
40,143,173329,1,2,0:2:0:0:
28,152,173607,2,0,P|44:214|148:200,1,180,0|2,1:0|0:2,0:0:0:0:
165,9,174025,2,0,B|125:-10|125:-10|65:47|120:112,1,180,2|0,0:0|0:0,0:0:0:0:
230,193,174443,1,2,0:2:0:0:
245,205,174721,6,0,B|317:152|379:196|379:202|380:207|431:246|516:197,1,270,0|2,1:0|0:0,0:0:0:0:
478,50,175279,2,0,P|435:80|424:140,1,90,8|0,0:0|0:0,0:0:0:0:
447,273,175557,2,0,P|429:232|391:209,1,90,2|0,0:2|0:0,0:0:0:0:
207,169,175836,2,0,P|294:170|327:79,1,180,2|2,1:2|0:2,0:0:0:0:
285,18,176253,1,0,0:0:0:0:
194,41,176393,2,0,P|216:88|266:101,1,90,10|0,0:2|0:0,0:0:0:0:
395,31,176671,1,2,0:2:0:0:
478,50,176811,6,0,P|456:97|410:117,1,90,2|2,0:0|1:2,0:0:0:0:
118,0,177089,1,0,0:0:0:0:
118,0,177228,2,0,P|107:44|121:93,1,90,2|0,2:0|0:0,0:0:0:0:
254,217,177507,2,0,P|225:181|172:166,1,90,10|0,0:2|0:0,0:0:0:0:
9,181,177785,2,0,P|56:177|118:173,1,90,2|0,0:2|0:0,0:0:0:0:
272,0,178064,2,0,P|250:45|224:98,1,90,2|0,1:2|0:0,0:0:0:0:
304,291,178343,2,0,P|277:253|242:200,1,90,2|0,0:2|0:0,0:0:0:0:
428,131,178621,2,0,P|354:172|355:82,1,180,10|0,0:2|3:0,0:0:0:0:
406,49,179039,1,0,3:0:0:0:
406,49,179178,5,0,1:0:0:0:
512,288,179457,1,2,0:2:0:0:
463,252,179596,1,2,0:2:0:0:
435,288,179735,1,10,0:2:0:0:
405,268,179875,1,2,0:0:0:0:
389,283,180014,1,2,0:2:0:0:
377,273,180153,1,2,0:0:0:0:
366,283,180292,1,2,1:2:0:0:
366,283,180571,5,0,3:0:0:0:
354,278,180710,1,0,3:0:0:0:
338,290,180850,1,0,3:0:0:0:
300,271,180989,1,0,3:0:0:0:
258,312,181128,1,0,3:0:0:0:
203,268,181267,1,0,3:0:0:0:
151,336,181407,6,0,P|155:280|166:186,1,116.999994644165,6|2,1:2|2:0,0:0:0:0:
24,167,181824,1,2,2:0:0:0:
24,167,181964,2,0,P|66:155|86:120,1,58.4999973220826,10|2,2:0|2:0,0:0:0:0:
108,68,182242,1,2,2:0:0:0:
108,68,182521,1,2,1:2:0:0:
108,68,182799,1,2,2:2:0:0:
307,81,183078,2,0,B|251:16|158:79|213:143|239:126,1,175.499991966248,10|0,0:2|0:0,0:0:0:0:
401,163,183635,5,6,1:2:0:0:
395,153,183914,1,2,2:0:0:0:
323,162,184053,1,2,2:0:0:0:
284,222,184192,1,10,2:0:0:0:
284,293,184332,1,2,2:0:0:0:
348,349,184471,1,2,2:0:0:0:
348,349,184750,1,2,1:2:0:0:
348,349,185028,1,2,2:2:0:0:
129,324,185306,2,0,B|141:346|165:383|228:357|228:357|187:364|173:341,1,175.499991966248,10|0,0:2|0:0,0:0:0:0:
195,212,185863,5,6,1:2:0:0:
198,228,186142,2,0,P|149:249|109:232,1,58.4999973220826,2|2,2:0|2:0,0:0:0:0:
63,195,186421,1,10,2:0:0:0:
73,121,186560,1,2,2:0:0:0:
91,53,186699,1,2,2:0:0:0:
91,53,186978,1,2,1:2:0:0:
91,53,187256,1,2,2:2:0:0:
91,53,187535,2,0,B|206:65|155:12|260:23,1,175.499991966248,10|0,0:2|0:0,0:0:0:0:
324,53,188092,6,0,P|318:112|312:179,1,116.999994644165,6|2,1:2|2:0,0:0:0:0:
346,238,188510,2,0,P|388:234|439:228,1,90,2|2,2:0|2:0,0:0:0:0:
491,291,188928,1,2,2:0:0:0:
256,192,189206,12,0,195334,0:0:0:0:
