osu file format v14

[General]
AudioFilename: audio.mp3
AudioLeadIn: 0
PreviewTime: 43193
Countdown: 0
SampleSet: Soft
StackLeniency: 0.7
Mode: 0
LetterboxInBreaks: 0
WidescreenStoryboard: 1

[Editor]
DistanceSpacing: 1.6
BeatDivisor: 16
GridSize: 32
TimelineZoom: 1.1

[Metadata]
Title:Whenever, Wherever
TitleUnicode:Whenever, Wherever
Artist:Shakira
ArtistUnicode:Shakira
Creator:greenhue
Version:Hard
Source:
Tags:Mao Heatwave -Heatwave- English Pop
BeatmapID:2707946
BeatmapSetID:1272029

[Difficulty]
HPDrainRate:5
CircleSize:3.8
OverallDifficulty:6
ApproachRate:7.6
SliderMultiplier:1.8
SliderTickRate:1

[Events]
//Background and Video events
0,0,"Shakira.jpg",0,0
Video,-490,"video.mp4"
//Break Periods
2,125896,133800
//Storyboard Layer 0 (Background)
//Storyboard Layer 1 (Fail)
//Storyboard Layer 2 (Pass)
//Storyboard Layer 3 (Foreground)
//Storyboard Layer 4 (Overlay)
//Storyboard Sound Samples

[TimingPoints]
7591,557.103064066852,4,2,0,60,1,0
7591,-100,4,2,0,60,0,0
16504,-76.9230769230769,4,2,0,60,0,0
41017,-111.111111111111,4,2,0,60,0,0
43245,-71.4285714285714,4,2,0,80,0,1
43453,-71.4285714285714,4,2,1,80,0,1
52297,-71.4285714285714,4,2,0,80,0,1
52367,-71.4285714285714,4,2,1,80,0,1
60166,-71.4285714285714,4,2,0,80,0,1
60862,-71.4285714285714,4,2,1,80,0,1
61002,-71.4285714285714,4,2,1,80,0,1
61072,-90.9090909090909,4,2,1,60,0,0
61141,-90.9090909090909,4,2,1,70,0,0
61280,-90.9090909090909,4,2,0,80,0,0
72214,-76.9230769230769,4,2,0,80,0,0
72422,-76.9230769230769,4,2,0,60,0,0
80292,-100,4,2,0,60,0,0
81128,-76.9230769230769,4,2,0,60,0,0
96727,-111.111111111111,4,2,0,60,0,0
98955,-71.4285714285714,4,2,0,60,0,0
99164,-71.4285714285714,4,2,1,80,0,1
108007,-71.4285714285714,4,2,0,80,0,1
108077,-71.4285714285714,4,2,1,80,0,1
115876,-71.4285714285714,4,2,0,80,0,1
116573,-71.4285714285714,4,2,1,80,0,1
116712,-71.4285714285714,4,2,1,80,0,1
116783,-90.9090909090909,4,2,1,57,0,1
116852,-90.9090909090909,4,2,1,80,0,0
116991,-90.9090909090909,4,2,0,80,0,0
125904,-90.9090909090909,4,2,0,50,0,0
134610,-76.9230769230769,4,2,0,50,0,0
134818,-76.9230769230769,4,2,0,60,0,0
143524,-76.9230769230769,4,2,0,39,0,0
144638,-76.9230769230769,4,2,0,26,0,0
145752,-71.4285714285714,4,2,0,80,0,1
145960,-71.4285714285714,4,2,1,80,0,1
154804,-71.4285714285714,4,2,0,80,0,1
154874,-71.4285714285714,4,2,1,80,0,1
157102,-71.4285714285714,4,2,1,80,0,1
159609,-71.4285714285714,4,2,1,80,0,1
163718,-71.4285714285714,4,2,0,80,0,1
163787,-71.4285714285714,4,2,1,80,0,1
172631,-71.4285714285714,4,2,0,80,0,1
172701,-71.4285714285714,4,2,1,80,0,1
174929,-71.4285714285714,4,2,1,80,0,1
177158,-71.4285714285714,4,2,1,80,0,1
181407,-90.9090909090909,4,2,1,80,0,0
181614,-90.9090909090909,4,2,0,80,0,0
188439,-90.9090909090909,4,2,0,45,0,0

[Colours]
Combo1 : 98,120,227
Combo2 : 235,222,197
Combo3 : 188,209,235
Combo4 : 195,195,195

[HitObjects]
44,122,7590,6,0,P|85:140|149:112,1,90,0|0,1:0|0:0,0:0:0:0:
148,181,8008,1,0,0:0:0:0:
148,181,8148,2,0,P|108:206|90:254,1,90,0|0,3:0|0:0,0:0:0:0:
177,367,8705,2,0,B|236:358|236:358|254:367|254:367|329:357,1,135,0|0,1:0|0:0,0:0:0:0:
357,351,9262,2,0,L|367:305,2,45,0|0|0,3:0|0:0|0:0,0:0:0:0:
455,380,9819,6,0,L|441:234,1,135,0|0,1:0|0:0,0:0:0:0:
442,245,10376,1,0,3:0:0:0:
360,211,10655,1,0,0:0:0:0:
433,161,10933,2,0,L|422:18,1,135,0|0,1:0|0:0,0:0:0:0:
422,26,11490,1,0,3:0:0:0:
505,62,11769,1,0,0:0:0:0:
348,122,12047,6,0,P|295:129|243:102,1,90,0|0,1:0|0:0,0:0:0:0:
261,116,12465,1,0,0:0:0:0:
261,116,12604,1,0,3:0:0:0:
221,34,12883,1,0,0:0:0:0:
167,106,13162,2,0,L|177:249,1,135,0|0,1:0|0:0,0:0:0:0:
137,264,13719,2,0,L|60:245,2,45,0|0|0,3:0|0:0|0:0,0:0:0:0:
182,341,14276,5,0,1:0:0:0:
452,304,15111,1,0,3:0:0:0:
452,304,15390,1,0,1:0:0:0:
452,304,16504,6,0,P|397:310|333:319,1,116.999994644165,6|2,1:2|0:0,0:0:0:0:
335,318,16922,1,2,0:0:0:0:
335,318,17061,2,0,L|354:188,1,116.999994644165,10|2,0:2|0:0,0:0:0:0:
299,86,17618,2,0,P|247:111|179:99,2,116.999994644165,2|2|10,1:2|0:0|0:2,0:0:0:0:
299,86,18454,1,2,0:0:0:0:
351,202,18733,6,0,P|273:193|172:250,1,175.499991966248,0|2,1:0|0:0,0:0:0:0:
187,233,19290,1,10,0:2:0:0:
149,321,19568,1,2,0:0:0:0:
70,278,19847,2,0,L|84:147,1,116.999994644165,2|2,1:2|0:0,0:0:0:0:
32,55,20404,2,0,B|90:80|90:80|142:70,1,116.999994644165,10|2,0:2|0:0,0:0:0:0:
245,9,20961,5,2,1:2:0:0:
245,9,21100,1,2,0:2:0:0:
245,9,21240,2,0,L|239:118,1,58.4999973220826,2|2,0:2|0:2,0:0:0:0:
283,108,21518,2,0,L|408:89,1,116.999994644165,10|2,0:2|0:0,0:0:0:0:
492,161,22075,2,0,P|501:233|474:277,1,116.999994644165,2|2,1:2|0:0,0:0:0:0:
480,270,22493,1,0,0:0:0:0:
480,270,22632,2,0,L|330:257,1,116.999994644165,10|2,0:0|0:0,0:0:0:0:
294,319,23189,5,2,1:2:0:0:
294,319,24025,1,2,3:2:0:0:
294,319,24304,1,2,3:2:0:0:
294,319,25418,6,0,L|285:242,1,58.4999973220826,2|2,1:2|0:2,0:0:0:0:
260,245,25696,1,2,0:2:0:0:
260,245,25836,1,2,0:2:0:0:
260,245,25975,2,0,L|249:128,2,116.999994644165,10|2|2,0:2|0:0|1:2,0:0:0:0:
345,170,26811,1,2,0:0:0:0:
431,238,27089,2,0,L|433:118,1,116.999994644165,10|2,0:2|0:0,0:0:0:0:
475,35,27646,6,0,B|433:10|387:29|387:35|386:41|337:65|279:31,1,175.499991966248,0|2,1:0|0:0,0:0:0:0:
305,42,28203,1,10,0:2:0:0:
195,2,28482,1,2,0:0:0:0:
105,77,28760,2,0,P|175:112|223:99,2,116.999994644165,2|2|10,1:2|0:0|0:2,0:0:0:0:
105,77,29596,1,2,0:0:0:0:
7,142,29875,6,0,L|19:224,1,58.4999973220826,2|2,1:2|0:2,0:0:0:0:
105,234,30153,1,2,0:2:0:0:
105,234,30292,1,2,0:2:0:0:
105,234,30432,2,0,L|97:361,1,116.999994644165,10|2,0:2|0:0,0:0:0:0:
192,281,30989,2,0,P|251:262|303:282,1,116.999994644165,2|2,1:2|0:0,0:0:0:0:
398,215,31546,6,0,P|457:234|509:214,2,116.999994644165,10|2|0,0:2|0:0|1:0,0:0:0:0:
393,221,32242,1,2,0:0:0:0:
388,227,32382,2,0,L|394:158,2,58.4999973220826,2|2|8,0:0|0:0|0:0,0:0:0:0:
487,125,32939,2,0,L|497:8,2,116.999994644165,2|2|2,0:0|1:2|0:0,0:0:0:0:
389,60,33774,2,0,B|337:87|337:87|269:54,1,116.999994644165,10|2,0:2|0:0,0:0:0:0:
193,0,34331,5,2,1:2:0:0:
193,0,34471,2,0,L|200:130,1,116.999994644165,2|2,0:0|0:0,0:0:0:0:
145,141,34889,2,0,L|138:257,1,116.999994644165,8|2,0:0|0:0,0:0:0:0:
177,301,35306,2,0,L|355:284,1,175.499991966248,2|0,0:0|3:0,0:0:0:0:
351,284,35863,1,0,3:0:0:0:
351,284,36003,1,8,0:0:0:0:
263,265,36281,1,0,3:0:0:0:
163,384,36560,5,2,1:2:0:0:
163,384,36699,2,0,P|90:329|89:264,1,116.999994644165,2|2,0:0|0:0,0:0:0:0:
30,284,37117,2,0,P|48:200|75:178,1,116.999994644165,8|2,0:0|0:0,0:0:0:0:
70,123,37535,2,0,B|208:94|165:190|293:167,1,233.999989288331,2|0,0:0|3:0,0:0:0:0:
339,136,38231,1,8,0:0:0:0:
308,35,38510,1,0,3:0:0:0:
449,4,38788,6,0,P|440:79|426:188,1,175.499991966248,2|2,1:2|0:0,0:0:0:0:
427,178,39345,1,8,0:0:0:0:
505,256,39624,1,2,0:0:0:0:
439,332,39902,2,0,P|381:353|319:323,1,116.999994644165,0|0,1:0|3:0,0:0:0:0:
310,314,40320,1,0,3:0:0:0:
310,314,40460,1,8,0:0:0:0:
329,211,40738,1,0,3:0:0:0:
236,172,41017,6,0,P|239:206|236:307,2,121.499996292114,8|8|8,3:3|3:3|3:3,0:0:0:0:
313,111,42131,2,0,P|316:70|246:26,1,121.499996292114,8|4,3:3|3:3,0:0:0:0:
257,25,42688,1,8,3:3:0:0:
257,25,42967,1,8,3:3:0:0:
158,22,43245,6,0,P|77:50|75:92,1,125.999996154785,0|2,1:0|0:2,0:0:0:0:
89,126,43663,2,0,P|119:190|91:243,1,125.999996154785,2|0,0:0|0:0,0:0:0:0:
60,259,44081,1,2,0:2:0:0:
172,347,44359,2,0,P|257:362|292:339,1,125.999996154785,0|2,1:0|0:2,0:0:0:0:
306,319,44777,2,0,P|300:261|243:259,1,125.999996154785,2|0,0:0|0:0,0:0:0:0:
225,288,45195,1,2,0:2:0:0:
192,194,45474,5,0,1:0:0:0:
281,150,45752,1,2,0:2:0:0:
281,150,45891,2,0,P|313:87|276:26,1,125.999996154785,2|0,0:0|0:0,0:0:0:0:
266,18,46309,1,2,0:2:0:0:
143,46,46588,1,2,1:2:0:0:
19,70,46866,1,2,0:2:0:0:
119,145,47145,1,10,0:2:0:0:
229,205,47423,1,2,0:2:0:0:
168,300,47702,6,0,P|80:269|65:231,1,125.999996154785,2|2,1:2|2:0,0:0:0:0:
68,245,48120,2,0,P|101:311|75:360,1,125.999996154785,2|0,0:0|0:0,0:0:0:0:
53,367,48538,1,2,0:2:0:0:
169,384,48816,2,0,L|314:370,1,125.999996154785,2|2,1:2|0:2,0:0:0:0:
393,286,49373,2,0,P|370:221|314:232,1,125.999996154785,10|0,0:2|3:0,0:0:0:0:
306,250,49791,1,0,3:0:0:0:
306,250,49930,5,0,1:0:0:0:
319,142,50209,1,2,0:2:0:0:
319,142,50348,2,0,P|277:78|179:125,1,188.999994232178,2|2,0:2|0:2,0:0:0:0:
178,239,51045,2,0,L|190:386,2,125.999996154785,2|2|10,1:2|0:2|0:2,0:0:0:0:
90,189,51880,1,2,1:2:0:0:
90,189,52019,1,0,1:0:0:0:
90,189,52159,6,0,B|71:213|71:213|22:172|60:103,1,125.999996154785,4|2,1:0|0:2,0:0:0:0:
69,85,52577,2,0,P|124:118|181:100,1,125.999996154785,2|0,0:0|0:0,0:0:0:0:
203,65,52994,1,2,0:2:0:0:
232,181,53273,2,0,P|289:202|344:175,1,125.999996154785,0|2,1:0|0:2,0:0:0:0:
366,140,53691,2,0,P|408:109|479:128,1,125.999996154785,2|0,0:0|0:0,0:0:0:0:
498,159,54109,1,2,0:2:0:0:
437,237,54387,5,0,1:0:0:0:
359,311,54666,1,2,0:2:0:0:
359,311,54805,2,0,P|291:317|219:327,1,125.999996154785,2|0,0:0|0:0,0:0:0:0:
233,324,55223,1,2,0:2:0:0:
289,233,55501,2,0,P|291:171|252:123,1,125.999996154785,2|2,1:2|0:2,0:0:0:0:
202,204,56058,2,0,P|172:214|149:235,1,62.9999980773926,10|0,0:2|0:0,0:0:0:0:
135,317,56337,2,0,P|99:304|75:272,1,62.9999980773926,2|0,0:2|0:0,0:0:0:0:
23,346,56616,6,0,P|43:292|5:208,1,125.999996154785,2|2,1:2|2:0,0:0:0:0:
13,185,57033,2,0,P|-14:121|10:53,1,125.999996154785,2|0,0:0|0:0,0:0:0:0:
28,34,57451,1,2,0:2:0:0:
101,116,57730,2,0,B|163:110|163:110|176:117|176:117|245:110,1,125.999996154785,2|2,1:2|0:2,0:0:0:0:
315,62,58287,1,10,0:2:0:0:
297,185,58565,1,0,3:0:0:0:
297,185,58705,1,0,3:0:0:0:
297,185,58844,5,0,1:0:0:0:
414,141,59123,1,2,0:2:0:0:
414,141,59262,2,0,L|399:271,1,125.999996154785,2|0,0:2|0:0,0:0:0:0:
426,286,59680,1,2,0:2:0:0:
327,364,59958,2,0,B|264:361|264:361|254:367|254:367|195:362,1,125.999996154785,2|0,1:2|3:0,0:0:0:0:
165,366,60376,1,0,3:0:0:0:
165,366,60515,2,0,L|158:303,1,62.9999980773926,0|0,3:0|3:0,0:0:0:0:
129,284,60794,1,0,3:0:0:0:
129,284,60933,1,0,3:0:0:0:
129,284,61072,5,6,1:2:0:0:
66,220,61351,1,2,2:0:0:0:
66,220,61490,1,2,2:0:0:0:
66,220,61629,2,0,L|60:148,2,49.5000015106202,10|2|2,2:0|2:0|2:0,0:0:0:0:
146,149,62187,1,2,1:2:0:0:
72,87,62465,1,2,2:2:0:0:
175,16,62744,2,0,P|248:18|340:23,1,148.50000453186,10|0,0:2|0:0,0:0:0:0:
323,21,63301,6,0,P|273:67|286:134,1,99.0000030212403,6|2,1:2|2:0,0:0:0:0:
308,130,63719,1,2,2:0:0:0:
308,130,63858,2,0,L|384:122,2,49.5000015106202,10|2|2,2:0|2:0|2:0,0:0:0:0:
227,191,64415,1,2,1:2:0:0:
227,191,64694,1,2,2:2:0:0:
318,229,64972,2,0,L|444:215,1,99.0000030212403,10|2,0:2|3:0,0:0:0:0:
478,310,65529,6,0,P|438:353|397:360,1,99.0000030212403,6|2,1:2|2:0,0:0:0:0:
360,358,65947,1,2,2:0:0:0:
360,358,66086,2,0,L|363:305,2,49.5000015106202,10|2|2,2:0|2:0|2:0,0:0:0:0:
268,310,66643,2,0,L|155:321,1,99.0000030212403,2|2,1:2|2:2,0:0:0:0:
87,247,67201,6,0,B|63:171|145:138|145:138|154:168|189:186,1,198.000006042481,10|6,0:2|1:2,0:0:0:0:
272,185,68036,1,2,2:0:0:0:
272,185,68175,1,2,2:0:0:0:
222,102,68454,1,2,2:0:0:0:
222,102,68593,1,2,2:0:0:0:
291,30,68872,1,2,1:2:0:0:
380,70,69150,1,2,2:2:0:0:
378,169,69429,6,0,L|497:164,2,99.0000030212403,10|2|8,0:2|3:0|3:0,0:0:0:0:
356,265,70265,2,0,L|363:313,1,49.5000015106202,4|8,3:0|3:0,0:0:0:0:
274,336,70682,2,0,L|267:288,1,49.5000015106202,4|8,3:0|3:0,0:0:0:0:
225,213,71100,1,8,3:0:0:0:
164,280,71379,2,0,L|151:327,1,49.5000015106202,4|8,3:0|3:0,0:0:0:0:
72,267,71796,2,0,L|59:314,1,49.5000015106202,0|8,3:0|3:0,0:0:0:0:
10,178,72214,6,0,P|65:184|129:193,1,116.999994644165,6|2,1:2|0:0,0:0:0:0:
127,192,72632,1,2,0:0:0:0:
127,192,72771,2,0,L|108:62,1,116.999994644165,10|2,0:2|0:0,0:0:0:0:
218,121,73329,2,0,P|287:134|337:115,2,116.999994644165,2|2|10,1:2|0:0|0:2,0:0:0:0:
188,8,74164,6,0,P|267:-16|355:10,1,175.499991966248,2|2,0:0|0:0,0:0:0:0:
369,30,74721,1,2,0:0:0:0:
415,137,75000,2,0,L|397:271,1,116.999994644165,10|2,0:2|0:0,0:0:0:0:
512,345,75557,2,0,B|453:321|453:321|399:348,1,116.999994644165,2|2,1:2|0:0,0:0:0:0:
376,362,75975,1,0,0:0:0:0:
376,362,76114,2,0,B|317:386|317:386|263:359,1,116.999994644165,10|2,0:2|0:0,0:0:0:0:
181,284,76671,6,0,L|53:293,1,116.999994644165,2|2,1:2|0:2,0:0:0:0:
64,292,77089,1,2,0:2:0:0:
64,292,77228,2,0,L|83:160,2,116.999994644165,10|2|2,0:2|0:0|1:2,0:0:0:0:
0,215,78064,1,2,0:0:0:0:
93,148,78343,1,10,0:0:0:0:
93,148,78621,1,2,0:0:0:0:
44,50,78900,5,2,1:2:0:0:
184,22,79736,1,2,3:2:0:0:
184,22,80015,1,2,3:2:0:0:
290,103,81128,6,0,L|276:180,2,58.4999973220826,2|2|2,1:2|0:2|0:2,0:0:0:0:
290,103,81546,1,2,0:2:0:0:
290,103,81685,2,0,L|434:97,1,116.999994644165,10|2,0:2|0:0,0:0:0:0:
488,182,82242,2,0,P|407:224|406:250,1,116.999994644165,2|2,1:2|0:0,0:0:0:0:
408,355,82799,2,0,L|272:333,1,116.999994644165,10|2,0:2|0:0,0:0:0:0:
175,350,83357,6,0,P|141:275|195:197,1,175.499991966248,0|2,1:0|0:0,0:0:0:0:
207,198,83914,1,10,0:2:0:0:
316,235,84192,1,2,0:0:0:0:
376,109,84471,1,2,1:2:0:0:
272,110,84749,1,2,0:0:0:0:
272,110,84889,1,0,0:0:0:0:
272,110,85028,1,10,0:2:0:0:
161,101,85306,1,2,0:0:0:0:
47,99,85585,5,2,1:2:0:0:
47,99,85724,2,0,L|53:233,1,116.999994644165,2|2,0:2|0:2,0:0:0:0:
45,250,86142,2,0,L|54:391,1,116.999994644165,10|2,0:2|0:0,0:0:0:0:
138,287,86699,2,0,B|188:316|188:316|255:281,1,116.999994644165,2|2,1:2|0:0,0:0:0:0:
239,171,87256,2,0,B|189:142|189:142|122:177,1,116.999994644165,10|2,0:2|0:0,0:0:0:0:
136,301,87813,6,0,B|186:330|186:330|253:295,1,116.999994644165,0|2,1:0|0:0,0:0:0:0:
251,295,88231,1,2,0:0:0:0:
264,283,88370,2,0,B|316:255|316:255|366:284,2,116.999994644165,8|2|2,0:0|0:0|1:2,0:0:0:0:
320,355,89206,1,2,0:0:0:0:
320,355,89345,1,0,0:0:0:0:
320,355,89485,1,10,0:2:0:0:
435,336,89763,1,2,0:0:0:0:
475,228,90042,5,2,1:2:0:0:
475,228,90181,2,0,L|461:36,2,175.499991966248,2|8|2,0:0|0:0|0:0,0:0:0:0:
355,221,91435,1,0,3:0:0:0:
355,221,91574,1,0,3:0:0:0:
355,221,91713,1,8,0:0:0:0:
331,109,91992,1,0,3:0:0:0:
241,48,92270,5,2,1:2:0:0:
241,48,92409,2,0,L|227:240,2,175.499991966248,2|8|2,0:0|0:0|0:0,0:0:0:0:
90,60,93663,1,0,3:0:0:0:
90,60,93802,1,0,3:0:0:0:
90,60,93941,1,8,0:0:0:0:
67,153,94220,1,0,3:0:0:0:
40,247,94499,6,0,P|70:331|160:320,1,175.499991966248,2|2,1:2|0:0,0:0:0:0:
145,331,95056,1,8,0:0:0:0:
245,365,95334,1,2,0:0:0:0:
300,261,95613,2,0,P|260:195|210:192,1,116.999994644165,0|0,1:0|3:0,0:0:0:0:
197,207,96031,1,0,3:0:0:0:
197,207,96170,1,8,0:0:0:0:
245,100,96448,1,0,3:0:0:0:
143,49,96727,6,0,L|129:172,2,121.499996292114,8|8|8,3:3|3:3|3:3,0:0:0:0:
223,11,97841,2,0,P|251:40|332:52,1,121.499996292114,8|4,3:3|3:3,0:0:0:0:
328,52,98398,1,8,3:3:0:0:
408,6,98677,1,8,3:3:0:0:
465,84,98955,6,0,B|455:148|455:148|458:159|458:159|450:221,1,125.999996154785,0|2,1:0|0:2,0:0:0:0:
442,248,99373,2,0,P|366:258|374:182,1,125.999996154785,2|0,0:0|0:0,0:0:0:0:
354,183,99791,1,2,0:2:0:0:
266,273,100070,2,0,P|198:268|107:261,1,125.999996154785,0|2,1:0|0:2,0:0:0:0:
93,280,100487,2,0,L|142:158,1,125.999996154785,2|0,0:0|0:0,0:0:0:0:
162,127,100905,1,2,0:2:0:0:
102,0,101184,6,0,P|46:54|106:66,1,125.999996154785,0|2,1:0|0:2,0:0:0:0:
67,90,101602,2,0,L|258:81,1,188.999994232178,2|2,0:0|0:2,0:0:0:0:
254,81,102298,1,2,1:2:0:0:
367,69,102577,1,2,0:2:0:0:
398,168,102855,1,10,0:2:0:0:
289,186,103134,1,2,0:2:0:0:
325,284,103412,6,0,P|422:273|550:260,2,188.999994232178,2|2|2,1:2|0:0|0:2,0:0:0:0:
222,348,104526,1,2,1:2:0:0:
118,296,104805,1,2,0:2:0:0:
118,296,104944,1,0,0:0:0:0:
118,296,105084,2,0,P|88:231|120:187,1,125.999996154785,10|0,0:2|3:0,0:0:0:0:
153,183,105501,1,0,3:0:0:0:
153,183,105641,5,0,1:0:0:0:
35,139,105919,1,2,0:2:0:0:
35,139,106058,1,2,0:2:0:0:
70,23,106337,1,0,0:0:0:0:
70,23,106476,1,2,0:2:0:0:
189,50,106755,2,0,P|254:60|332:70,1,125.999996154785,2|2,1:2|0:2,0:0:0:0:
391,167,107312,2,0,P|326:177|248:187,1,125.999996154785,10|2,0:2|1:2,0:0:0:0:
253,219,107730,1,0,1:0:0:0:
253,219,107869,6,0,P|243:307|307:347,1,125.999996154785,4|2,1:0|0:2,0:0:0:0:
263,330,108287,2,0,P|202:284|140:297,1,125.999996154785,2|0,0:0|0:0,0:0:0:0:
138,307,108705,1,2,0:2:0:0:
65,245,108983,2,0,P|78:176|92:92,1,125.999996154785,0|2,1:0|0:2,0:0:0:0:
73,74,109401,2,0,B|195:57|135:138|275:115,1,188.999994232178,2|2,0:0|0:2,0:0:0:0:
325,36,110097,6,0,P|285:-11|234:17,1,125.999996154785,0|2,1:0|0:2,0:0:0:0:
223,42,110515,2,0,L|249:179,1,125.999996154785,2|0,0:0|0:0,0:0:0:0:
276,196,110933,1,2,0:2:0:0:
276,196,111212,2,0,L|200:179,1,62.9999980773926,2|0,1:2|0:0,0:0:0:0:
173,259,111490,2,0,L|111:272,1,62.9999980773926,2|0,0:2|0:0,0:0:0:0:
37,212,111769,2,0,B|42:147|42:147|103:177,1,125.999996154785,10|2,0:2|0:2,0:0:0:0:
111,271,112326,5,2,1:2:0:0:
28,318,112604,1,2,2:0:0:0:
28,318,112744,2,0,P|83:370|198:348,1,188.999994232178,2|2,0:0|0:2,0:0:0:0:
283,318,113440,1,2,1:2:0:0:
375,344,113719,1,2,0:2:0:0:
452,279,113997,2,0,L|430:136,1,125.999996154785,10|0,0:2|3:0,0:0:0:0:
431,116,114415,1,0,3:0:0:0:
431,116,114554,5,0,1:0:0:0:
352,197,114833,1,2,0:2:0:0:
352,197,114972,2,0,P|278:181|269:114,1,125.999996154785,2|0,0:2|0:0,0:0:0:0:
257,115,115390,1,2,0:2:0:0:
193,200,115668,2,0,P|84:203|64:162,2,125.999996154785,2|0|0,1:2|3:0|3:0,0:0:0:0:
178,163,116365,1,0,3:0:0:0:
159,127,116504,2,0,P|142:91|113:70,1,62.9999980773926,0|0,3:0|3:0,0:0:0:0:
77,69,116783,5,6,1:2:0:0:
4,161,117062,1,2,2:0:0:0:
4,161,117201,1,2,2:0:0:0:
4,161,117340,2,0,L|-2:233,2,49.5000015106202,10|2|2,2:0|2:0|2:0,0:0:0:0:
111,251,117898,1,2,1:2:0:0:
37,313,118176,1,2,2:2:0:0:
140,384,118455,2,0,B|208:355|208:355|305:377,1,148.50000453186,10|0,0:2|0:0,0:0:0:0:
280,371,119012,6,0,P|230:325|243:258,1,99.0000030212403,6|2,1:2|2:0,0:0:0:0:
258,258,119430,1,2,2:0:0:0:
258,258,119569,2,0,L|334:266,2,49.5000015106202,10|2|2,2:0|2:0|2:0,0:0:0:0:
191,192,120126,1,2,1:2:0:0:
191,192,120405,1,2,2:2:0:0:
257,132,120683,2,0,L|383:146,1,99.0000030212403,10|2,0:2|3:0,0:0:0:0:
422,60,121240,6,0,P|382:17|341:10,1,99.0000030212403,6|2,1:2|2:0,0:0:0:0:
304,12,121658,1,2,2:0:0:0:
304,12,121797,2,0,L|307:65,2,49.5000015106202,10|2|2,2:0|2:0|2:0,0:0:0:0:
217,64,122354,2,0,L|104:53,1,99.0000030212403,2|2,1:2|2:2,0:0:0:0:
20,112,122912,6,0,B|80:147|78:221|78:221|87:178|136:166,1,198.000006042481,10|6,0:2|1:2,0:0:0:0:
168,249,123747,1,2,2:0:0:0:
168,249,123886,1,2,2:0:0:0:
257,211,124165,1,2,2:0:0:0:
257,211,124304,1,2,2:0:0:0:
217,336,124583,1,2,1:2:0:0:
309,298,124861,1,2,2:2:0:0:
408,257,125139,2,0,L|393:321,1,49.5000015106202,0|0,3:0|3:0,0:0:0:0:
415,203,125418,2,0,L|426:251,1,49.5000015106202,0|0,3:0|3:0,0:0:0:0:
386,169,125696,5,4,0:0:0:0:
0,229,134610,6,0,P|85:224|201:218,1,175.499991966248,2|2,1:2|0:0,0:0:0:0:
221,148,135167,2,0,P|191:62|97:54,2,175.499991966248,8|2|0,0:0|0:0|3:0,0:0:0:0:
333,198,136281,2,0,P|394:166|468:181,1,116.999994644165,8|0,0:0|3:0,0:0:0:0:
494,331,136838,6,0,P|422:290|320:303,1,175.499991966248,2|2,1:2|0:0,0:0:0:0:
297,320,137396,1,8,0:0:0:0:
164,275,137674,2,0,P|123:194|204:75,1,233.999989288331,2|0,0:0|3:0,0:0:0:0:
278,8,138510,2,0,B|382:-14|347:69|460:50,1,175.499991966248,8|0,0:0|0:0,0:0:0:0:
441,95,139067,6,0,B|347:78|382:161|278:139,1,175.499991966248,2|2,1:2|0:0,0:0:0:0:
281,139,139624,1,8,0:0:0:0:
352,233,139902,1,2,0:0:0:0:
277,299,140181,2,0,P|210:278|127:277,1,116.999994644165,0|0,1:0|3:0,0:0:0:0:
130,292,140599,1,0,3:0:0:0:
130,292,140738,1,8,0:0:0:0:
48,214,141017,1,0,3:0:0:0:
134,173,141295,6,0,P|125:95|108:-22,2,175.499991966248,8|8|8,3:3|3:3|3:3,0:0:0:0:
235,174,142409,2,0,P|245:116|256:38,1,116.999994644165,8|0,3:3|0:0,0:0:0:0:
327,206,142967,2,0,P|362:157|408:94,1,116.999994644165,8|8,3:3|3:3,0:0:0:0:
379,282,143524,5,0,3:0:0:0:
354,362,145752,6,0,P|435:334|436:288,1,125.999996154785,0|2,1:0|0:2,0:0:0:0:
411,263,146170,2,0,L|423:133,1,125.999996154785,2|0,0:0|0:0,0:0:0:0:
430,98,146588,1,2,0:2:0:0:
340,37,146866,2,0,P|255:22|220:45,1,125.999996154785,0|2,1:0|0:2,0:0:0:0:
205,75,147284,2,0,P|183:21|127:35,1,125.999996154785,2|0,0:0|0:0,0:0:0:0:
108,61,147702,1,2,0:2:0:0:
157,147,147981,5,0,1:0:0:0:
72,193,148259,1,2,0:2:0:0:
72,193,148398,2,0,P|40:256|77:317,1,125.999996154785,2|0,0:0|0:0,0:0:0:0:
93,320,148816,1,2,0:2:0:0:
215,301,149095,1,2,1:2:0:0:
322,286,149373,1,2,0:2:0:0:
419,324,149652,1,10,0:2:0:0:
507,361,149930,1,2,0:2:0:0:
505,269,150209,6,0,P|417:238|402:200,1,125.999996154785,2|2,1:2|2:0,0:0:0:0:
405,214,150627,2,0,P|438:280|412:329,1,125.999996154785,2|0,0:0|0:0,0:0:0:0:
393,347,151045,1,2,0:2:0:0:
274,305,151323,2,0,L|260:160,1,125.999996154785,2|2,1:2|0:2,0:0:0:0:
161,106,151880,2,0,P|138:171|82:160,1,125.999996154785,10|0,0:2|3:0,0:0:0:0:
74,142,152298,1,0,3:0:0:0:
74,142,152437,5,0,1:0:0:0:
109,0,152716,1,2,0:2:0:0:
109,0,152855,2,0,P|151:64|249:17,1,188.999994232178,2|2,0:2|0:2,0:0:0:0:
336,0,153552,2,0,L|324:147,2,125.999996154785,2|2|10,1:2|0:2|0:2,0:0:0:0:
449,35,154387,1,2,1:2:0:0:
449,35,154526,1,0,1:0:0:0:
449,35,154666,6,0,P|503:57|479:121,1,125.999996154785,4|2,1:0|0:2,0:0:0:0:
445,137,155084,2,0,L|464:267,1,125.999996154785,2|0,0:0|0:0,0:0:0:0:
470,317,155501,1,2,0:2:0:0:
355,254,155780,2,0,P|298:233|243:260,1,125.999996154785,0|2,1:0|0:2,0:0:0:0:
221,295,156198,2,0,P|179:326|108:307,1,125.999996154785,2|0,0:0|0:0,0:0:0:0:
89,276,156616,1,2,0:2:0:0:
168,184,156894,6,0,B|183:102|113:78|113:78|58:130,1,188.999994232178,0|2,1:0|0:0,0:0:0:0:
58,138,157451,1,8,0:0:0:0:
35,29,157730,1,2,0:2:0:0:
169,4,158008,2,0,L|332:25,1,125.999996154785,2|2,1:2|0:2,0:0:0:0:
307,111,158426,1,0,0:0:0:0:
307,111,158565,2,0,P|337:101|360:80,1,62.9999980773926,10|0,0:2|0:0,0:0:0:0:
430,129,158844,1,2,0:2:0:0:
430,129,158983,6,0,P|410:183|448:267,1,125.999996154785,2|0,0:0|0:0,0:0:0:0:
447,265,159401,1,2,2:0:0:0:
361,344,159680,2,0,L|225:333,1,125.999996154785,8|2,0:0|0:2,0:0:0:0:
167,247,160237,2,0,L|303:236,2,125.999996154785,2|2|10,1:2|0:2|0:2,0:0:0:0:
105,338,161072,1,0,3:0:0:0:
105,338,161212,1,0,3:0:0:0:
105,338,161351,5,0,1:0:0:0:
18,273,161630,1,2,0:2:0:0:
18,273,161769,1,2,0:2:0:0:
18,273,161908,2,0,L|34:186,1,62.9999980773926,10|2,0:0|0:0,0:0:0:0:
109,191,162187,2,0,L|93:104,1,62.9999980773926,2|2,0:2|0:0,0:0:0:0:
32,46,162465,2,0,B|95:49|95:49|105:43|105:43|164:48,1,125.999996154785,2|0,1:2|3:0,0:0:0:0:
286,0,163022,2,0,L|293:63,1,62.9999980773926,0|0,3:0|3:0,0:0:0:0:
372,50,163301,2,0,L|365:113,1,62.9999980773926,0|0,3:0|3:0,0:0:0:0:
453,128,163579,6,0,B|426:187|426:187|426:198|426:198|403:256,1,125.999996154785,0|2,1:0|0:2,0:0:0:0:
422,283,163997,2,0,P|476:305|512:259,1,125.999996154785,2|0,0:0|0:0,0:0:0:0:
512,230,164415,1,2,0:2:0:0:
399,372,164694,2,0,P|331:367|240:360,1,125.999996154785,0|2,1:0|0:2,0:0:0:0:
242,353,165111,2,0,P|287:328|291:231,1,125.999996154785,2|0,0:0|0:0,0:0:0:0:
297,225,165529,1,2,0:2:0:0:
156,156,165808,6,0,P|212:210|152:222,1,125.999996154785,0|2,1:0|0:2,0:0:0:0:
192,250,166226,2,0,B|85:223|124:302|-7:263,1,188.999994232178,2|2,0:0|0:2,0:0:0:0:
51,180,166922,1,2,1:2:0:0:
32,78,167201,1,2,0:2:0:0:
105,6,167479,1,10,0:2:0:0:
209,12,167758,1,2,0:2:0:0:
265,91,168036,6,0,B|356:76|356:76|368:81|368:81|457:66,2,188.999994232178,2|2|2,1:2|0:0|0:2,0:0:0:0:
208,213,169150,1,2,1:2:0:0:
310,171,169429,1,2,0:2:0:0:
411,253,169708,2,0,P|356:299|305:281,1,125.999996154785,10|0,0:2|3:0,0:0:0:0:
297,268,170125,1,0,3:0:0:0:
297,268,170265,5,0,1:0:0:0:
206,356,170543,1,2,0:2:0:0:
206,356,170682,1,2,0:2:0:0:
112,296,170961,1,0,0:0:0:0:
112,296,171100,1,2,0:2:0:0:
23,221,171379,2,0,P|31:158|40:96,1,125.999996154785,2|2,1:2|0:2,0:0:0:0:
136,0,171936,2,0,P|144:62|153:124,1,125.999996154785,10|2,0:2|1:2,0:0:0:0:
199,124,172354,1,0,1:0:0:0:
199,124,172493,6,0,P|189:212|253:252,1,125.999996154785,4|2,1:0|0:2,0:0:0:0:
254,243,172911,2,0,P|315:197|377:210,1,125.999996154785,2|0,0:0|0:0,0:0:0:0:
394,219,173329,1,2,0:2:0:0:
459,370,173607,2,0,P|396:359|335:347,1,125.999996154785,0|2,1:0|0:2,0:0:0:0:
304,340,174025,2,0,B|182:323|242:404|102:381,1,188.999994232178,2|2,0:0|0:2,0:0:0:0:
102,270,174721,6,0,P|46:297|43:176,1,188.999994232178,0|2,1:0|0:0,0:0:0:0:
15,187,175279,2,0,P|42:122|12:69,1,125.999996154785,8|2,0:0|0:2,0:0:0:0:
100,21,175836,2,0,P|151:56|223:44,1,125.999996154785,2|2,1:2|0:2,0:0:0:0:
251,29,176253,1,0,0:0:0:0:
251,29,176393,2,0,L|236:154,1,125.999996154785,10|2,0:2|0:2,0:0:0:0:
265,189,176811,6,0,L|397:167,1,125.999996154785,2|0,0:0|0:0,0:0:0:0:
424,190,177228,1,2,2:0:0:0:
511,328,177507,2,0,P|456:380|390:373,1,125.999996154785,8|2,0:0|0:2,0:0:0:0:
292,308,178064,1,2,1:2:0:0:
193,360,178343,1,2,0:2:0:0:
89,294,178621,2,0,L|67:151,1,125.999996154785,10|0,0:2|3:0,0:0:0:0:
61,136,179039,1,0,3:0:0:0:
61,136,179178,5,0,1:0:0:0:
155,52,179457,1,2,0:2:0:0:
155,52,179596,1,2,0:2:0:0:
155,52,179735,2,0,L|166:113,1,62.9999980773926,10|2,0:2|0:0,0:0:0:0:
264,65,180014,2,0,L|252:126,1,62.9999980773926,2|2,0:2|0:0,0:0:0:0:
374,119,180292,2,0,B|331:165|331:165|329:176|329:176|293:213,1,125.999996154785,2|0,1:2|3:0,0:0:0:0:
290,297,180710,2,0,P|258:294|231:268,1,62.9999980773926,0|0,3:0|3:0,0:0:0:0:
154,284,180989,1,0,3:0:0:0:
154,284,181128,2,0,P|131:316|98:332,1,62.9999980773926,0|0,3:0|3:0,0:0:0:0:
34,329,181407,5,6,1:2:0:0:
73,197,181685,1,2,2:0:0:0:
73,197,181824,1,2,2:0:0:0:
73,197,181964,2,0,L|60:269,2,49.5000015106202,10|2|2,2:0|2:0|2:0,0:0:0:0:
27,94,182521,1,2,1:2:0:0:
140,105,182799,1,2,2:2:0:0:
231,39,183078,2,0,B|275:74|337:71|337:71|352:31,1,148.50000453186,10|0,0:2|0:0,0:0:0:0:
349,38,183635,6,0,P|307:107|317:133,1,99.0000030212403,6|2,1:2|2:0,0:0:0:0:
353,158,184053,1,2,2:0:0:0:
353,158,184192,2,0,L|419:153,2,49.5000015106202,10|2|2,2:0|2:0|2:0,0:0:0:0:
230,131,184749,1,2,1:2:0:0:
230,131,185028,1,2,2:2:0:0:
273,225,185306,2,0,P|266:274|257:336,1,99.0000030212403,10|2,0:2|3:0,0:0:0:0:
116,360,185863,6,0,P|86:328|93:261,1,99.0000030212403,6|2,1:2|2:0,0:0:0:0:
68,237,186281,1,2,2:0:0:0:
68,237,186421,2,0,P|94:202|116:194,2,49.5000015106202,10|2|2,2:0|2:0|2:0,0:0:0:0:
8,142,186978,1,2,1:2:0:0:
75,54,187256,1,2,2:2:0:0:
75,54,187396,1,0,0:0:0:0:
75,54,187535,2,0,L|228:65,1,148.50000453186,10|0,0:2|0:0,0:0:0:0:
265,31,188092,5,6,1:2:0:0:
