osu file format v14

[General]
AudioFilename: audio.mp3
AudioLeadIn: 0
PreviewTime: 43092
Countdown: 0
SampleSet: Normal
StackLeniency: 0.7
Mode: 1
LetterboxInBreaks: 0
WidescreenStoryboard: 0

[Editor]
DistanceSpacing: 1
BeatDivisor: 4
GridSize: 4
TimelineZoom: 1

[Metadata]
Title:Whenever, Wherever
TitleUnicode:Whenever, Wherever
Artist:Shakira
ArtistUnicode:Shakira
Creator:Regraz
Version:Futsuu
Source:
Tags:Laundry Service Tim Mitchell latin worldbeat PatZar Prophecy Genocide Gero
BeatmapID:972266
BeatmapSetID:453334

[Difficulty]
HPDrainRate:9
CircleSize:4
OverallDifficulty:4
ApproachRate:4
SliderMultiplier:1.4
SliderTickRate:1

[Events]
//Background and Video events
0,0,"BG.jpg",0,65
//Break Periods
//Storyboard Layer 0 (Background)
//Storyboard Layer 1 (Fail)
//Storyboard Layer 2 (Pass)
//Storyboard Layer 3 (Foreground)
//Storyboard Sound Samples

[TimingPoints]
7716,557.103064066852,4,1,0,100,1,0
43370,-100,4,1,0,100,0,1
61197,-100,4,1,0,100,0,0

[HitObjects]
254,191,7715,5,4,0:0:0:0:
254,190,8273,1,8,0:0:0:0:
254,190,9108,1,0,0:0:0:0:
254,190,9387,1,8,0:0:0:0:
254,191,9944,1,0,0:0:0:0:
254,190,10502,1,8,0:0:0:0:
254,190,11058,1,0,0:0:0:0:
254,190,11337,1,0,0:0:0:0:
254,190,11616,1,8,0:0:0:0:
254,190,12172,1,0,0:0:0:0:
254,189,12730,1,8,0:0:0:0:
254,189,13565,1,0,0:0:0:0:
254,189,13844,1,8,0:0:0:0:
254,190,14401,1,0,0:0:0:0:
254,190,15236,1,0,0:0:0:0:
254,190,15515,1,0,0:0:0:0:
254,190,16629,1,4,0:0:0:0:
254,190,17743,1,0,0:0:0:0:
254,190,18300,1,8,0:0:0:0:
254,190,18858,1,0,0:0:0:0:
254,190,19136,1,0,0:0:0:0:
254,190,19415,1,8,0:0:0:0:
254,190,19972,1,0,0:0:0:0:
254,190,20529,1,8,0:0:0:0:
254,190,21086,1,0,0:0:0:0:
254,190,22200,1,0,0:0:0:0:
254,190,22757,1,8,0:0:0:0:
254,190,23314,1,0,0:0:0:0:
254,190,23871,1,8,0:0:0:0:
254,190,24149,1,8,0:0:0:0:
254,190,24429,1,0,0:0:0:0:
254,190,24986,1,8,0:0:0:0:
254,190,25543,1,4,0:0:0:0:
254,190,26657,1,0,0:0:0:0:
254,190,27214,1,8,0:0:0:0:
254,190,27771,1,0,0:0:0:0:
254,190,28328,1,8,0:0:0:0:
254,190,28607,1,8,0:0:0:0:
254,190,28885,1,0,0:0:0:0:
254,190,29443,1,8,0:0:0:0:
254,190,30000,1,0,0:0:0:0:
254,190,31114,1,0,0:0:0:0:
254,190,31392,1,0,0:0:0:0:
254,190,31671,1,8,0:0:0:0:
254,190,32228,1,0,0:0:0:0:
254,190,32785,1,8,0:0:0:0:
254,190,33621,1,0,0:0:0:0:
254,190,33899,1,8,0:0:0:0:
254,190,34456,1,4,0:0:0:0:
254,190,36128,1,8,0:0:0:0:
254,190,36406,1,8,0:0:0:0:
254,190,36685,1,0,0:0:0:0:
254,190,38356,1,8,0:0:0:0:
254,190,38635,1,8,0:0:0:0:
254,190,38913,1,0,0:0:0:0:
254,190,40585,1,8,0:0:0:0:
254,190,40863,1,0,0:0:0:0:
254,190,41142,1,4,0:0:0:0:
254,190,42256,1,4,0:0:0:0:
254,190,42813,1,12,0:0:0:0:
254,190,43370,1,4,0:0:0:0:
254,190,43927,1,8,0:0:0:0:
254,190,44206,1,0,0:0:0:0:
254,190,44484,1,0,0:0:0:0:
254,190,45041,1,8,0:0:0:0:
254,190,45599,1,0,0:0:0:0:
248,190,46156,1,8,0:0:0:0:
248,190,46434,1,0,0:0:0:0:
248,190,46713,1,0,0:0:0:0:
248,190,47270,1,8,0:0:0:0:
248,190,47827,1,0,0:0:0:0:
248,190,48941,1,0,0:0:0:0:
248,190,49498,1,8,0:0:0:0:
248,190,50055,1,0,0:0:0:0:
248,190,50612,1,8,0:0:0:0:
248,190,51170,1,8,0:0:0:0:
248,190,51448,1,0,0:0:0:0:
248,190,51727,1,8,0:0:0:0:
248,190,52284,1,4,0:0:0:0:
248,190,52841,1,8,0:0:0:0:
248,190,53119,1,0,0:0:0:0:
248,190,53398,1,0,0:0:0:0:
248,190,53955,1,8,0:0:0:0:
248,190,54512,1,0,0:0:0:0:
248,190,55069,1,8,0:0:0:0:
248,190,55626,1,0,0:0:0:0:
248,190,55905,1,8,0:0:0:0:
248,190,56183,1,8,0:0:0:0:
248,190,56741,1,0,0:0:0:0:
248,190,57855,1,0,0:0:0:0:
248,190,58133,1,0,0:0:0:0:
248,190,58412,1,8,0:0:0:0:
248,190,58969,1,0,0:0:0:0:
248,190,59526,1,8,0:0:0:0:
248,190,60083,1,0,0:0:0:0:
248,190,60362,1,0,0:0:0:0:
248,190,60640,1,8,0:0:0:0:
248,190,60919,1,8,0:0:0:0:
248,190,61197,1,4,0:0:0:0:
