osu file format v14

[General]
AudioFilename: audio.mp3
AudioLeadIn: 0
PreviewTime: 213489
Countdown: 0
SampleSet: Soft
StackLeniency: 0.7
Mode: 0
LetterboxInBreaks: 0
WidescreenStoryboard: 1

[Editor]
Bookmarks: 37859,52977,68095,83213,98331,105890,121008,136126,151244,166363,173922,181481,196599,198489,213607
DistanceSpacing: 0.9
BeatDivisor: 4
GridSize: 4
TimelineZoom: 2.1

[Metadata]
Title:Ojos Asi
TitleUnicode:Ojos Así
Artist:Shakira
ArtistUnicode:Shakira
Creator:Krisom
Version:Intermedio
Source:
Tags:Spanish Español Latin Pop Rock Arabic Donde Estan Los Ladrones? Colombia Eyes Like Yours Espanol
BeatmapID:3952264
BeatmapSetID:1915703

[Difficulty]
HPDrainRate:4
CircleSize:3.3
OverallDifficulty:4.5
ApproachRate:5.5
SliderMultiplier:1.8
SliderTickRate:1

[Events]
//Background and Video events
0,0,"starry-nights-in-a-middle-eastern-desert.jpg",0,0
//Break Periods
2,98531,104765
2,166562,180356
//Storyboard Layer 0 (Background)
//Storyboard Layer 1 (Fail)
//Storyboard Layer 2 (Pass)
//Storyboard Layer 3 (Foreground)
//Storyboard Layer 4 (Overlay)
//Storyboard Sound Samples

[TimingPoints]
15182,472.44094488189,4,2,1,60,1,0
52977,-100,4,2,1,65,0,0
68095,-100,4,2,1,77,0,1
83213,-100,4,2,1,70,0,0
105890,-100,4,2,1,60,0,0
121008,-100,4,2,1,65,0,0
136126,-100,4,2,1,77,0,1
151244,-100,4,2,1,70,0,0
181481,-100,4,2,1,60,0,0
196599,-100,4,2,1,77,0,0
198489,-100,4,2,1,70,0,0
212544,-100,4,2,1,66,0,0
212780,-100,4,2,1,74,0,0
213016,-100,4,2,1,79,0,0
213252,-100,4,2,1,84,0,0
213607,-100,4,2,1,88,0,1
228134,-100,4,2,1,77,0,0
228252,-100,4,2,1,88,0,1
228370,-100,4,2,1,77,0,0
229197,-100,4,2,1,66,0,0
230142,-100,4,2,1,55,0,0
231087,-100,4,2,1,44,0,0
232032,-100,4,2,1,33,0,0
232977,-100,4,2,1,22,0,0
233685,-100,4,2,1,11,0,0
234158,-100,4,2,1,5,0,0

[Colours]
Combo1 : 99,67,252
Combo2 : 145,27,207

[HitObjects]
84,131,37859,6,0,P|221:35|392:94,1,360,4|2,1:2|1:3,0:0:0:0:
434,161,39040,1,8,0:0:0:0:
376,217,39276,1,8,3:1:0:0:
437,269,39512,6,0,B|383:326|287:290|298:254|230:223|183:254,1,270,8|8,0:1|3:1,0:0:0:0:
65,359,40693,2,0,P|79:312|50:262,1,90,2|8,1:3|0:0,0:0:0:0:
30,202,41166,1,8,3:1:0:0:
42,121,41402,6,0,B|102:92|134:128|141:174|166:163|180:185|220:145|293:125|354:160|359:217,1,360,8|8,0:1|0:0,0:0:0:0:
396,285,42583,2,0,P|356:292|306:274,2,90,2|8|8,1:3|0:0|3:1,0:0:0:0:
435,214,43292,6,0,P|418:150|496:83,1,180
498,163,44000,1,8,3:1:0:0:
500,325,44473,2,0,P|460:300|414:303,2,90,2|2|0,1:2|0:3|3:0,0:0:0:0:
468,171,45418,6,0,B|443:128|386:113|339:146|346:185|229:220|140:140,1,360,4|2,1:3|1:3,0:0:0:0:
80,85,46599,1,8,0:0:0:0:
44,157,46835,1,8,3:1:0:0:
77,230,47071,6,0,P|286:290|468:170,1,450,8|2,0:1|1:2,0:0:0:0:
499,94,48489,1,8,0:0:0:0:
470,18,48725,1,8,3:1:0:0:
394,46,48961,6,0,B|336:24|336:74|336:145|301:135|279:160|244:95|215:46|194:70|158:53|162:103|165:177|108:145|87:181|30:145|19:103,1,450,8|2,0:1|1:3,0:0:0:0:
0,33,50378,1,8,0:0:0:0:
75,3,50615,1,8,3:1:0:0:
155,14,50851,6,0,B|212:21|226:71|226:71|244:152,1,180
281,223,51559,2,0,P|234:230|188:208,1,90,2|2,3:3|0:0,0:0:0:0:
142,153,52032,2,0,P|100:136|56:144,2,90,2|2|2,1:2|0:0|3:3,0:0:0:0:
64,296,52977,5,4,3:1:0:0:
72,376,53213,1,2,0:0:0:0:
148,344,53449,1,2,1:1:0:0:
364,344,54158,1,2,0:0:0:0:
440,376,54394,1,2,1:1:0:0:
444,212,54867,5,2,3:3:0:0:
436,132,55103,1,2,0:0:0:0:
360,164,55339,1,2,1:1:0:0:
152,164,56048,1,2,0:0:0:0:
76,132,56284,1,2,1:3:0:0:
76,213,56520,1,2,0:0:0:0:
44,288,56756,6,2,B|44:366|118:387|197:373|204:327|215:263|256:244|293:263|304:327|311:373|389:387|464:366|464:288,1,540,4|0,3:1|1:0,0:0:0:0:
319,153,58646,6,0,P|254:135|190:153,2,135,2|2|2,3:2|0:3|0:0,0:0:0:0:
343,77,59591,2,0,P|256:54|169:77,1,180,2|8,3:3|1:1,0:0:0:0:
108,224,60536,5,4,3:1:0:0:
51,167,60772,1,2,0:0:0:0:
80,92,61008,1,2,1:1:0:0:
256,268,61717,1,2,0:2:0:0:
256,268,61953,1,2,1:1:0:0:
401,224,62426,5,2,3:3:0:0:
458,167,62662,1,2,0:0:0:0:
429,92,62898,1,2,1:1:0:0:
194,139,63607,1,2,0:3:0:0:
254,192,63843,1,2,1:2:0:0:
315,139,64079,1,2,0:3:0:0:
378,91,64315,6,2,P|400:213|296:296,1,270,6|2,3:1|0:0,0:0:0:0:
216,296,65260,2,2,P|116:220|136:88,1,270,6|2,3:1|0:0,0:0:0:0:
192,32,66205,5,0,1:0:0:0:
339,225,66914,2,0,B|293:252|255:232|256:224|211:203|167:226,2,180,8|2|0,1:1|1:2|0:0,0:0:0:0:
418,246,68095,6,0,P|418:196|389:164,1,90,8|0,3:1|0:0,0:0:0:0:
333,117,68567,1,8,1:2:0:0:
176,117,69040,2,0,P|134:131|111:168,1,90,8|0,3:1|0:0,0:0:0:0:
91,245,69512,1,8,1:2:0:0:
226,331,69985,6,0,B|275:302|317:324|355:342|405:302,1,180,8|2,3:1|1:3,0:0:0:0:
427,230,70693,1,0,0:0:0:0:
465,158,70930,2,0,P|421:114|312:140,1,180,8|2,3:1|1:2,0:0:0:0:
279,294,71874,6,0,P|324:300|365:285,1,90,8|0,3:1|0:0,0:0:0:0:
427,230,72347,1,8,1:2:0:0:
327,102,72819,2,0,P|285:86|241:92,1,90,8|0,3:1|0:0,0:0:0:0:
165,121,73292,1,8,1:2:0:0:
169,282,73764,6,0,B|215:299|240:260|256:262|272:260|298:298|344:281,1,180,8|2,3:1|1:3,0:0:0:0:
381,209,74473,1,0,0:0:0:0:
340,140,74709,2,0,B|288:128|256:160|256:160|224:128|172:140,1,180,8|2,3:1|1:2,0:0:0:0:
23,202,75654,6,0,P|26:155|8:109,1,90,8|0,3:2|0:0,0:0:0:0:
0,34,76126,2,2,B|43:26|82:65|82:65|129:36|172:56,1,180,2|8,1:1|3:1,0:1:0:0:
239,99,76835,2,0,P|300:103|332:78,1,90,0|2,0:0|1:3,0:0:0:0:
385,236,77544,6,0,P|442:219|491:147,2,135,8|2|8,3:1|0:0|0:1,0:0:0:0:
324,292,78489,2,0,P|280:308|236:304,1,90,8|0,3:2|0:0,0:0:0:0:
220,224,78961,2,0,P|264:208|308:212,1,90,8|8,1:1|0:1,0:0:0:0:
385,236,79433,6,0,P|430:227|465:191,1,90,4|0,3:2|0:0,0:0:0:0:
394,154,79906,1,2,3:3:0:0:
256,68,80378,1,4,3:2:0:0:
118,154,80851,1,2,3:2:0:0:
100,316,81323,6,0,P|143:330|190:319,1,90,4|2,3:2|0:3,0:0:0:0:
147,249,81796,2,0,L|241:230,1,90,4|2,3:2|0:3,0:0:0:0:
203,156,82268,2,0,P|163:156|124:123,1,90,4|2,3:2|0:3,0:0:0:0:
189,78,82741,1,6,3:2:0:0:
319,53,83213,6,0,P|383:45|450:88,2,135,8|8|8,3:0|0:3|0:3,0:0:0:0:
254,103,84158,2,0,B|232:145|256:166|275:184|257:234,2,135,8|8|8,3:3|0:3|0:3,0:0:0:0:
190,53,85103,2,0,P|125:45|58:88,2,135,8|8|8,3:3|0:3|0:3,0:0:0:0:
176,132,86048,1,8,3:1:0:0:
336,132,86520,1,10,1:3:0:0:
256,272,86993,6,0,P|180:313|104:272,1,180,8|8,3:3|1:3,0:0:0:0:
188,132,87937,1,8,3:3:0:0:
256,92,88174,1,2,0:3:0:0:
324,132,88410,1,10,1:3:0:0:
408,272,88882,6,0,P|332:313|256:272,1,180,8|8,3:3|1:2,0:0:0:0:
344,136,89827,2,0,L|254:118,1,90,8|0,3:3|0:0,0:0:0:0:
200,56,90300,2,0,L|111:74,1,90,8|8,1:2|0:3,0:0:0:0:
108,156,90772,6,0,P|152:150|187:177,1,90,8|0,3:2|0:0,0:0:0:0:
128,232,91244,2,0,B|192:222|192:222|259:211|274:147,2,180,2|8|2,1:1|3:1|1:3,0:0:0:0:
80,76,92662,6,0,B|127:85|147:43|159:23|214:40,2,135,8|2|8,3:1|0:0|0:1,0:0:0:0:
32,144,93607,2,0,P|97:161|163:144,2,135,8|2|8,3:2|0:0|0:1,0:0:0:0:
28,224,94552,6,0,P|69:247|90:285,1,90,4|0,3:2|0:0,0:0:0:0:
164,312,95024,1,2,3:3:0:0:
256,176,95496,1,4,3:2:0:0:
348,312,95969,1,2,3:2:0:0:
460,196,96441,6,0,L|364:164,1,90,4|2,3:2|0:3,0:0:0:0:
396,88,96914,2,0,P|346:88|306:120,1,90,4|2,3:2|0:3,0:0:0:0:
256,168,97386,2,0,P|217:168|178:200,1,90,4|2,3:2|0:3,0:0:0:0:
172,280,97859,2,0,B|215:309|256:288|256:280|297:260|345:285,1,180,6|4,3:2|3:1,0:0:0:0:
393,139,105890,6,0,P|254:44|88:119,1,360,4|2,1:2|1:3,0:0:0:0:
15,141,107071,1,8,0:0:0:0:
1,220,107307,1,8,3:1:0:0:
66,267,107543,6,0,B|119:324|215:288|204:252|269:227|321:255,1,270,8|8,0:1|3:1,0:0:0:0:
436,356,108724,2,0,P|421:309|450:259,1,90,2|8,1:3|0:0,0:0:0:0:
486,209,109197,1,8,3:1:0:0:
503,130,109433,6,0,B|452:122|423:161|423:161|372:141|340:171,1,180,8|2,0:1|0:3,0:0:0:0:
260,153,110142,1,8,3:2:0:0:
98,139,110614,2,0,P|56:154|12:147,2,90,2|8|8,1:3|0:2|3:1,0:0:0:0:
161,189,111323,6,0,P|177:125|99:58,1,180,8|0,0:1|0:0,0:0:0:0:
18,43,112031,1,8,3:1:0:0:
11,205,112504,2,0,B|-3:243|30:263|58:283|34:334,2,135,2|2|0,1:2|0:0|3:0,0:0:0:0:
57,138,113449,6,0,B|81:95|138:80|185:113|178:152|303:205|360:161|376:109,1,360,4|2,1:3|1:3,0:0:0:0:
423,51,114630,1,8,0:0:0:0:
475,112,114866,1,8,3:1:0:0:
476,192,115102,6,0,B|386:175|288:289|288:289|162:202|72:253,1,450,8|2,0:1|1:2,0:0:0:0:
3,289,116520,1,8,0:0:0:0:
31,364,116756,1,8,3:1:0:0:
111,351,116993,6,0,B|175:339|175:339|247:327|255:266,1,180,8|2,0:1|0:3,0:0:0:0:
306,206,117701,1,8,3:2:0:0:
411,82,118174,2,0,P|452:108|470:152,2,90,2|8|8,1:3|0:2|3:1,0:0:0:0:
338,46,118882,6,0,P|252:38|174:88,1,180,8|0,0:1|0:0,0:0:0:0:
109,132,119590,2,0,P|145:161|196:165,1,90,2|2,3:2|0:0,0:0:0:0:
228,236,120063,2,0,P|276:200|321:198,1,90,2|2,1:2|0:0,0:0:0:0:
372,240,120536,1,2,3:3:0:0:
463,111,121008,5,4,3:1:0:0:
432,35,121244,1,2,0:0:0:0:
373,91,121480,1,2,1:1:0:0:
130,98,122189,1,2,0:0:0:0:
80,35,122425,1,2,1:1:0:0:
43,193,122898,5,2,3:3:0:0:
74,269,123134,1,2,0:0:0:0:
133,213,123370,1,2,1:1:0:0:
379,213,124079,1,2,0:0:0:0:
438,269,124315,1,2,1:3:0:0:
469,193,124551,1,2,0:0:0:0:
468,112,124787,6,2,B|468:32|392:16|316:28|328:88|296:136|256:148|216:136|184:88|196:28|120:16|44:32|44:112,1,540,4|0,3:1|1:0,0:0:0:0:
192,176,126677,6,0,P|256:196|320:176,2,135,2|2|2,3:2|0:3|0:0,0:0:0:0:
172,96,127622,2,0,B|216:84|256:116|256:116|296:84|340:96,1,180,2|8,3:3|1:1,0:0:0:0:
420,236,128567,5,4,3:1:0:0:
452,308,128803,1,2,0:0:0:0:
376,332,129039,1,2,1:1:0:0:
136,332,129748,1,2,0:0:0:0:
60,308,129984,1,2,1:1:0:0:
180,196,130457,5,2,3:3:0:0:
104,172,130693,1,2,0:0:0:0:
136,100,130929,1,2,1:1:0:0:
376,100,131638,1,2,0:3:0:0:
408,172,131874,1,2,1:2:0:0:
332,196,132110,1,2,0:3:0:0:
356,272,132346,6,2,P|256:348|156:272,1,270,6|2,3:1|0:0,0:0:0:0:
140,192,133291,2,2,B|176:140|228:140|228:140|284:140|284:140|336:140|372:192,1,270,6|0,3:1|0:0,0:0:0:0:
404,268,134236,5,8,1:0:0:0:
172,340,134945,2,0,B|216:368|256:340|256:340|296:368|340:340,2,180,8|2|0,1:1|1:2|0:0,0:0:0:0:
116,280,136126,6,0,P|116:230|92:192,1,90,8|0,3:1|0:0,0:0:0:0:
60,124,136598,1,8,1:2:0:0:
212,72,137071,2,0,P|256:80|300:72,1,90,8|0,3:1|0:0,0:0:0:0:
372,36,137543,1,8,1:2:0:0:
420,192,138016,6,0,B|412:256|412:256|400:320|332:328,1,180,8|2,3:1|1:3,0:0:0:0:
256,296,138725,1,0,0:0:0:0:
178,327,138961,2,0,B|112:320|100:256|100:256|92:192,1,180,8|2,3:1|1:2,0:0:0:0:
139,37,139905,6,0,P|183:31|224:46,1,90,8|0,3:1|0:0,0:0:0:0:
175,113,140378,1,8,1:2:0:0:
335,130,140850,2,0,P|376:114|420:120,1,90,8|0,3:1|0:0,0:0:0:0:
387,194,141323,1,8,1:2:0:0:
332,344,141795,6,0,B|316:376|288:376|288:376|224:376|224:376|196:376|180:344,1,180,8|2,3:1|1:3,0:0:0:0:
156,264,142504,1,0,0:0:0:0:
180,184,142741,2,0,B|196:152|224:152|224:152|288:152|288:152|316:152|332:184,1,180,8|2,3:1|1:2,0:0:0:0:
437,307,143685,6,0,P|461:267|457:219,1,90,8|0,3:2|0:0,0:0:0:0:
382,249,144157,2,2,B|340:241|301:273|311:288|268:316|219:298,1,180,2|8,1:1|3:1,0:1:0:0:
177,227,144866,2,0,P|117:231|85:206,1,90,0|2,0:0|1:3,0:0:0:0:
188,84,145575,6,0,B|212:56|252:60|252:60|284:36|312:48,2,135,8|2|8,3:1|0:0|0:1,0:0:0:0:
245,140,146520,2,0,P|275:170|275:215,1,90,8|0,3:2|0:0,0:0:0:0:
200,245,146992,2,0,P|168:206|168:168,1,90,8|8,1:1|0:1,0:0:0:0:
112,112,147464,6,0,B|80:136|80:168|80:168|80:200,1,90,4|0,3:2|0:0,0:0:0:0:
104,268,147937,1,2,3:3:0:0:
256,212,148409,1,4,3:2:0:0:
408,268,148882,1,2,3:2:0:0:
480,124,149354,6,0,P|448:92|392:96,1,90,4|2,3:2|0:3,0:0:0:0:
340,136,149827,2,0,P|329:180|360:227,1,90,4|2,3:2|0:3,0:0:0:0:
408,268,150300,2,0,P|423:309|414:354,1,90,4|2,3:2|0:3,0:0:0:0:
342,316,150772,1,6,3:2:0:0:
256,192,151244,6,0,B|232:148|256:128|280:108|256:60,2,135,8|8|8,3:0|0:3|0:3,0:0:0:0:
216,260,152189,2,0,P|156:276|84:260,2,135,8|8|8,3:3|0:3|0:3,0:0:0:0:
296,260,153134,2,0,P|361:277|427:261,2,135,8|8|8,3:3|0:3|0:3,0:0:0:0:
336,188,154079,1,8,3:1:0:0:
176,188,154551,1,10,1:3:0:0:
40,100,155024,6,0,P|92:31|180:40,1,180,8|8,3:3|1:3,0:0:0:0:
200,200,155968,1,8,3:3:0:0:
256,260,156204,1,2,0:3:0:0:
312,200,156441,1,10,1:3:0:0:
335,38,156914,6,0,P|421:30|473:98,1,180,8|8,3:3|1:2,0:0:0:0:
412,248,157858,2,0,P|386:284|344:298,1,90,8|0,3:3|0:0,0:0:0:0:
300,232,158331,2,0,P|255:223|211:231,1,90,8|8,1:2|0:3,0:0:0:0:
168,298,158804,6,0,P|125:284|101:248,1,90,8|0,3:2|0:0,0:0:0:0:
40,196,159276,2,0,B|70:155|125:157|118:176|167:177|199:131,2,180,2|8|2,1:1|3:1|1:3,0:2:0:0:
184,268,160693,6,0,B|220:284|252:264|252:264|292:276|316:248,2,135,8|2|8,3:1|0:0|0:1,0:0:0:0:
112,236,161638,2,0,P|48:253|0:300,2,135,8|10|8,3:2|0:0|0:1,0:0:0:0:
180,192,162582,6,0,P|226:189|261:164,1,90,4|0,3:2|0:0,0:0:0:0:
288,88,163055,1,2,3:3:0:0:
364,232,163527,1,4,3:2:0:0:
480,120,164000,1,2,3:2:0:0:
500,280,164472,6,0,P|468:304|410:304,1,90,4|2,3:2|0:3,0:0:0:0:
348,268,164945,2,0,P|316:292|260:292,1,90,4|2,3:2|0:3,0:0:0:0:
188,280,165418,2,0,P|188:232|168:188,1,90,4|2,3:2|0:3,0:0:0:0:
168,112,165890,2,2,B|212:124|248:92|256:96|264:92|300:124|344:112,1,180,6|4,3:2|3:1,0:0:0:0:
448,324,181481,6,0,B|396:304|360:328|372:336|324:368|256:324,1,180,4|2,1:3|3:0,0:0:0:0:
224,272,182189,1,0,0:0:0:0:
144,256,182426,2,0,P|200:256|260:160,1,180,0|2,3:0|3:0,0:0:0:0:
164,32,183370,6,0,B|92:32|72:92|72:92|52:152,1,180,4|2,1:3|3:0,0:0:0:0:
31,228,184079,1,0,0:0:0:0:
12,306,184315,2,0,P|60:271|177:282,1,180,0|2,3:0|3:0,0:0:0:0:
325,340,185260,6,0,B|306:292|343:262|379:281|412:246|397:195,1,180,4|2,1:3|3:0,0:0:0:0:
364,122,185969,1,0,0:0:0:0:
426,70,186205,2,0,P|354:102|245:89,1,180,0|2,3:0|3:0,0:0:0:0:
98,52,187150,6,0,P|14:92|55:137,1,180,4|2,1:3|3:0,0:0:0:0:
122,172,187859,1,0,0:0:0:0:
81,241,188095,2,0,B|132:209|174:231|154:244|210:267|249:228,1,180,0|0,3:0|1:2,0:0:0:0:
325,201,188804,1,0,1:0:0:0:
390,248,189040,6,0,P|345:310|245:314,1,180,4|2,1:3|3:0,0:0:0:0:
172,284,189748,1,0,0:0:0:0:
126,351,189985,2,0,P|142:299|106:177,1,180,0|2,3:0|3:0,0:0:0:0:
19,46,190930,6,0,B|64:25|104:51|104:51|148:30|196:60,1,180,4|2,1:3|3:0,0:0:0:0:
226,129,191638,1,0,0:0:0:0:
188,200,191874,2,0,P|265:163|379:175,1,180,0|2,3:0|3:0,0:0:0:0:
483,269,192819,6,0,B|441:299|390:281|406:252|350:227|306:262,1,180,4|2,1:3|3:0,0:0:0:0:
237,278,193528,1,0,0:0:0:0:
167,320,193764,2,0,P|219:318|356:374,1,180,0|2,3:0|3:0,0:0:0:0:
292,204,194709,6,0,P|203:193|125:238,1,180,4|2,1:3|3:0,0:0:0:0:
78,300,195418,1,0,0:0:0:0:
6,337,195654,2,0,B|52:314|86:334|80:363|133:376|182:340,1,180,0|0,3:0|1:3,0:0:0:0:
256,204,196599,5,4,1:2:0:0:
256,204,196835,1,4,0:1:0:0:
332,64,197307,5,4,1:2:0:0:
332,64,197544,1,4,0:1:0:0:
180,64,198016,5,2,1:2:0:0:
180,64,198253,1,2,1:2:0:0:
104,36,198489,6,0,P|144:73|111:193,1,180,4|8,3:2|0:1,0:0:0:0:
33,321,199433,2,0,B|74:289|128:306|110:320|174:351|218:309,1,180,8|8,3:3|0:1,0:0:0:0:
333,222,200378,1,12,3:3:0:0:
179,222,200851,1,8,0:1:0:0:
308,319,201323,2,0,B|338:351|402:320|384:306|438:289|479:321,1,180,8|8,3:1|0:3,0:0:0:0:
406,173,202268,6,0,P|439:126|521:97,2,135,12|8|8,3:3|0:1|0:2,0:0:0:0:
326,157,203213,2,0,P|328:92|276:25,2,135,8|8|12,3:3|0:3|0:3,0:0:0:0:
344,236,204158,6,0,B|298:253|273:214|257:216|241:214|215:252|169:235,1,180,8|8,3:3|0:1,0:0:0:0:
176,72,205103,1,8,3:3:0:0:
336,72,205575,1,8,0:1:0:0:
432,208,206048,6,0,P|404:248|416:296,1,90,12|0,1:3|0:0,0:0:0:0:
446,358,206520,2,0,B|411:328|360:348|374:355|316:380|273:344,1,180,2|0,0:0|3:0,0:0:0:0:
215,290,207229,2,0,P|169:304|128:296,1,90,0|2,0:0|0:3,0:0:0:0:
100,136,207937,6,0,P|75:84|-4:53,2,135,4|0|2,1:3|0:3|0:0,0:0:0:0:
180,122,208882,2,0,P|175:54|223:11,2,135,0|0|0,3:0|0:3|1:3,0:0:0:0:
215,200,209827,6,0,P|256:214|298:200,1,90,4|0,1:2|3:0,0:0:0:0:
256,137,210300,1,2,0:3:0:0:
321,285,210772,2,0,P|256:299|188:284,2,135,4|2|0,1:2|0:3|0:0,0:0:0:0:
397,258,211717,6,0,P|410:216|405:167,1,90,4|2,1:2|0:3,0:0:0:0:
374,95,212189,2,0,P|339:68|296:56,1,90,4|2,1:2|0:3,0:0:0:0:
215,56,212662,2,0,P|172:68|137:95,1,90,4|4,1:3|1:3,0:0:0:0:
105,170,213134,2,0,P|101:215|115:258,1,90,4|4,1:3|1:3,0:0:0:0:
151,329,213607,6,0,B|118:312|77:328|81:337|40:353|18:329,2,135,8|2|8,3:1|0:0|0:0,0:0:0:0:
214,278,214552,2,0,B|254:261|288:277|284:286|325:302|347:278,2,135,8|2|8,3:1|0:0|0:0,0:0:0:0:
142,240,215496,5,8,3:1:0:0:
160,160,215733,1,0,0:0:0:0:
172,80,215969,1,2,1:3:0:0:
340,80,216441,1,8,3:1:0:0:
352,160,216678,1,0,0:0:0:0:
370,240,216914,1,2,1:2:0:0:
256,352,217386,6,0,P|196:320|130:324,2,135,8|2|8,3:1|0:0|0:0,0:0:0:0:
304,288,218331,2,0,P|351:264|448:287,2,135,8|2|8,3:1|0:0|0:0,0:0:0:0:
256,224,219276,5,8,3:1:0:0:
180,204,219512,1,0,0:0:0:0:
104,184,219748,1,2,1:3:0:0:
180,40,220221,1,8,3:1:0:0:
256,60,220457,1,0,0:0:0:0:
332,80,220693,1,2,1:2:0:0:
416,220,221166,6,0,P|397:277|409:313,1,90,8|0,3:2|0:0,0:0:0:0:
476,268,221638,2,2,B|497:221|462:176|432:196|397:157|415:117,1,180,2|8,1:1|3:1,0:1:0:0:
460,48,222347,2,0,P|418:61|375:50,1,90,0|2,0:0|1:3,0:0:0:0:
216,20,223056,6,0,P|168:16|120:28,1,90,8|0,3:1|0:0,0:0:0:0:
48,4,223528,2,0,B|35:49|69:86|69:86|64:136|104:168,1,180,8|8,1:1|3:2,0:0:0:0:
152,100,224237,2,0,P|196:100|236:128,1,90,0|8,0:0|1:1,0:0:0:0:
176,276,224945,5,4,3:2:0:0:
256,296,225182,1,0,0:0:0:0:
336,276,225418,1,2,3:3:0:0:
340,116,225890,2,0,P|256:88|172:116,1,180,4|2,3:2|3:2,0:0:0:0:
84,252,226835,6,0,P|112:284|160:300,1,90,4|2,1:2|0:3,0:0:0:0:
212,240,227307,2,0,P|256:232|300:240,1,90,4|2,1:2|0:3,0:0:0:0:
356,300,227780,2,0,P|398:286|428:252,1,90,4|2,1:2|1:3,0:0:0:0:
448,172,228252,1,4,1:0:0:0:
256,192,228489,12,0,234158,0:0:0:0:
